#TITLE:snow storm;
#SUBTITLE:-euphoria-;
#ARTIST:Yooh;
#TITLETRANSLIT:;
#SUBTITLETRANSLIT:;
#ARTISTTRANSLIT:;
#CREDIT:;
#BANNER:snow storm -euphoria-.png;
#BACKGROUND:snow storm -euphoria--bg.PNG;
#LYRICSPATH:;
#CDTITLE:;
#MUSIC:snow storm -euphoria-.mp3;
#OFFSET:-0.020;
#SAMPLESTART:48.020;
#SAMPLELENGTH:10.660;
#SELECTABLE:YES;
#BPMS:0.000=180.000,314.000=130.000,324.000=103.000,325.000=89.000;
#STOPS:67.000=2.667
,131.000=1.333
;
#BGCHANGES:;

//---------------dance-single - ----------------
#NOTES:
     dance-single:
     :
     Hard:
     13:
     0.714,0.728,0.183,0.333,0.262:
0000
0000
0000
0000
,
1000
0100
1000
0010
0100
0000
0001
0000
,
0010
0100
0010
0001
1000
0000
0001
0000
,
1000
0010
0000
0100
0000
0000
0010
0000
1000
0000
0000
0001
0000
0000
0010
0000
,
0100
0010
0000
0001
0000
0000
0010
0000
0100
0000
0000
0010
0000
0000
0001
0000
,
1000
0010
0100
0001
0100
0000
0001
0010
,
0100
0010
0001
1000
0001
0000
1000
0010
,
0100
0001
1000
0100
0010
0001
0100
0001
,
1000
0000
0000
0000
1100
0000
0000
1000
0100
0000
0010
0001
0010
0000
0001
0000
,
1001
0000
0010
1000
0001
0000
0010
0001
,
1000
0000
0000
0000
0010
0000
1000
0000
0001
0000
0000
0000
0010
0000
0001
0010
,
0001
0000
0000
0000
1000
0000
0000
0010
1000
0000
0000
0000
0001
0000
0000
0100
,
0010
0000
0000
0010
1000
0000
0000
1000
0001
0000
0000
0001
0010
0001
0010
0001
,
0010
0001
0010
0001
0010
0100
1000
0100
,
1000
0010
0100
0001
0100
0010
1000
0001
,
1000
0100
0001
0100
0010
0100
0010
0001
,
0011
0000
0000
0000
0000
0000
1100
0000
0000
0000
0000
0000
0001
0000
1000
0000
0001
0000
0200
0300
0000
0000
0000
0000
,
1002
0000
0203
0320
,
2030
0000
3002
0000
,
2003
3200
0320
0230
,
2300
0000
3020
0230
,
0302
0000
2003
0000
,
3200
0000
2300
0000
,
3001
1000
0100
0010
,
0011
0101
1010
1001
,
1000
0000
0000
0010
0000
0000
1000
0000
0001
0000
0000
0100
0000
0000
0001
0000
,
1000
0000
0000
0100
0000
0000
0010
0000
0001
0000
0000
0100
0000
0000
0010
0000
,
1000
0000
0000
0001
0000
0000
0100
0000
0001
0000
0000
1000
0000
0000
0100
0000
,
1000
0000
0001
0100
0001
0010
0100
0010
,
0001
0100
0001
0100
0010
0100
0010
0100
,
0010
1000
0010
1000
0001
1000
0100
0010
,
0001
0100
1000
0100
0001
0010
1000
0010
,
0001
0000
0100
0000
0010
0000
1000
0000
0100
0000
0010
0000
0002
0003
0000
0000
,
1000
0000
0001
0200
0000
0000
0310
0000
0100
0000
0001
0000
1000
0000
0000
0000
,
0001
0000
0010
0002
0000
0000
1003
0000
0100
0000
1000
0000
0001
0000
0100
0000
,
0001
0000
1000
0100
0000
0000
1000
0000
0001
0000
0100
0001
0000
0000
0100
0000
,
0010
1000
0100
0001
0100
1000
0001
0000
,
1000
0100
0010
0100
1000
0010
0100
0001
,
0100
0010
1000
0100
0010
0001
0010
0001
,
0001
0100
1000
0001
0010
1000
0100
0010
,
0001
0000
1000
0000
0100
0000
0000
1000
0100
0000
1000
0000
0001
0000
0100
0000
,
0001
0000
1000
0001
0000
1000
0001
0000
0100
0000
0010
0000
1000
0000
0000
0000
,
0001
0000
0100
0010
0000
0100
0010
0000
1000
0000
0001
0000
0010
0000
0000
0000
,
0001
0000
1000
0100
0000
0100
1000
0000
0010
0000
0100
0001
0000
0001
0100
0000
,
0001
0100
0010
1000
0100
0010
0001
0000
,
1000
0100
1000
0100
0010
0001
0010
0001
,
1000
0010
0100
0001
0010
0100
0010
0001
,
1000
0010
0100
0010
0001
0010
1000
0100
,
0010
0000
0001
0010
0001
0000
1000
0100
1000
0000
0001
0000
0200
0000
0310
0000
,
2002
3003
2020
3030
,
0202
0303
0022
0033
,
1001
0100
1010
0100
,
0011
0000
1100
0000
1000
0100
0010
0001
,
1000
0000
0000
0000
0001
0000
0000
0000
1000
0001
1000
0001
1000
0000
0000
0000
,
0001
0000
0000
0000
0100
0000
0010
0000
1000
0000
0001
0010
0001
0000
1000
0000
,
0001
0100
0001
0100
0010
1000
0100
0010
,
0100
0010
0100
0010
0001
1000
0001
0100
,
0010
1000
1000
0001
0001
0010
0010
0100
,
0100
0010
0001
0100
1000
0100
0001
1000
,
2002
0000
0000
0000
0000
0000
3003
0000
0001
0000
0100
0001
0000
0001
1000
0000
,
0100
0000
1000
0000
0010
0000
0000
0000
0100
0000
0010
0100
0000
0100
0010
0000
,
1000
0000
0001
0000
0010
0000
0100
0000
0010
0000
0001
1000
0000
0001
0100
0000
,
0010
1000
0100
0010
0001
0100
1000
0100
,
0001
0000
1000
0000
0001
0000
0000
0000
0100
0001
0100
0000
0010
0000
1000
0000
,
0100
0000
0010
0000
0001
0000
0000
0000
1000
0100
1000
0000
0001
0000
0100
0000
,
0010
0000
1000
0000
0001
0000
0000
0000
0100
0010
0100
0000
0001
0000
1000
0000
,
0100
0000
0010
0000
0001
0000
0100
0000
0001
0000
0000
0000
1000
0000
0000
0100
,
1000
0000
0001
0000
0100
0000
0001
0000
1000
0000
0001
0010
0000
0100
1000
0000
,
0001
0000
0100
0000
0010
0000
1000
0000
0001
0000
1000
0010
0000
0100
0001
0000
,
1000
0000
0100
0000
0010
0000
0001
0000
0100
0000
0010
0100
0010
0000
1000
0000
,
0100
0010
0001
1000
0100
1000
0001
0100
,
0001
1000
0001
1000
0001
1000
0100
0000
0000
0010
0000
0000
,
1001
0100
1100
0010
,
1001
0000
0001
0100
1000
0100
0010
1000
,
0100
0010
0001
1000
0001
0010
0100
0001
,
0100
1000
0001
1000
0001
0200
0310
2000
,
3001
1000
0001
1000
0002
0000
0003
0000
0220
0000
0000
0000
0000
0000
0000
0000
,
0000
0000
0000
0000
,
0000
0330
0200
0000
,
0000
0000
0302
1000
,
0100
0000
1003
0000
1000
0100
1000
0100
,
0010
0001
0010
0100
2000
0000
0000
0000
,
0002
0000
0000
0000
,
0000
3003
0000
0000
;

//---------------dance-single - ----------------
#NOTES:
     dance-single:
     :
     Easy:
     6:
     0.381,0.416,0.142,0.400,0.000:
0000
0000
0000
0000
,
0002
0003
2000
3000
,
0200
0300
0020
0030
,
0100
0010
0100
1000
,
0100
0010
0001
1000
,
0002
0003
0200
0300
,
0020
0030
2000
3000
,
0001
0100
0001
1000
,
0100
0010
2002
3003
,
0002
0003
2000
3000
,
0200
0300
0020
0030
,
0200
0300
2000
3000
,
0001
0100
0010
1000
,
0002
0003
2000
3000
,
0002
0003
0020
0030
,
0100
0010
0001
0100
,
0010
1000
2002
3003
,
1001
0000
0010
0100
,
0110
0000
0010
1000
,
0100
0010
0001
0010
,
0001
0000
1000
0100
,
2000
0000
3020
0000
,
0230
0000
0302
0000
,
0103
0001
1000
0100
,
0010
0010
0100
0100
,
1001
0000
0001
0000
,
0100
0000
0010
1000
,
0001
0000
0010
0001
,
0100
0000
0001
0000
,
1000
0100
1000
0100
,
0010
0001
0010
0001
,
1000
0001
1000
0001
,
0100
0010
0100
0010
,
1001
0000
0001
0100
,
0001
0000
1000
0100
,
1000
0001
0010
0100
,
0010
0001
1000
0001
,
0100
0100
0100
0000
,
0010
0010
0010
0000
,
1000
0001
1000
0100
,
1000
0001
0100
0010
,
0220
0330
0010
1000
,
0001
0000
1000
0001
,
0010
0000
0001
0100
,
0010
1000
0100
0010
,
0100
0010
0100
0000
,
1000
0001
1000
0000
,
0001
0100
0010
1000
,
0001
0010
0200
0300
,
2002
3003
0002
0003
,
0200
0300
0020
0030
,
2000
3000
0002
0003
,
1000
0100
0010
0001
,
0100
0001
0200
0300
,
0010
1000
0002
0003
,
1000
0100
0010
0001
,
0100
0010
1000
0001
,
1000
0100
0010
0001
,
0100
0010
1000
0001
,
2002
3003
0001
0100
,
0001
1000
0100
0001
,
0100
1000
0001
0010
,
0100
0010
0001
1000
,
0100
0010
0100
0100
,
1000
0001
0100
0100
,
0010
1000
0001
0010
,
0100
0001
0100
1000
,
0010
0001
0010
1000
,
0001
0001
1000
0100
,
0010
0010
0100
0010
,
0001
1000
0001
0100
,
0220
0330
1001
0000
,
0011
0000
1100
0000
,
1001
0110
1001
0001
,
0100
0010
1000
0100
,
0010
0100
1000
0001
,
0100
0010
2002
0000
,
0000
0000
0000
0000
,
0000
3003
0002
0000
,
0000
0000
2003
0000
,
0000
0000
3001
0100
,
0001
1000
0200
0000
,
0020
0000
0000
0000
,
0000
0330
0000
0000
;

//---------------dance-single - ----------------
#NOTES:
     dance-single:
     :
     Medium:
     9:
     0.547,0.520,0.192,0.383,0.000:
0000
0000
0000
0000
,
2000
3100
0002
0103
,
2000
3010
0002
0013
,
0001
0000
1000
0010
0100
0000
0010
0000
,
1000
0000
0001
0100
0001
0000
1001
0000
,
0002
0013
0020
0130
,
0200
1300
2000
3001
,
1000
0000
0100
1000
0001
0000
0010
0000
,
0100
0000
0010
0001
1000
0001
0100
0001
,
0200
0301
0020
0031
,
2000
0000
3001
0000
0200
0000
0301
0001
,
2000
3010
0200
0301
,
1100
0000
0011
0000
1001
0000
0001
1000
,
0001
0000
1000
0010
1000
0000
0001
0100
,
0001
0000
1000
0100
0010
0000
0001
0100
,
0010
0000
1000
0010
0100
0000
0001
0010
,
0001
1000
0011
1001
,
2001
0000
3200
2300
,
3002
0000
0203
0302
,
0013
0001
0100
0010
,
0200
0000
0310
0100
,
2001
0000
3200
0000
,
0302
0000
0203
0000
,
2300
0000
3020
0000
,
0130
0001
1000
0100
,
0010
0001
0010
0000
0001
0000
0100
0000
,
0001
0100
0001
0000
0100
0000
0010
0000
,
1000
0010
0100
0000
0001
1000
0100
0000
,
0010
0000
0001
1000
0001
1000
0001
0000
,
0100
0010
0100
0000
0010
0100
0001
0000
,
0001
1000
0100
0000
0010
0001
1000
0000
,
0001
0000
0100
0000
1000
0010
0100
0000
,
0001
1000
0001
1000
0010
0100
0010
0000
,
1002
0000
0010
0000
0103
0001
0100
0000
,
0020
0000
1000
0000
1030
0001
1000
0000
,
0100
0010
0001
0000
1000
0001
0100
0000
,
0010
0000
0100
0000
0001
1000
0001
1000
,
0010
0000
0100
0000
0010
0100
0001
0000
,
0010
0000
0100
0000
0010
0001
1000
0000
,
0001
0100
0001
0000
1000
0010
1000
0010
,
0100
0010
1001
0110
,
2001
0000
0010
0000
3001
1000
0001
0000
,
0002
0000
0010
0000
1003
0001
1000
0000
,
0001
0100
0010
0000
1000
0010
0100
0000
,
0001
0000
0100
0001
0010
0001
1000
0000
,
0001
0100
0010
0000
1000
0001
0010
0000
,
0001
0010
0100
0000
0010
0001
1000
0000
,
0001
0100
0001
0100
0010
1000
0010
1000
,
0010
0000
0100
0000
0001
1000
0001
0000
,
2000
3000
0020
0030
,
0200
0300
0002
0003
,
2000
3000
0200
0300
,
0010
0000
0001
0000
1000
0100
1000
0100
,
1000
0000
0001
0000
0100
0001
0100
0000
,
0001
0000
1000
0000
0010
1000
0010
0000
,
0100
0001
1000
0000
0001
1000
0100
0000
,
1000
0100
0010
0000
0100
1000
0001
0000
,
1000
0010
0001
0000
1000
0100
0001
0000
,
0010
0001
1000
0100
0010
0001
1000
0000
,
2002
3003
0001
0100
,
0010
1000
0010
1000
0100
0000
0010
0000
,
0001
1000
0001
1000
0100
0000
0010
0000
,
0001
0100
0010
0000
0100
0010
1000
0001
,
0010
0000
0100
0000
0010
0001
0010
0100
,
1000
0000
1100
0000
1000
0010
0100
0001
,
0100
0000
0101
0000
0010
1000
0001
0000
,
0010
0001
0100
0010
1000
0000
0100
0000
,
0010
0100
0010
0000
1001
0000
1000
0010
,
0100
0000
0001
0000
0010
0001
0010
0001
,
1000
0000
0001
0000
0100
0010
1000
0100
,
0010
0000
0001
1000
0001
0000
1000
0000
,
2002
3003
1001
0000
,
0011
0000
1100
0000
,
1001
0110
1001
0001
,
0100
0001
1000
0000
0001
0010
0100
0000
,
0010
0001
1000
0000
0001
0100
0001
0100
,
0010
1000
0010
1000
0002
0000
0000
0000
,
0000
0000
0000
0000
,
0000
0003
2000
0000
,
0000
0000
3200
1000
,
0010
0000
0310
0000
0100
0000
0010
0001
,
1000
0000
0001
1000
0002
0000
0000
0000
,
2000
0000
0000
0000
,
0000
3003
0000
0000
;

//---------------dance-single - ----------------
#NOTES:
     dance-single:
     :
     Beginner:
     4:
     0.207,0.243,0.092,0.008,0.000:
0000
0000
0000
0000
,
1000
0000
0001
0000
,
0100
0000
0010
0000
,
0100
0000
0100
0000
,
0001
0000
1000
1000
,
1000
0000
0001
0000
,
0010
0000
0100
0000
,
0010
0000
0001
0000
,
1000
0000
0100
0100
,
0100
0000
1000
0000
,
0001
0000
0100
0000
,
0010
0000
1000
0000
,
0001
0001
0001
0001
,
0001
0000
0100
0000
,
0001
0000
1000
0000
,
0100
0000
0010
0000
,
0001
0001
0001
0001
,
1000
0000
0000
0000
,
0001
0000
0000
0000
,
1000
0000
0010
0000
,
0100
0000
0000
0000
,
0010
0000
0010
0000
,
0100
0000
0100
0000
,
0001
0000
1000
0000
,
0001
0000
0000
0000
,
1000
0000
0100
0000
,
0010
0000
0001
0000
,
0100
0000
0010
0000
,
0100
0000
0000
0000
,
0001
0000
0001
0000
,
1000
0000
1000
0000
,
0001
0000
0100
0000
,
0010
0000
1000
0000
,
1001
0000
0000
0000
,
1000
0000
0010
0000
,
0100
0000
0001
0000
,
0010
0000
0100
0000
,
0010
0010
0010
0000
,
0100
0100
0100
0000
,
0010
0000
0001
0000
,
1000
0000
0001
0000
,
1001
0000
0000
0000
,
0100
0000
0010
0000
,
1000
0000
0001
0000
,
1000
0000
0100
0000
,
0010
0010
0010
0000
,
0100
0100
0100
0000
,
0010
0000
0001
0000
,
1000
0000
0001
0000
,
1001
0000
1000
0000
,
0100
0000
0100
0000
,
1000
0000
0100
0000
,
0010
0000
0001
0000
,
0100
0100
0100
0000
,
0010
0010
0010
0000
,
1000
0000
0001
0000
,
1000
0000
0001
0000
,
0100
0000
0010
0000
,
0100
0000
0010
0000
,
1001
0000
1001
0000
,
0001
0000
0100
0000
,
0001
0000
1000
0000
,
0100
0000
0010
0000
,
0000
0000
0100
0100
,
0100
0000
0010
0010
,
0010
0000
0100
0000
,
1000
0000
0001
0000
,
0100
0000
1001
0000
,
0000
0000
0110
0000
,
0000
0000
0010
0000
,
1000
0000
0001
0000
,
1001
0000
1001
0000
,
0000
0000
0110
0000
,
0000
0000
0001
0000
,
1000
0000
0100
0000
,
0010
0000
0001
0001
,
0001
0001
1001
0000
,
0000
0000
0000
0000
,
0000
0000
1000
0000
,
0000
0000
0001
0000
,
0000
0000
1000
0000
,
0010
0000
0100
0000
,
0200
0000
0000
0000
,
0000
0300
0000
0000
;

//---------------dance-single - ----------------
#NOTES:
     dance-single:
     :
     Challenge:
     17:
     0.998,1.000,0.142,0.158,0.995: // measure 1
0000
0000
0000
0000
,  // measure 2
0001
0100
0001
0010
0100
1000
0100
0010
,  // measure 3
0001
0100
0010
0100
0001
0010
0100
1000
,  // measure 4
0001
0100
0000
0110
0000
0000
0010
0000
1000
0000
0000
1100
0000
0000
0100
0000
,  // measure 5
0010
0001
0000
1001
0000
0000
1000
0000
0001
0000
0000
0110
0000
0000
0010
1000
,  // measure 6
0010
1000
0100
0010
1000
0010
0001
0100
,  // measure 7
0010
0100
0001
0010
0100
1000
0001
0100
,  // measure 8
0001
1000
0000
0101
0000
0000
0001
0000
0010
0000
0100
0010
0001
0000
1000
0000
,  // measure 9
1100
0000
0000
0000
0011
0000
0000
0001
0100
0000
0010
1000
0001
0000
0010
0001
,  // measure 10
1000
0100
1000
0100
0001
0100
0001
0100
,  // measure 11
1000
0000
0100
0000
0010
0000
0001
0000
0100
0000
0010
0000
1000
0001
0100
0001
,  // measure 12
0100
0000
0010
0000
0100
0000
0010
0000
1000
0000
0001
0000
0010
0000
0100
0010
,  // measure 13
0001
0010
0000
0001
0100
0010
0000
1000
0001
0100
0000
0001
0100
0010
1000
0100
,  // measure 14
0010
0000
0001
0000
0100
0000
0010
0000
1000
0000
0001
0000
0010
0000
0100
0010
,  // measure 15
0001
0000
0100
0000
0010
0000
1000
0000
0001
0000
0100
0000
0010
0000
1000
0010
,  // measure 16
0100
0010
0100
0001
1000
0100
0010
0001
0010
0001
1000
0100
1000
0001
0100
0010
,  // measure 17
1000
0000
0000
0001
0000
0000
0000
0000
0000
0000
0000
0000
1000
0000
0000
0001
0000
0000
0000
0000
0000
0000
0000
0000
1000
0000
0000
0000
0001
0000
0000
0000
1000
0000
0000
0000
2002
0000
3003
0000
0000
0000
0000
0000
0000
0000
0000
0000
,  // measure 18
0002
0010
1000
0100
,  // measure 19
2003
0010
0001
3100
,  // measure 20
1000
0000
0100
0000
0010
0000
0001
0000
0100
0000
0010
0100
0001
0000
0010
0000
,  // measure 21
0002
0000
0000
1000
2003
0000
3020
0000
,  // measure 22
0130
0010
0100
0001
0100
0010
1000
0100
,  // measure 23
0010
0100
0001
0100
0010
0100
1000
0100
,  // measure 24
0010
0001
0100
0010
1000
0001
0100
0001
,  // measure 25
1000
0100
0000
0000
1000
0010
0000
0000
0100
0001
0000
0000
0010
0001
0000
0000
,  // measure 26
1000
0000
0010
1000
0000
1000
0010
0000
0100
0000
0001
0100
0000
0100
0001
0000
,  // measure 27
0010
0000
0100
0010
0000
0010
0100
0000
0010
0000
0001
1000
0000
0001
1000
0000
,  // measure 28
0100
0000
1000
0100
0000
0010
0001
0000
0100
0000
0001
0100
0000
0010
1000
0000
,  // measure 29
0001
0000
0100
0000
0010
0000
1000
0100
0010
0000
0001
0000
0100
0000
0010
0000
,  // measure 30
1000
0000
0001
0100
0001
0000
1000
0100
1000
0000
0001
0010
0001
0000
1000
0010
,  // measure 31
0100
0000
0001
0010
0100
0000
0010
0001
1000
0000
0001
0100
0010
0000
1000
0010
,  // measure 32
0100
0001
0100
0001
1000
0100
1000
0100
0010
0001
0100
0010
1000
0001
0100
0001
,  // measure 33
0100
0010
1000
0100
0010
0001
1000
0100
0010
0001
0100
0001
0200
0300
0000
0000
,  // measure 34
0001
0000
1000
0100
0000
0010
0001
0010
0001
0000
0100
0000
0001
0000
1000
0000
,  // measure 35
0010
0000
0100
0010
0000
1000
0001
1000
0100
0000
0010
0000
0100
0000
1000
0000
,  // measure 36
0001
0000
1000
0100
0000
0010
0100
1000
0100
0000
0010
0000
0001
0000
1000
0000
,  // measure 37
0001
0000
0100
0010
1000
0000
0001
0010
0100
0000
0010
0000
0001
0000
1000
0000
,  // measure 38
0001
0000
1000
0100
1000
0000
0001
0000
1000
0000
0100
0010
0100
0000
0010
0000
,  // measure 39
0001
0000
0100
0010
1000
0000
0100
0000
0010
0000
0001
0010
0100
0000
0010
0000
,  // measure 40
0001
0000
1000
0010
0100
0001
0100
0000
0001
0000
1000
0100
0010
0001
0010
0000
,  // measure 41
0001
0000
1000
0001
0100
0010
0100
0001
1000
0000
0100
0000
1000
0000
0001
0000
,  // measure 42
1000
0000
0001
0100
0000
0010
1000
0100
0010
0000
0100
0000
0010
0001
0010
0000
,  // measure 43
0001
0000
0100
0001
0000
0100
0010
1000
0001
0000
0100
0000
0010
1000
0010
1000
,  // measure 44
0100
0000
0010
0001
0100
0001
0010
0000
0001
0000
0100
0010
1000
0100
1000
0000
,  // measure 45
0010
0100
0001
0100
0010
1000
1000
0010
,  // measure 46
1000
0000
0010
0100
0010
0100
0001
0000
0010
0000
0001
1000
0100
1000
0100
0000
,  // measure 47
1000
0000
0010
0100
0001
0010
0001
0000
1000
0000
0010
0100
0001
1000
0100
0000
,  // measure 48
1000
0100
1000
0100
0010
0001
0010
0001
1000
0001
0100
0010
0100
0001
0010
0100
,  // measure 49
0010
0000
0001
1000
0100
0000
0100
1000
0001
0000
0100
0000
0220
0000
0330
0000
,  // measure 50
1000
0000
0001
0100
0001
0000
0100
0001
0100
0000
0001
0000
1000
0000
0100
0000
,  // measure 51
1000
0000
0000
0001
0000
0000
0010
0001
0010
0001
0000
0000
1000
0000
0000
0100
0000
0000
0100
0000
0000
1000
0000
0000
,  // measure 52
0001
0000
0100
0010
1000
0000
0100
0000
0001
0000
0100
0000
1000
0000
0001
0000
,  // measure 53
1000
0000
0000
0100
0010
0100
0010
0000
0000
0001
0000
0000
1000
0000
0000
0001
0000
0000
0100
0000
0000
0010
0000
0000
,  // measure 54
1000
0000
0001
0100
0001
0000
1000
0100
0010
0001
0100
0001
0100
0000
0001
0000
,  // measure 55
1000
0000
0100
0000
1000
0000
0001
0100
0001
0000
1000
0010
1000
0001
0010
0100
,  // measure 56
0010
0000
0001
0000
0100
0000
0010
0000
1000
0000
0001
0100
0001
0000
1000
0000
,  // measure 57
0100
0000
0010
0001
0100
0001
0100
0000
0010
1000
0010
1000
0001
0010
0100
1000
,  // measure 58
0100
0000
0010
0001
0100
0000
0001
0100
0010
0000
0100
0010
1000
0000
0010
1000
,  // measure 59
0001
0010
0001
0100
0001
0100
0010
1000
0001
0010
0001
0010
0100
0010
0001
1000
,  // measure 60
0200
0000
0000
0000
0000
0000
0300
0000
1001
0000
0001
0100
0000
0010
1000
0001
,  // measure 61
0010
0000
0100
0000
0010
0000
0001
0000
1000
0000
0100
1000
0000
0100
1000
0001
,  // measure 62
0100
0000
0010
0000
0100
0010
1000
0000
0001
0000
1000
0100
1000
0000
0001
0100
,  // measure 63
0010
0000
0100
0000
0001
0000
0010
0000
0001
0000
1000
0100
0010
0000
0001
1000
,  // measure 64
0001
0000
0100
0000
0010
0000
1000
0000
0001
0100
0001
0100
0010
1000
0010
1000
,  // measure 65
0100
0000
1000
0000
0100
0000
0010
0000
0001
0100
0001
0100
0010
1000
0010
1000
,  // measure 66
0001
0000
0010
0000
0100
0000
0010
0000
0001
1000
0100
0010
0100
1000
0001
0100
,  // measure 67
0001
0000
1000
0010
1000
0000
0001
0000
0100
0010
0100
0001
0100
0000
0001
1000
,  // measure 68
0001
0000
1000
0000
0100
0000
0010
0000
0011
0000
1000
0010
0000
1000
0010
0100
,  // measure 69
0001
0000
1000
0000
0001
0010
0100
0010
0001
0000
0100
0010
0000
1000
0001
0100
,  // measure 70
0010
0000
1000
0000
0001
0100
0010
1000
0100
0000
0010
0001
1000
0100
1000
0001
,  // measure 71
0100
0000
0001
0100
0010
1000
0010
0100
0001
0000
1000
0001
0010
0100
0010
0001
,  // measure 72
1000
0000
0000
0000
0001
0000
0000
0000
1000
0000
0000
0000
0001
0000
0000
0000
1000
0000
0000
0000
0001
0000
0000
0000
0100
0000
0000
0000
0000
0000
0001
0000
0000
0100
0000
0000
0001
0000
0000
0000
0000
0000
1000
0000
0000
0000
0000
0000
,  // measure 73
1100
0000
0100
0010
0001
0000
0100
0000
0101
0000
0010
1000
0001
0000
1000
0000
,  // measure 74
1100
0000
0010
0000
0101
0000
0010
0000
1000
0000
0100
1000
0100
0000
0010
0001
,  // measure 75
0010
0000
0001
0100
0010
1000
0100
0010
0001
0100
0001
0100
0010
1000
0010
1000
,  // measure 76
0001
1000
0100
0010
0100
1000
0001
0100
0010
0000
0200
0000
0301
0000
2000
0000
,  // measure 77
3001
0100
0001
0100
0010
0000
0110
0000
2002
0000
0000
0000
0000
0000
0000
0000
,  // measure 78
0000
0000
0000
0000
,  // measure 79
0000
3003
0200
0000
,  // measure 80
0000
0000
0000
0000
0000
0000
0300
0000
0000
0000
1000
0001
2000
0000
0000
0000
0000
0000
0100
0000
0000
0000
0000
0000
,  // measure 81
0010
0000
0000
0000
0000
0000
3001
0000
0000
0010
0001
0010
0001
0000
0000
0100
0000
0000
0010
0000
0000
1000
0000
0000
,  // measure 82
0100
0000
0000
0000
0010
0000
0000
0000
0001
0000
0000
0000
1000
0000
0100
0010
0002
0000
0000
0000
0000
0000
0000
0000
0000
0000
0000
0000
0000
0000
0000
0000
,  // measure 83
2000
0000
0000
0000
,  // measure 84
0000
3003
0000
0000
;
