#VERSION:0.83;
#TITLE:retract.shine;
#SUBTITLE:;
#ARTIST:saiiko2;
#TITLETRANSLIT:;
#SUBTITLETRANSLIT:;
#ARTISTTRANSLIT:;
#GENRE:;
#ORIGIN:;
#CREDIT:;
#BANNER:retractshine.png;
#BACKGROUND:retractshine-bg.png;
#PREVIEWVID:;
#JACKET:retractshine-jacket.png;
#CDIMAGE:;
#DISCIMAGE:;
#LYRICSPATH:;
#CDTITLE:;
#MUSIC:retractshine.ogg;
#OFFSET:-0.200000;
#SAMPLESTART:85.532997;
#SAMPLELENGTH:12.000000;
#SELECTABLE:YES;
#DISPLAYBPM:90.000000:180.000000;
#BPMS:0.000=90.000,
16.000=180.000,
240.000=90.000,
242.000=180.000,
302.000=90.000,
314.500=45.000;
#STOPS:;
#DELAYS:;
#WARPS:;
#TIMESIGNATURES:0.000=4=4;
#TICKCOUNTS:0.000=4;
#COMBOS:0.000=1;
#SPEEDS:0.000=1.000=0.000=0;
#SCROLLS:0.000=1.000;
#FAKES:;
#LABELS:0.000=Song Start;
#BGCHANGES:;
#KEYSOUNDS:;
#ATTACKS:
;

//---------------dance-single - ----------------
#NOTEDATA:;
#CHARTNAME:;
#STEPSTYPE:dance-single;
#DESCRIPTION:;
#CHARTSTYLE:;
#DIFFICULTY:Hard;
#METER:14;
#RADARVALUES:0.606206,0.685687,0.459638,0.820782,0.098494,517.000000,461.000000,56.000000,100.000000,4.000000,0.000000,0.000000,0.000000,0.000000,0.606206,0.685687,0.459638,0.820782,0.098494,517.000000,461.000000,56.000000,100.000000,4.000000,0.000000,0.000000,0.000000,0.000000;
#CREDIT:Kekkle;
#NOTES:
// measure 0
0000
0000
0000
0000
,  // measure 1
0000
0000
0000
0000
,  // measure 2
0002
0000
0203
0000
,  // measure 3
0020
0000
0000
0330
,  // measure 4
201M
0000
0000
0000
3100
0000
0010
0001
0010
0000
0000
0000
0001
0000
0000
0000
,  // measure 5
2001
0000
0000
3010
0000
0000
0100
0000
0102
0000
0000
0000
1003
0000
0000
0000
,  // measure 6
1200
0000
0000
0000
0310
0000
0001
1000
0001
0000
0000
0000
0100
0000
0000
0000
,  // measure 7
0120
0000
0031
0010
1000
0001
0011
0000
,  // measure 8
0210
0000
0000
0000
1300
0000
0001
0100
0001
0000
0000
0000
0010
0000
0000
0000
,  // measure 9
0210
0000
0000
1300
0000
0000
0001
0000
0101
0000
0000
0000
0010
0000
0000
0000
,  // measure 10
2002
0000
0000
0000
,  // measure 11
0000
0000
0000
0000
3003
0000
0000
0000
0001
0100
0001
0100
0010
1000
0010
1000
,  // measure 12
0001
0010
0100
0002
0000
1003
0010
0001
,  // measure 13
0100
0010
0001
0020
0000
1030
0001
0010
,  // measure 14
0110
0000
2100
0000
0001
3002
0000
0103
,  // measure 15
0010
2000
0001
3002
0000
0013
1000
0010
,  // measure 16
0001
0100
0010
0002
0000
0000
0013
0000
,  // measure 17
0110
0000
0100
0002
0000
1003
0100
0002
,  // measure 18
0000
0103
0020
0000
0031
0100
1000
0002
,  // measure 19
0000
1003
0100
0002
0000
1003
1000
0100
,  // measure 20
0010
0001
0100
2000
0000
3100
0002
0010
,  // measure 21
0000
1003
0200
0010
0000
0001
0000
1300
,  // measure 22
0002
0000
0103
0020
0000
1030
0200
0000
,  // measure 23
0320
1000
0230
0001
,  // measure 24
0320
0000
0031
0200
0000
1300
0001
0010
,  // measure 25
1000
0100
0001
0200
0000
1300
0010
0020
,  // measure 26
0000
0130
0001
0010
2000
0000
3002
0000
,  // measure 27
0103
0000
0100
0000
0010
0000
0002
0000
0000
0103
0000
0100
0010
0000
1000
0000
,  // measure 28
0001
0010
1000
0002
0000
1003
0010
0001
,  // measure 29
0100
1000
0001
2000
0000
3001
0010
0100
,  // measure 30
0001
1000
0100
0002
0000
1003
0010
0100
,  // measure 31
1000
0010
0001
0010
1000
0100
0010
0001
,  // measure 32
0100
1000
0001
0020
0000
0130
0010
1000
,  // measure 33
0001
0010
0100
0002
0000
0103
0010
1000
,  // measure 34
0010
0001
0100
0020
0000
0031
0010
1000
,  // measure 35
0100
0100
0010
0002
0000
0103
0110
0010
,  // measure 36
1000
0001
0010
2000
0000
3010
0100
1000
,  // measure 37
0010
0001
1000
0200
0000
1300
0001
0010
,  // measure 38
0100
0001
1000
0002
0000
0013
1000
0001
,  // measure 39
0100
0010
0001
0100
1000
0001
1000
0100
,  // measure 40
0010
1000
0010
0200
0000
0301
0010
1000
,  // measure 41
0001
0100
0001
1000
0010
0001
0100
0010
,  // measure 42
0010
0001
1000
0200
0000
0301
1000
0100
,  // measure 43
0010
0010
0001
0200
0000
0310
1010
1000
,  // measure 44
1001
0000
0101
0110
0000
1010
0000
2001
,  // measure 45
0000
3100
0110
0000
0011
0001
0100
0000
,  // measure 46
0101
0000
0110
1010
0000
1001
0000
0012
,  // measure 47
0000
0103
0110
0000
1001
0000
0110
0000
,  // measure 48
1010
0000
0110
0101
0000
1001
0000
1200
,  // measure 49
0000
0310
0011
0000
1001
1000
0010
0000
,  // measure 50
0110
0000
0101
1001
0000
1100
0000
0120
,  // measure 51
0000
0031
0101
0000
0110
0000
1001
0000
,  // measure 52
0001
0020
1000
2030
0000
3002
0000
0203
,  // measure 53
0000
0310
0011
0000
1001
1000
0010
0000
,  // measure 54
0001
0020
1000
2030
0000
3002
0000
0023
,  // measure 55
0000
1030
0020
0000
0031
0000
1001
0000
,  // measure 56
1000
0020
0001
0032
0000
2003
0000
3200
,  // measure 57
0000
0302
0000
0023
0000
0100
0130
0000
,  // measure 58
0001
0200
1000
2300
0000
3002
0000
0203
,  // measure 59
0000
0310
2000
0000
3010
0000
0210
0000
,  // measure 60
00M0
0000
0000
0000
0000
0000
0300
0000
10M1
0000
1000
0000
0100
1000
0002
0000
,  // measure 61
0000
0200
0303
2001
0000
3100
1000
0002
,  // measure 62
1000
2003
0000
3010
0100
0002
1000
2003
,  // measure 63
0000
3100
0001
1000
0010
0100
1000
0020
,  // measure 64
0000
0000
0130
0000
0101
0000
0001
0020
,  // measure 65
0000
1030
0001
0100
0010
0001
0200
0000
,  // measure 66
0000
0310
0010
2000
0000
3001
0010
2000
,  // measure 67
0000
0000
3010
0000
0001
1000
0001
1000
0001
0000
0100
0000
0010
0000
1000
0000
,  // measure 68
0001
0010
0001
0000
0100
0000
0100
0000
0010
0000
1000
0000
0100
0000
0010
0000
,  // measure 69
0001
0100
0001
0000
0010
0000
0010
0000
0100
0000
1000
0000
0010
0000
0100
0000
,  // measure 70
0001
1000
0001
0000
0100
0000
0100
0000
0010
0000
1000
0000
0100
0000
0001
0000
,  // measure 71
0100
0010
0100
0000
1000
0000
1000
0000
0001
0000
0100
0000
0010
0000
1000
0000
,  // measure 72
0001
0010
0100
0000
1000
0000
1000
0000
0010
0000
0100
0000
0010
0000
1000
0000
,  // measure 73
0100
0010
0001
0000
0100
0000
0100
0000
0010
0000
1000
0000
1001
0000
0010
0000
,  // measure 74
0000
0000
1001
0000
0100
0000
0000
0000
1100
0000
1000
0001
1000
0000
0010
0000
,  // measure 75
0100
0010
0000
0010
0200
0000
0000
0000
M302
0000
0000
0000
0000
0000
0000
0000
,  // measure 76
2003
3200
0302
0000
,  // measure 77
2003
0000
0000
0000
3020
0000
0130
1000
0002
0000
0000
0000
0000
0000
0000
0000
,  // measure 78
2000
0000
0000
0000
3003
0220
0000
0000
,  // measure 79
0000
0000
0000
0000
0000
0000
0000
0000
0000
0330
0000
0000
0000
0000
0000
0000
;

//---------------dance-double - ----------------
#NOTEDATA:;
#CHARTNAME:;
#STEPSTYPE:dance-double;
#DESCRIPTION:;
#CHARTSTYLE:;
#DIFFICULTY:Hard;
#METER:14;
#RADARVALUES:0.601516,0.685687,0.393975,0.705873,0.086182,513.000000,465.000000,48.000000,86.000000,4.000000,0.000000,0.000000,0.000000,0.000000,0.601516,0.685687,0.393975,0.705873,0.086182,513.000000,465.000000,48.000000,86.000000,4.000000,0.000000,0.000000,0.000000,0.000000;
#CREDIT:Kekkle;
#NOTES:
00000000
00000000
00000000
00000000
,
00000000
00000000
00000000
00000000
,
00002000
00000000
02003000
00000000
,
00200000
00000000
00000000
03300000
,
201M0000
00000000
31000000
00010000
00002000
00000000
00003010
00000000
,
00000012
00000000
00000000
00000103
00000000
00000000
00000010
00000000
00020010
00000000
00000000
00000000
00031000
00000000
00000000
00000000
,
02001000
00000000
03010000
00100000
20000000
00000000
30100000
00000000
,
00120000
00000000
01030000
00001000
00100000
00001000
00011000
00000000
,
00010020
00000000
00000130
00001000
00020000
00000000
00030100
00000000
,
00000120
00000000
00000000
00000031
00000000
00000000
00000100
00000000
00002100
00000000
00000000
00000000
00013000
00000000
00000000
00000000
,
00022000
00000000
00000000
00000000
,
00000000
00000000
00000000
00000000
00033000
00000000
00000000
00000000
00001000
00010000
00001000
00010000
00001000
00010000
00001000
00010000
,
00000100
00001000
00000100
00000002
00000000
00000103
00000010
00000001
,
00000200
00000000
00010300
00001000
00000010
00001000
00010000
01000000
,
01010000
00000000
00010000
10000000
00100000
00020000
00000000
00031000
,
00000100
00000001
00000100
00000020
00000000
00001030
00000100
00010000
,
00000100
00001000
00000010
00020000
00000000
00000000
00031000
00000000
,
01001000
00000000
01000000
00200000
00000000
00310000
00001000
00100000
,
01000000
00010000
02000000
00000000
13000000
00100000
00010000
00002000
,
00000000
00103000
00010000
00002000
00000000
00003100
00000110
00000010
,
00000001
00000100
00001000
00020000
00000000
00030100
00001000
00020000
,
00000000
00130000
00001000
02000000
00000000
03020000
00000000
00000000
,
10030000
01000000
00010000
20000000
00000000
30100000
00010000
00001000
,
00000020
00000001
00000230
00010000
,
00002300
00000000
00013000
02000000
00000000
03010000
00001000
00010000
,
00200000
00000000
10300000
02000000
00000000
03010000
00001000
02000000
,
00000000
03100000
00010000
00001000
00100000
00010000
00002000
00000000
,
00003010
00000000
00000010
00000000
00000100
00000000
00000002
00000000
00000000
00001003
00000000
00001000
00000100
00000000
00010000
00000000
,
00001000
01000000
00100000
00020000
00000000
00130000
10000000
01000000
,
00001000
00010000
00100000
00002000
00000000
00013000
00000010
00000100
,
00001000
00010000
00000100
00002000
00000000
00013000
00100000
01000000
,
00010000
00001000
00000010
00000100
00001000
00000010
00000100
00001000
,
00010000
00100000
10000000
00020000
00000000
00130000
01000000
00001000
,
00010000
00001000
00000100
00000020
00000000
00000031
00000100
00001000
,
00010000
00000100
00001000
00020000
00000000
00130000
01000000
00010000
,
00001000
01000000
00100000
00010000
00000100
00001000
00010000
00001000
,
00000100
00000010
00000001
00000200
00000000
00010300
00001000
00000010
,
00010000
00001000
00000010
00002000
00000000
00013000
01000000
00100000
,
00001000
00010000
00100000
20000000
00000000
31000000
00010000
00001000
,
01000000
00100000
01000000
10000000
01000000
00001000
00010000
01000000
,
00010000
00001000
00000010
00000002
00000000
00000103
00000010
00001000
,
00010000
00001000
00000010
00002000
00000000
00003100
00010000
00001000
,
00001000
00100000
01000000
00020000
00000000
10030000
00100000
00010000
,
00001000
00001000
00000010
00000100
00000001
00000100
00000101
00000000
,
00000120
00000000
00010030
00011000
00000000
01001000
00000000
02100000
,
00000000
03010000
10000000
00000000
11000000
01000000
00010000
00000000
,
00012000
00000000
00003100
00000110
00000000
00000101
00000000
00002010
,
00000000
00003100
00010000
00000000
00011000
00000000
00101000
00000000
,
02100000
00000000
13000000
10010000
00000000
01001000
00000000
00021000
,
00000000
00030100
00000010
00000000
00000011
00000001
00001000
00000000
,
00002010
00000000
00003100
00010100
00000000
00011000
00000000
00201000
,
00000000
01300000
10000000
00000000
10010000
00000000
10100000
00000000
,
00100000
00010000
00001000
00000020
00000000
00001000
00000000
00000130
,
00000000
00000001
00000200
00000000
00010300
00001000
00011000
00000000
,
00010000
00100000
10000000
02000000
00000000
00010000
00000000
03100000
,
00000000
00001000
00020000
00000000
00030010
00000000
00000110
00000000
,
00000100
00001000
00010000
02000000
00000000
10000000
00000000
03100000
,
00000000
00001000
00020000
00000010
00000000
00030100
00001100
00000000
,
00001000
00000010
00000001
00002000
00000000
00000100
00000000
00013000
,
00000000
01000000
00020000
00000000
00031000
01000000
01020000
00000000
,
M0000000
00000000
00000000
00000000
00000000
00000000
00030000
00000000
M0110000
00000000
00100000
00000000
00001000
00010000
00000010
00000000
,
00000000
00001010
00000000
00002001
00000000
00003100
00010000
01000000
,
00100000
00002000
00000000
00013000
00100000
10000000
01000000
00020000
,
00000000
00031000
00000010
00000100
00010000
00001000
00000100
00000020
,
00000000
00000000
00001030
00000000
00001001
00000000
00000001
00000020
,
00000000
00001030
00010000
00000200
00000000
00000310
00000001
00000100
,
00001000
00010000
01000000
10000000
00010000
00010000
01000000
00200000
,
00000000
00000000
10300000
00000000
00010000
10000000
00010000
10000000
00010000
00000000
00100000
00000000
00001000
00000000
00010000
00000000
,
00000010
00001000
00000010
00000000
00000100
00000000
00000100
00000000
00000001
00000000
00001000
00000000
00000100
00000000
00010000
00000000
,
00001000
00000100
00001000
00000000
00010000
00000000
00010000
00000000
00001000
00000000
00100000
00000000
01000000
00000000
00010000
00000000
,
01000000
10000000
01000000
00000000
00100000
00000000
00100000
00000000
00001000
00000000
00010000
00000000
00000010
00000000
00000100
00000000
,
00001000
00010000
00001000
00000000
00010000
00000000
00010000
00000000
01000000
00000000
00100000
00000000
00001000
00000000
00010000
00000000
,
00100000
01000000
00010000
00000000
10000000
00000000
10000000
00000000
01000000
00000000
00010000
00000000
00001000
00000000
00000100
00000000
,
00000010
00001000
00000001
00000000
00001000
00000000
00001000
00000000
00000100
00000000
00010000
00000000
00011000
00000000
00001000
00000000
,
00000000
00000000
01001000
00000000
01000000
00000000
00000000
00000000
10010000
00000000
10000000
01000000
00100000
00000000
00001000
00000000
,
00010000
00000010
00000000
00000010
00000200
00000000
00000000
00000000
0000M302
00000000
00000000
00000000
00000000
00000000
00000000
00000000
,
00002003
00023000
02030000
00000000
,
03020000
00000000
00000000
00000000
20030000
00000000
31000000
00010000
00002000
00000000
00000000
00000000
00000000
00000000
00000000
00000000
,
00000200
00000000
00000000
00000000
00003300
00000220
00000000
00000000
,
00000000
00000000
00000000
00000000
00000000
00000000
00000000
00000000
00000000
00000330
00000000
00000000
00000000
00000000
00000000
00000000
;

//---------------dance-double - ----------------
#NOTEDATA:;
#CHARTNAME:;
#STEPSTYPE:dance-double;
#DESCRIPTION:;
#CHARTSTYLE:;
#DIFFICULTY:Medium;
#METER:11;
#RADARVALUES:0.399838,0.457124,0.082078,0.270858,0.008208,341.000000,331.000000,10.000000,33.000000,4.000000,0.000000,0.000000,0.000000,0.000000,0.399838,0.457124,0.082078,0.270858,0.008208,341.000000,331.000000,10.000000,33.000000,4.000000,0.000000,0.000000,0.000000,0.000000;
#CREDIT:Kekkle;
#NOTES:
00000000
00000000
00000000
00000000
,
00000000
00000000
00000000
00000000
,
00000000
00000000
00000000
00000000
,
00000000
00000000
00000000
00000000
,
000M1000
01000000
00010000
00000000
,
10000000
00000000
00000000
10000000
00000000
00000000
10000000
00000000
01000000
00000000
00000000
00000000
00000000
00000000
00000000
00000000
,
00100000
00001000
00010000
00000000
,
00000010
00000000
00001000
00000000
00000001
00000010
00000100
00000000
,
00000010
00000100
00010000
00000000
,
00001000
00000000
00000000
00001000
00000000
00000000
00001000
00000000
01000000
00000000
00000000
00000000
00010000
00000000
00000000
00000000
,
20020000
00000000
00000000
00000000
,
00000000
00000000
00000000
30030000
,
10000000
00000000
01000000
00000000
00100000
00001000
00010000
00000000
,
00000010
00000000
00001000
00010000
00000000
00001000
00000000
00000010
,
00000000
00000000
00020000
00000000
00031000
01000000
00000000
00000000
,
00010000
10000000
00010000
10000000
00000000
00000000
01000000
00100000
,
00002000
00000000
00013000
00000010
00000000
00000000
00000100
00000000
,
00000101
00000000
00000001
00001000
00000000
00000100
00000000
00010000
,
00000000
00001000
02000000
00000000
00000000
00000000
00000000
03010000
,
00000000
10000000
01000000
10000000
00000000
00000000
10010000
00000000
,
00010000
00000000
01000000
00001000
00000000
00010000
00000000
00000010
,
00000000
00001000
00000000
00000100
00000000
00000020
00000000
00000000
,
00000031
00000000
00000100
00000020
00000000
00000000
00001030
00000000
,
00000200
00000000
00020300
00000000
,
00032000
00000000
00000000
01003000
00000000
00000000
00010000
00100000
,
01000000
00000000
00100000
00010000
00000000
10000000
00000000
00100000
,
00000000
00010000
00001000
00000000
00000100
00000000
00000001
00000000
,
00002000
00000000
00000000
00003001
,
00000100
00000010
00000100
00000000
00000010
00000000
00010000
00000000
,
00000100
00010000
00001000
00000000
00010000
00001000
00010000
00000000
,
00001000
00100000
00010000
00000000
01000000
00000000
00010000
00000000
,
10000000
01000000
10000000
00000000
00010000
00000000
00010000
00000000
,
01000000
00100000
10000000
00000000
00010000
00000000
00100000
00000000
,
00001000
00010000
00000010
00000000
00001000
00000010
00001000
00000000
,
00000100
00000010
00000001
00000000
00001000
00000000
00000010
00000000
,
00000100
00001000
00010000
00000000
00001000
00000000
00001000
00000000
,
01000000
00010000
00100000
00000000
01000000
00000000
10000000
00000000
,
01000000
00100000
00001000
00000000
00100000
00001000
00010000
00000000
,
00001000
00010000
00001000
00000000
00010000
00000000
00000010
00000000
,
00000100
00000010
00001000
00000000
00000100
00000000
00000100
00000000
,
00000010
00000001
00001000
00000000
00000010
00000000
00000100
00000000
,
00001000
00010000
00000100
00000000
00010000
00001000
01000000
00000000
,
00010000
01000000
00010000
00000000
10000000
00000000
01000000
00000000
,
00100000
00010000
01000000
00000000
00100000
01000000
00100000
00000000
,
20100000
00000000
00000000
30010000
00000000
00100000
00000000
00001000
,
00000000
00010000
00001000
00000000
00010000
00000010
00000100
00000000
,
00000102
00000000
00000000
00001003
00000000
00000100
00000000
00010000
,
00000000
00001000
00010000
00000000
00100000
00000000
10000000
00000000
,
10020000
00000000
00000000
00130000
00000000
00001000
00000000
00010000
,
00000000
00000100
00001000
00000000
00000010
00000100
00000001
00000000
,
00002001
00000000
00000000
00003100
00000000
00010000
00000000
00001000
,
00000000
01000000
00010000
00000000
00100000
00000000
01000000
00000000
,
10000000
00010000
00000000
01000000
00000000
00100000
00000000
00010000
,
00000000
00001000
00000100
00000000
00000001
00001000
00000001
00000000
,
00000001
00001000
00000000
00000100
00000000
00000010
00000000
00001000
,
00000000
00010000
02000000
00000000
10000000
00000000
13000000
00000000
,
00010000
10000000
00000000
00100000
00000000
00010000
00000000
00001000
,
00000000
00000100
00000000
00000001
00000000
00000000
00001001
00000000
,
00000001
00000010
00000000
00001000
00000000
00010000
00000000
01000000
,
00000000
10000000
00020000
00000000
01000000
00000000
01030000
00000000
,
M0000000
00000000
00000000
00000000
M0010000
02000000
00000000
03001000
,
00000000
00010000
00000000
00010020
00000000
00000000
00000130
00000000
,
00000001
00001000
00000000
00000000
00000100
00010000
00000100
00020000
,
00000000
00000000
00031000
01000000
00001000
01000000
00010000
00200000
,
00000000
00000000
00310000
00000000
10000000
00000000
00100000
00010000
,
00000000
00001000
00000000
00000100
00000000
00000010
00002000
00000000
,
00000000
00000000
00000000
00003002
00000000
00000013
00000100
00002000
,
00000000
00000000
00003010
00010000
00001000
01000000
00010000
00000000
,
01000000
00010000
01000000
00000000
00100000
10000000
00010000
00000000
,
00100000
00010000
01000000
00000000
00010000
00100000
00001000
00000000
,
00010000
00000010
00000100
00000000
00000010
00001000
00000001
00000000
,
00000010
00000001
00000010
00000000
00000001
00000010
00000100
00000000
,
00000010
00000001
00001000
00000000
00000010
00010000
00001000
00000000
,
00010000
00001000
01000000
00000000
00010000
00100000
00010000
00100000
,
00000000
01000000
10000000
00000000
00010000
01000000
00001000
00010000
,
00000010
00001000
00000200
00000000
0000M320
00000000
00000000
00000000
,
00000032
00000000
00000203
00000000
,
00002300
00000000
00023000
00000000
,
00230000
00000000
00000000
00000000
00300000
02200000
00000000
00000000
,
00000000
00000000
00000000
00000000
00000000
00000000
00000000
00000000
00000000
03300000
00000000
00000000
00000000
00000000
00000000
00000000
;

//---------------dance-single - ----------------
#NOTEDATA:;
#CHARTNAME:;
#STEPSTYPE:dance-single;
#DESCRIPTION:;
#CHARTSTYLE:;
#DIFFICULTY:Medium;
#METER:11;
#RADARVALUES:0.405701,0.457124,0.114910,0.262650,0.008208,346.000000,332.000000,14.000000,32.000000,4.000000,0.000000,0.000000,0.000000,0.000000,0.405701,0.457124,0.114910,0.262650,0.008208,346.000000,332.000000,14.000000,32.000000,4.000000,0.000000,0.000000,0.000000,0.000000;
#CREDIT:Kekkle;
#NOTES:
0000
0000
0000
0000
,
0000
0000
0000
0000
,
0000
0000
0000
0000
,
0000
0000
0000
0000
,
100M
0010
0100
0000
,
0001
0000
0000
0001
0000
0000
0001
0000
0010
0000
0000
0000
0000
0000
0000
0000
,
0100
1000
0001
0000
,
0100
0000
0010
0000
1000
0001
1000
0000
,
0100
0010
0001
0000
,
0100
0000
0000
0100
0000
0000
0100
0000
0010
0000
0000
0000
1000
0000
0000
0000
,
2002
0000
0000
0000
,
0000
0000
0000
3003
,
0001
0000
0100
0000
0010
1000
0010
0000
,
0100
0000
0001
1000
0000
0001
0000
1000
,
0000
0000
0200
0000
0310
0001
0000
0000
,
1000
0010
1000
0010
0000
0000
0200
0000
,
0301
1000
0001
0100
0000
0000
0010
0000
,
0110
0000
0100
0001
0000
1000
0000
0100
,
0000
0010
0002
0000
0000
0000
0000
0203
,
0000
0310
1000
0010
0000
0000
0110
0000
,
0200
0000
0301
1000
0000
0100
0000
0001
,
0000
0100
0000
1000
0000
0020
0000
0000
,
1030
0000
0001
0010
0000
0000
0100
0000
,
0020
0000
0032
0000
,
0203
0000
0000
0310
0000
0000
1000
0001
,
1000
0000
0100
0010
0000
0100
0000
0001
,
0000
0100
0010
0000
0001
0000
1000
0000
,
0002
0000
0000
1003
,
0100
0000
1000
0000
0100
0010
0001
0000
,
0010
0001
0100
0000
0010
0100
0010
0000
,
1000
0000
0001
0000
0010
0100
1000
0000
,
0100
0010
0001
0000
0100
0000
0100
0000
,
0010
0000
1000
0000
0010
0100
0001
0000
,
1000
0100
0010
0000
0100
1000
0100
0000
,
0010
0000
0001
0000
0010
0001
1000
0000
,
0010
1000
0100
0000
0010
0000
0010
0000
,
0100
0000
1000
0000
0100
1000
0001
0000
,
0100
0010
1000
0000
0001
0010
0001
0000
,
0010
0000
0001
0000
0100
0001
1000
0000
,
0100
1000
0001
0000
0010
0000
0010
0000
,
0001
0000
0100
0000
0010
1000
0100
0000
,
0010
0001
0100
0000
0001
0100
0001
0000
,
0010
0000
0100
0000
0010
0001
0100
0000
,
0010
1000
0100
0000
0010
0001
0010
0001
,
2001
0000
0000
3010
0000
0100
0000
0001
,
0000
1000
0100
0000
0001
0100
1000
0000
,
1002
0000
0000
0103
0000
0010
0000
1000
,
0000
0010
0100
0000
0001
0000
1001
0000
,
1200
0000
0000
0310
0000
0001
0000
0100
,
0000
0010
1000
0000
0100
0010
0001
0000
,
0201
0000
0000
0310
0000
1000
0000
0001
,
0000
0010
0100
0000
1100
0000
1001
0000
,
0001
0100
0000
1000
0000
0001
0000
0010
,
0000
0100
0001
0000
1000
0001
1000
0000
,
1000
0100
0000
0001
0000
1000
0000
0010
,
0000
0001
0100
0000
0010
0000
0110
0000
,
0100
0001
0000
0100
0000
1000
0000
0100
,
0000
0001
0000
0020
0000
0000
0130
0000
,
1000
0001
0000
0100
0000
0010
0000
2000
,
0000
3002
0100
0103
,
M000
0000
0000
0000
M010
0200
0000
0001
,
0000
0301
0000
2001
0000
0000
3100
0000
,
0010
0001
0000
0000
1000
0010
1000
0020
,
0000
0000
0130
0001
0100
0010
0100
0010
,
0000
0000
1000
0000
1001
0000
0001
0010
,
0000
1000
0000
0010
0000
0001
0200
0000
,
0000
0000
0000
0310
0000
1000
0001
1000
,
0000
0100
0010
0001
0100
0010
1000
0000
,
0010
0100
0001
0000
0010
0001
0100
0000
,
0010
1000
0100
0000
0010
0001
0010
0000
,
0001
0010
1000
0000
0010
1000
0010
0000
,
1000
0010
0001
0000
0100
0010
1000
0000
,
0010
1000
0100
0000
0010
0001
0100
0000
,
0001
0100
0010
0000
1000
0100
1000
0100
,
0000
0010
0001
0000
0100
0010
1000
0001
,
0010
1000
0020
0000
M032
0000
0000
0000
,
0203
0000
0320
0000
,
2030
0000
3002
0000
,
0023
0000
0000
0000
0030
2002
0000
0000
,
0000
0000
0000
0000
0000
0000
0000
0000
0000
3003
0000
0000
0000
0000
0000
0000
;

//---------------dance-single - ----------------
#NOTEDATA:;
#CHARTNAME:;
#STEPSTYPE:dance-single;
#DESCRIPTION:;
#CHARTSTYLE:;
#DIFFICULTY:Easy;
#METER:6;
#RADARVALUES:0.277893,0.293866,0.114910,0.090286,0.000000,237.000000,223.000000,14.000000,11.000000,4.000000,0.000000,0.000000,0.000000,0.000000,0.277893,0.293866,0.114910,0.090286,0.000000,237.000000,223.000000,14.000000,11.000000,4.000000,0.000000,0.000000,0.000000,0.000000;
#CREDIT:Kekkle;
#NOTES:
0000
0000
0000
0000
,
0000
0000
0000
0000
,
0000
0000
0000
0000
,
0000
0000
0000
0000
,
100M
0000
1001
0000
,
0001
1000
1000
0000
,
0001
0000
1001
0000
,
1000
0010
0100
0100
,
0010
0000
0110
0000
,
0100
0010
0010
0000
,
2002
0000
0000
0000
,
0000
0000
0000
3003
,
0001
0100
0010
0000
,
1000
0001
0010
0010
,
0001
0100
0001
0000
,
1000
0100
1000
0000
,
0001
0100
0010
0000
,
0110
0000
0100
0001
,
1000
0100
0010
0000
,
0001
1000
0001
0001
,
0100
0010
1000
0000
,
0001
0010
0001
0001
,
0100
0000
0010
0000
,
0110
0000
1001
0000
,
1000
0100
0010
0000
,
0001
0001
0100
0010
,
1000
0000
0001
1000
,
0002
0000
0003
0000
,
1000
0010
1000
0000
,
0010
0100
0010
0000
,
0100
0001
0100
0000
,
0110
0000
1001
0000
,
0001
0010
0001
0000
,
0010
0100
0010
0000
,
0100
1000
0100
0000
,
0010
0001
0010
0001
,
1000
0010
1000
0000
,
0001
0010
0001
0000
,
1000
0010
1000
0000
,
1001
0000
0110
0000
,
0010
1000
0010
0000
,
0100
0010
0100
0000
,
0001
1000
0001
0000
,
0010
0100
0010
0010
,
0001
0000
0000
1000
0000
1000
0000
1000
,
0000
0001
0100
0001
,
1000
0000
0000
0001
0000
0001
0000
0001
,
0000
0010
0001
0001
,
1000
0000
0000
0010
0000
0010
0000
0010
,
0000
0100
0001
0100
,
0010
0000
0000
1000
0000
1000
0000
1000
,
0000
0001
0010
0010
,
0001
0000
0000
0100
0000
0100
0000
0100
,
0000
0010
0010
0010
,
1000
0000
0000
0100
0000
0100
0000
0100
,
0000
0010
0010
0010
,
0001
0000
0000
0100
0000
0100
0000
0010
,
0000
0010
0000
0010
0000
0000
0110
0000
,
0100
0000
0000
0001
0000
0001
0000
0001
,
0000
1000
1000
2000
,
300M
0000
0000
0000
001M
0000
0000
1000
,
0000
0001
0000
2000
0000
3000
0001
0000
,
0100
0000
0010
1000
,
0100
0000
0010
0001
,
0010
0010
0001
1000
,
0010
0100
0010
0000
,
0110
0000
0100
0001
,
1000
1000
0100
0010
,
0100
0000
1000
0001
,
0100
0100
0010
1000
,
0100
0000
0010
0001
,
0010
0010
0001
0100
,
0010
0000
1000
0010
,
0100
0000
0100
0000
0001
0000
0000
1000
,
0000
0001
0100
0100
,
0200
0000
032M
0000
,
0000
0000
2030
0000
,
0000
0000
0002
0000
,
0000
0000
0000
0000
3003
2002
0000
0000
,
0000
0000
0000
0000
0000
0000
0000
0000
0000
3003
0000
0000
0000
0000
0000
0000
;

//---------------dance-double - ----------------
#NOTEDATA:;
#CHARTNAME:;
#STEPSTYPE:dance-double;
#DESCRIPTION:;
#CHARTSTYLE:;
#DIFFICULTY:Easy;
#METER:6;
#RADARVALUES:0.282584,0.326517,0.123117,0.073870,0.000000,241.000000,226.000000,15.000000,9.000000,4.000000,0.000000,0.000000,0.000000,0.000000,0.282584,0.326517,0.123117,0.073870,0.000000,241.000000,226.000000,15.000000,9.000000,4.000000,0.000000,0.000000,0.000000,0.000000;
#CREDIT:Kekkle;
#NOTES:
00000000
00000000
00000000
00000000
,
00000000
00000000
00000000
00000000
,
00000000
00000000
00000000
00000000
,
00000000
00000000
00000000
00000000
,
M0010000
01000000
01001000
00000000
,
00001000
00010000
00010000
00000000
,
00000010
00001000
00001001
00000000
,
00000001
00000010
00000001
00000001
,
00001000
00000100
00010100
00000000
,
00010000
00001000
00001000
00000000
,
02002000
00000000
00000000
00000000
,
00000000
00000000
00000000
03003000
,
01000000
00010000
10000000
00000000
,
01000000
00100000
00001000
00001000
,
00010000
00000000
00010010
00000000
,
00000010
00000100
00000100
00000000
,
00000001
00001000
00000100
00000000
,
00010000
00001000
01000000
01000000
,
00010000
01000000
00100000
00000000
,
10000000
00010000
00100000
00100000
,
00010000
00001000
00000100
00000000
,
00001000
00000010
00000100
00000100
,
00001000
00000000
01000000
00000000
,
01100000
00000000
10010000
00000000
,
10000000
00000000
01000000
00000000
,
00100000
00001000
00010000
00010000
,
00000010
00000100
00000010
00000100
,
00000020
00000000
00000000
00000030
,
00000100
00000001
00000100
00000000
,
00000010
00010000
00000010
00000000
,
00010000
00001000
00010000
00000000
,
00011000
00000000
01001000
00000000
,
01000000
00010000
01000000
00000000
,
00100000
10000000
00100000
00000000
,
10000000
00010000
10000000
00000000
,
00010000
00100000
00001000
00001000
,
00010000
00000010
00000100
00000000
,
00000010
00001000
00000001
00000000
,
00000010
00000001
00000100
00000000
,
00000110
00000000
00010010
00000000
,
00010000
00001000
01000000
00000000
,
00001000
00100000
00010000
00000000
,
00100000
00010000
01000000
00000000
,
00100000
10000000
00100000
00000000
,
10000000
00000000
00000000
00010000
00000000
00010000
00000000
00010000
,
00000000
00100000
00001000
00001000
,
00010000
00000000
00000000
00000010
00000000
00000010
00000000
00000010
,
00000000
00000100
00000001
00000001
,
00001000
00000000
00000000
00000100
00000000
00000100
00000000
00000100
,
00000000
00010000
00001000
00001000
,
01000000
00000000
00000000
00010000
00000000
00010000
00000000
00010000
,
00000000
00100000
01000000
01000000
,
00100000
00000000
00000000
00001000
00000000
00001000
00000000
00001000
,
00000000
00010000
00010000
00010000
,
00000010
00000000
00000000
00000100
00000000
00000100
00000000
00000100
,
00000000
00000001
00000001
00000001
,
00001000
00000000
00000000
00000100
00000000
00000100
00000000
00010000
,
00000000
00010000
00000000
00010000
00000000
00000000
00011000
00000000
,
00001000
00000000
00000000
00100000
00000000
00100000
00000000
00100000
,
00000000
01000000
01000000
02000000
,
M3000000
00000000
00000000
00000000
M0100000
00000000
00000000
00001000
,
00000000
00010000
00000000
00011000
00000000
00000000
00001000
00000000
,
00010000
00000010
00000100
00000100
,
00000010
00001000
00000001
00000010
,
00000001
00000000
00001001
00000000
,
00001000
00000100
00010000
00001000
,
01000000
00000000
00010000
10000000
,
00010000
00010000
01000000
00001000
,
00010000
00000000
00001000
00010000
,
00000010
00000000
00000100
00000001
,
00001000
00000000
00000100
00010000
,
00001000
00001000
01000000
00010000
,
00100000
00000000
01000000
10000000
,
00010000
00000000
01000000
00010000
,
00001000
00000010
00000100
00000100
,
00000001
00001000
0000020M
00000000
,
00000000
00000000
00020300
00000000
,
00000000
00000000
00002000
00000000
,
00000000
00000000
00000000
00000000
00033000
00022000
00000000
00000000
,
00000000
00000000
00000000
00000000
00000000
00000000
00000000
00000000
00000000
00033000
00000000
00000000
00000000
00000000
00000000
00000000
;

//---------------dance-single - ----------------
#NOTEDATA:;
#CHARTNAME:;
#STEPSTYPE:dance-single;
#DESCRIPTION:;
#CHARTSTYLE:;
#DIFFICULTY:Beginner;
#METER:3;
#RADARVALUES:0.150086,0.228562,0.073870,0.246235,0.000000,128.000000,119.000000,9.000000,30.000000,4.000000,0.000000,0.000000,0.000000,0.000000,0.150086,0.228562,0.073870,0.246235,0.000000,128.000000,119.000000,9.000000,30.000000,4.000000,0.000000,0.000000,0.000000,0.000000;
#CREDIT:Kekkle;
#NOTES:
0000
0000
0000
0000
,
0000
0000
0000
0000
,
0000
0000
0000
0000
,
0000
0000
0000
0000
,
100M
0000
0001
0000
,
1000
0000
1000
0000
,
0001
0000
0100
0000
,
0001
0000
0001
0000
,
1000
0000
0100
0000
,
1000
0000
1000
0000
,
2002
0000
0000
0000
,
0000
0000
3003
0000
,
0001
0000
0100
0000
,
0001
0000
0100
0000
,
0010
0000
0010
0000
,
0100
0000
0100
0000
,
0010
0000
1000
0000
,
0010
0000
0100
0000
,
0001
0000
0001
0000
,
1000
0000
1000
0000
,
0100
0000
0010
0000
,
0100
0000
0100
0000
,
1000
0000
0001
0000
,
1001
0000
0110
0000
,
0010
0000
1000
0000
,
0010
0000
0010
0000
,
0100
0000
0001
0000
,
2000
0000
3000
0000
,
0002
0000
0003
0000
,
0200
0000
0300
0000
,
0020
0000
0030
0000
,
2000
0000
3000
0000
,
0200
0000
0300
0000
,
0020
0000
0030
0000
,
0002
0000
0003
0000
,
0100
0000
0100
0000
,
0020
0000
0030
0000
,
2000
0000
3000
0000
,
0002
0000
0003
0000
,
0020
0000
0030
0000
,
0200
0000
0300
0000
,
0020
0000
0030
0000
,
0002
0000
0003
0000
,
0100
0000
0100
0000
,
0020
0000
0030
0000
,
0100
0000
0100
0000
,
0002
0000
0003
0000
,
1000
0000
1000
0000
,
0200
0000
0300
0000
,
0010
0000
0010
0000
,
0002
0000
0003
0000
,
0100
0000
0100
0000
,
0010
0000
0010
0000
,
0020
0000
0030
0000
,
1000
0000
1000
0000
,
2000
0000
3000
0000
,
0001
0000
0001
0000
,
0002
0000
0003
0000
,
0010
0000
0010
0000
,
0020
0000
0030
0000
,
M000
0000
M000
0000
,
0001
0000
1001
0000
,
1000
0000
0010
0000
,
0010
0000
0100
0000
,
0001
0000
0100
0000
,
0100
0000
0010
0000
,
1000
0000
0001
0000
,
1001
0000
1000
0000
,
0010
0000
0100
0000
,
0110
0000
0010
0000
,
1000
0000
0001
0000
,
1001
0000
1000
0000
,
0100
0000
0010
0000
,
0110
0000
0100
0000
,
0100
0000
0010
0000
,
0010
0000
M002
0000
,
0003
0000
2000
0000
,
3000
0000
0020
0000
,
0030
0000
0000
0000
0000
0220
0000
0000
,
0000
0000
0000
0000
0000
0000
0000
0000
0000
0330
0000
0000
0000
0000
0000
0000
;
