#TITLE:raindrops;
#SUBTITLE:~FutureBass mix~;
#ARTIST:megawolf77;
#TITLETRANSLIT:;
#SUBTITLETRANSLIT:;
#ARTISTTRANSLIT:;
#GENRE:FUTURE BASS;
#CREDIT:;
#BANNER:raindrops-bn.png;
#BACKGROUND:raindrops-bg.png;
#LYRICSPATH:;
#CDTITLE:cdtitle.png;
#MUSIC:raindrops.ogg;
#OFFSET:-0.036600;
#SAMPLESTART:103.124001;
#SAMPLELENGTH:12.000000;
#SELECTABLE:YES;
#BPMS:0.000000=149.000000
;
#STOPS:
;
#BGCHANGES:;
#KEYSOUNDS:;
#ATTACKS:;

//---------------dance-single - ----------------
#NOTES:
     dance-single:
     :
     Hard:
     11:
     0.439261,0.688435,0.204082,0.503401,0.173469,452.000000,422.000000,30.000000,74.000000,0.000000,0.000000,0.439261,0.688435,0.204082,0.503401,0.173469,452.000000,422.000000,30.000000,74.000000,0.000000,0.000000:
0000
0000
0000
0000
,
0000
0000
0000
0000
,
0000
0000
0000
0000
,
0000
0000
0000
0000
,
2000
0000
0000
0000
3010
0000
0010
0100
,
0200
0000
0000
0000
0000
0000
0000
0000
0301
0000
0000
1000
0000
0000
0001
0000
,
0002
0000
0000
0000
0013
0000
0010
0100
,
0200
0000
2300
0000
,
3001
0000
0000
0001
0000
0000
0001
0000
1000
0000
0000
0000
1100
0000
0000
0000
,
0100
0000
0000
0100
0000
0000
0100
0000
0010
0000
0001
0000
0010
0000
0100
0000
,
1000
0000
0000
1000
0000
0000
1000
0000
0001
0000
0000
0000
0101
0000
0000
0000
,
0100
0000
0000
0100
0000
0000
0100
0000
0010
0000
0000
0000
1010
0000
0000
0000
,
1000
0000
0000
1000
0000
0000
1000
0000
0001
0000
0000
0000
0011
0000
0000
0000
,
0010
0000
0000
0010
0000
0000
0010
0000
0100
0000
0000
0000
0000
0000
0000
0000
,
2000
0000
3200
0000
,
0320
0000
0032
0000
,
0203
0000
0000
0000
1300
0100
0001
0100
,
0020
0000
0000
1000
0000
0000
1030
0000
0001
0000
0010
0000
0100
0000
1000
0000
,
0200
0000
0000
0000
0301
0100
1000
0100
,
0010
0000
0000
0001
0000
0000
0001
0000
1000
0000
0000
0001
0000
0000
0001
0000
,
1000
0100
0010
0100
1000
0000
0001
0100
,
0020
0000
0000
1000
0000
0000
1030
0000
2000
0000
0000
0001
0000
0000
3001
0000
,
0001
0100
0010
0100
0001
0000
1000
0100
,
0020
0001
0230
1000
,
1300
0000
0001
0000
1000
0000
0002
0000
0000
0000
0000
0000
0103
0000
0000
1000
0000
0000
0100
0000
0000
0001
0000
0000
,
0200
0000
0000
0010
0000
0000
0310
0000
1000
0000
0100
0000
0010
0000
0001
0000
,
0020
0000
0000
0000
1030
0010
0001
0010
,
0100
0000
0000
1000
0000
0000
1000
0000
0001
0000
0000
1000
0000
0000
1000
0000
,
0001
0100
0010
0100
0001
0000
1000
0100
,
0020
0000
0000
0001
0000
0000
0001
0000
0031
0000
0000
0000
0000
0000
0000
0000
,
2000
0000
3020
0000
,
0230
0000
0302
0000
,
0023
0000
0100
0000
0000
0130
0000
0000
,
2000
0000
0000
3001
0000
0000
0001
0100
,
0020
0000
1000
0000
0000
1030
0000
0000
,
0002
0000
0000
1003
0001
0010
0100
1000
,
0200
0000
0010
0000
0000
0310
0000
0000
,
0002
0000
0000
1003
0000
0000
1000
0010
,
0200
0000
0001
0000
0000
0301
0000
0000
,
2000
3200
0320
0032
,
0203
0000
1000
0000
0301
0000
1000
0100
,
0010
0000
0011
0000
1010
0000
0001
1000
,
0200
0000
0001
0000
1300
0000
0001
0100
,
0010
0000
1010
0000
1000
0001
1000
0100
,
0020
0000
0001
0000
1030
0000
0010
0001
,
1000
0000
0000
0000
1001
0000
0000
0000
1000
0000
0000
1000
0000
0000
1000
0000
,
2020
3030
0022
0033
,
0202
0303
2200
3300
,
2010
0000
0000
0010
0000
0000
3010
0000
0000
0000
0010
0000
0100
0000
0000
0000
,
0002
0000
0000
1000
0000
0000
1003
0000
0000
0000
1000
0000
0100
0000
0000
0000
,
0020
0000
0000
0001
0000
0000
0031
0000
0000
0000
0001
0000
0100
0000
0000
0000
,
0020
0000
0000
1000
0000
0000
1030
0000
0000
0000
1000
0000
0100
0000
0000
0000
,
0010
0000
0000
0001
0000
0000
0010
0000
0000
0000
0001
0000
1000
0000
0000
0000
,
0010
0000
0000
1000
0000
0000
0010
0000
0000
0000
0100
0000
0001
0000
0000
0000
,
1000
0000
0000
0001
0000
0000
1000
0000
0000
0000
0100
0000
0010
0000
0000
0000
,
0001
0000
0000
0010
0000
0000
0001
0000
0000
0000
0100
0000
0010
0000
0000
0000
,
2000
0000
0010
0000
3010
0000
1000
0001
,
0200
0010
0320
1000
,
1030
0000
0001
0000
0010
0000
0001
1000
,
0200
0010
0320
0001
,
0031
0010
0001
0010
1000
0010
1000
0010
,
0001
0010
0100
1000
1100
0000
0000
0000
,
1000
0001
1000
0001
1000
0001
1000
0010
1000
0010
1000
0010
,
0100
0001
0100
0001
0100
0001
0100
0010
0100
0010
0000
0000
,
1000
0100
0010
0001
0010
0000
0100
1000
,
0002
0000
0000
0100
0000
0000
0103
0000
0100
0000
0000
0010
0000
0000
0010
0000
,
1000
0100
0001
0100
1000
0000
0100
0010
,
0011
0000
0000
0000
1010
0000
0000
0000
2000
0000
0000
0001
0000
0000
0001
0000
,
3001
0100
0010
1000
0010
0000
0100
0001
,
2000
0000
0000
0100
0000
0000
3100
0000
0100
0000
0000
0010
0000
0000
0010
0000
,
0001
0100
1000
0100
0001
0000
0100
0010
,
1010
0011
1100
0101
,
2000
0000
3010
0000
0100
0001
0010
0100
,
2000
0000
0000
0100
0000
0000
0100
0000
3100
0000
0000
0010
0000
0000
0010
0000
,
0002
0000
0103
0000
0010
1000
0100
0010
,
0011
0000
0000
0000
1010
0000
0000
0000
2000
0000
0000
0001
0000
0000
3001
0000
,
0001
0000
0000
0100
0000
0000
0100
0000
0010
0000
1000
0000
0000
1000
0000
0000
,
0001
1000
0100
0010
0001
0000
0000
0000
,
2000
0000
3020
0000
,
0230
0000
0302
0000
,
1003
0000
0100
0010
0001
0010
0100
0010
,
0001
0000
0100
0010
1000
0010
0100
0010
,
1000
0000
0001
0010
0100
0010
0001
0010
,
0100
1100
0001
0101
,
0100
0000
0010
1000
0010
0100
0010
1000
,
0100
0010
0011
0000
,
2020
3030
0022
0033
,
2200
3300
0202
0303
,
1001
0000
0000
0000
;

//---------------dance-single - ----------------
#NOTES:
     dance-single:
     :
     Challenge:
     13:
     0.555879,0.718367,0.183673,0.380952,0.350340,572.000000,545.000000,27.000000,56.000000,28.000000,0.000000,0.555879,0.718367,0.183673,0.380952,0.350340,572.000000,545.000000,27.000000,56.000000,28.000000,0.000000:
0000
0000
0000
0000
,
0000
0000
0000
0000
,
0000
0000
0000
0000
,
0000
0000
0000
0000
,
2000
0000
0010
0000
3010
0000
0100
0001
,
0200
0000
1000
0000
0301
1000
0100
0010
,
0002
0000
1000
0000
1003
0000
1000
0010
,
0200
0001
0302
1003
,
2010
0000
0000
0010
0000
0000
3010
0000
1000
0000
0010
0000
0100
0000
0000
0000
,
0002
0000
0000
1000
0000
0000
1003
0000
0001
0000
0010
0000
0100
0000
1000
0000
,
0200
0000
0000
0010
0000
0000
0310
0000
0001
0000
1000
0000
0010
0000
0000
0000
,
0200
0000
0000
0001
0000
0000
0301
0000
0100
0000
0010
0000
1000
0000
0000
0000
,
0001
0010
0100
1000
0100
0001
0100
1000
,
0010
0100
0001
1000
0001
0000
0000
0000
,
0002
0000
0023
0000
,
0230
0000
0000
0000
0000
0000
0000
0000
1300
0001
1000
0001
1000
0000
0000
0000
,
2001
0000
0000
0000
0000
0000
3001
0000
0010
0001
0010
0001
0010
0100
0010
0100
,
2000
0000
0000
0001
0000
0000
3001
0000
0001
0100
0001
0100
0010
1000
0010
1000
,
0002
0000
0000
0000
0000
0000
0013
0000
0001
0010
0001
0010
0100
0010
0100
0010
,
0200
0000
0000
1000
0000
0000
1300
0000
1000
0000
0001
1000
0000
0001
1000
0000
,
0001
0000
0100
0000
0010
0000
1000
0000
0010
0100
0010
0000
1000
0000
0001
0000
,
0020
0000
0000
0001
0000
0000
0031
0000
0010
0100
0010
0100
1000
0000
0100
0000
,
0001
0000
0100
0000
1000
0000
0100
0000
0010
0000
0001
0000
1000
0000
0001
0100
,
0020
0000
0000
1000
0000
0000
1000
0000
0230
0000
0000
0001
0000
0000
0001
0000
,
0301
0000
0000
0000
1000
0000
0000
0000
0001
0000
0000
0000
1000
0000
0000
0000
0000
0000
0000
0000
0000
0000
0000
0000
0010
0000
0000
1000
0000
0000
0010
0000
0000
1000
0000
0000
0010
0000
0000
0100
0000
0000
0010
0000
0000
0100
0000
0000
,
0002
0000
0000
1000
0000
0000
1003
0000
0001
0010
0001
0010
0100
1000
0100
1000
,
0002
0000
0000
0000
0000
0000
0103
0000
0001
0100
0001
0100
0010
0100
0010
0100
,
0020
0000
0000
1000
0000
0000
1030
0000
1000
0000
0001
1000
0000
0001
1000
0000
,
0001
0000
0010
0000
0100
0000
1000
0000
0100
0010
0100
0000
1000
0000
0001
0000
,
0200
0000
0000
0010
0000
0000
0310
0000
0110
0000
0000
0000
0000
0000
0000
0000
,
2000
0000
0000
0000
0000
0000
0000
0000
3100
0000
0000
0000
0000
0000
0010
0001
,
0020
0000
0000
0001
0000
0000
0031
0000
0001
1000
0001
1000
0001
0000
0000
0000
,
0200
0000
0010
0300
0100
0010
0000
1000
,
0001
0000
0001
1000
0000
0000
0100
0010
,
0002
0000
0010
0003
0001
0010
0000
0100
,
1000
0000
1000
0100
0010
0001
1000
0001
,
0200
0000
0010
0300
0100
0010
0000
1000
,
0001
0000
0001
1000
0000
0000
0100
0010
,
0002
0000
1000
0003
0001
1000
0000
0001
,
0020
0230
2300
3002
,
0103
0000
1100
0000
0001
1000
0100
0010
,
0001
0000
0011
0000
1010
0000
0001
1000
,
0200
0000
0001
0000
1300
0100
0010
0001
,
0011
0000
1010
0000
0001
1000
0001
0100
,
0020
0000
1000
0000
0031
0010
1000
0001
,
1000
0000
0000
0000
0100
0000
0000
0000
0010
0001
0000
0010
0001
0000
0010
0000
,
0011
MMMM
0101
MMMM
,
1010
MMMM
2200
3300
,
2000
0000
0000
0010
0000
0000
3010
0000
0100
0000
0001
0000
1000
0000
0000
0000
,
0002
0000
0000
0010
0000
0000
0013
0000
0100
0000
1000
0000
0001
0000
0000
0000
,
2000
0000
0000
0001
0000
0000
3001
0000
1000
0000
0100
0000
0010
0000
0000
0000
,
0002
0000
0000
1000
0000
0000
1003
0000
0001
0000
0100
0000
0010
0000
0000
0000
,
1000
0000
0000
0010
0000
0000
1000
0000
0001
0000
0100
0000
1000
0000
0000
0000
,
0100
0000
0000
0010
0000
0000
0100
0000
0001
0000
1000
0000
0100
0000
0000
0000
,
0010
0000
0000
0001
0000
0000
0010
0000
0100
0000
1000
0000
0001
0000
0000
0000
,
1000
0000
0000
0001
0000
0000
1000
0000
0100
0000
0010
0000
0001
0000
0000
0000
,
1000
0010
1000
0010
0001
0010
0001
0010
,
1000
0010
0100
0001
1000
0100
0010
0001
,
0010
0100
0010
0100
1000
0001
1000
0001
,
0100
0010
1000
0010
0100
0001
0010
0100
,
1000
0100
0001
0100
1000
0100
0010
0001
,
1000
0001
1000
0001
1000
0001
1000
0001
1000
0000
0000
0000
0000
0000
0000
0000
,
0001
0010
0001
0010
0001
0010
0100
1000
0100
1000
0100
1000
,
0100
0010
0100
0010
0100
0010
0001
1000
0001
1000
0000
0000
,
0002
0000
0000
0000
0000
0000
1003
0000
0001
0010
0001
0000
0010
0000
0100
0000
,
2000
0000
0000
0001
0000
0000
3001
0000
1000
0000
0000
1000
0000
0000
1000
0000
,
0200
0000
0000
0000
0000
0000
0310
0000
0001
1000
0001
0000
0100
0000
0010
0000
,
1010
0000
0000
0000
0011
0000
0000
0000
1000
0000
0000
0010
0000
0000
0010
0000
,
0200
0000
0000
0000
0000
0000
0301
0000
0100
0010
0100
0000
0010
0000
1000
0000
,
0002
0000
0000
1000
0000
0000
1003
0000
0001
0000
0000
0001
0000
0000
0001
0000
,
2000
0000
0000
0000
0000
0000
3010
0000
1000
0001
1000
0000
0100
0000
0010
0000
,
0002
0203
0320
2030
,
3010
0000
1010
0000
0001
0010
0100
1000
,
0200
0000
0000
0010
0000
0000
0310
0000
0100
0000
0000
1000
0000
0000
1000
0000
,
0001
1000
0001
1000
0001
0000
0000
0000
0100
0000
0010
0000
1000
0000
0010
0000
,
0110
0000
0000
0000
0101
0000
0000
0000
0002
0000
0000
1000
0000
0000
1003
0000
,
0001
0000
0000
0001
0000
0000
0001
0000
0010
0000
0100
0000
0000
0100
0000
0000
,
1000
0000
0001
1000
0000
0001
1000
0000
0020
0000
0000
0000
0000
0000
0000
0000
,
2030
0000
0000
0000
0000
0000
0000
0000
3100
0000
0000
0000
0000
0000
0010
0001
,
0020
0000
0000
0001
0000
0000
0001
0000
0031
0000
1000
0001
0000
1000
0001
0000
,
1001
0000
0001
0100
0010
0100
0001
0100
,
0010
0000
1000
0100
0010
0100
1000
0100
,
0010
0000
0001
0100
0010
1000
0001
0010
,
0110
0000
0100
1000
1100
0000
0001
0100
,
0110
0000
1000
0010
0100
0010
1000
0010
,
0100
0001
0101
0000
,
0011
MMMM
1010
MMMM
,
0101
MMMM
1100
MMMM
,
1001
0000
0000
0000
;

//---------------dance-single - ----------------
#NOTES:
     dance-single:
     :
     Medium:
     6:
     0.309038,0.329252,0.142857,0.251701,0.000000,318.000000,297.000000,21.000000,37.000000,0.000000,0.000000,0.309038,0.329252,0.142857,0.251701,0.000000,318.000000,297.000000,21.000000,37.000000,0.000000,0.000000:
0000
0000
0000
0000
,
0000
0000
0000
0000
,
0000
0000
0000
0000
,
0000
0000
0000
0000
,
2000
0000
3010
0010
,
0200
0000
0301
1000
,
0002
0000
0013
0010
,
0200
0000
1300
0000
,
1000
0001
0101
0000
,
0100
0010
1010
0000
,
0001
1000
1100
0000
,
0100
0010
0011
0000
,
1000
0001
0101
0000
,
0100
0010
1010
0000
,
2000
0000
3200
0000
,
0320
0000
0032
0000
,
1003
0000
0001
0000
0100
1000
0100
0000
,
0001
0000
1000
0000
0100
0010
0001
0000
,
1000
0000
0010
0000
0100
0001
0100
0000
,
1000
0100
0001
0100
,
0010
1000
1010
0000
,
0010
0100
0110
0000
,
0100
0001
0011
0000
,
0001
0010
0100
1000
,
0001
0000
1000
0000
0100
0001
0100
0000
,
1000
0000
0001
0000
0100
0010
1000
0000
,
0001
0000
0010
0000
0100
1000
0100
0000
,
0001
0100
1000
0100
,
0010
0001
0011
0000
,
0010
0100
0110
0000
,
2000
0000
3200
0000
,
0320
0000
0032
0000
,
0103
0000
0100
0010
,
2000
0000
0000
0001
0000
0000
3001
0000
,
0002
0000
0013
0000
,
0100
1000
0001
0100
,
0020
0000
1030
0000
,
0002
0000
0000
1000
0000
0000
1003
0000
,
2000
0000
3100
0000
,
0100
0010
0001
0100
,
1000
0000
0100
0000
0001
0000
1000
0100
,
0010
0001
1000
0000
,
0001
0000
0100
0000
1000
0000
0100
0001
,
0100
0001
1000
0100
,
0001
0000
0100
0000
1000
0000
0001
0100
,
0010
1000
0001
0000
,
0011
0000
1010
0000
,
0101
0000
1100
0000
,
0001
0010
0001
0010
,
1000
0010
1000
0010
,
0001
0010
0100
0010
,
0001
1000
0010
0100
,
0001
0100
0001
0100
,
1000
0100
1000
0100
,
0001
0100
0010
0100
,
0001
1000
0100
0010
,
0002
1000
1003
0001
,
0020
0100
0230
1000
,
2300
0001
3001
1000
,
0020
0100
0230
0001
,
0301
0100
1000
0100
,
0001
1000
1001
0000
,
2000
0000
3200
0000
,
0320
0000
0032
0000
,
1003
0000
0001
0000
0100
0000
0010
1000
,
0010
0100
0001
1000
,
0100
0001
0100
1000
,
0020
0000
0230
0000
,
0301
0000
1000
0000
0100
0000
0010
0001
,
0010
0100
1000
0001
,
0100
1000
0100
0001
,
1000
0100
0010
0001
,
0020
0000
0130
0000
1000
0000
0001
0100
,
0010
1000
0010
0100
,
0002
1003
0100
0010
,
0002
0000
2003
0000
,
3010
0100
0001
1000
,
0100
0010
0100
0010
0001
0000
0000
0000
,
2000
0000
3020
0000
,
0230
0000
0302
0000
,
0013
0000
0100
0000
1000
0100
0001
0000
,
0100
0000
1000
0000
0001
0100
0010
0000
,
1000
0000
0001
0000
0010
0100
1000
0000
,
0001
0100
0010
1000
,
0100
0000
0010
0000
0001
0010
1000
0000
,
0010
0001
1000
0000
,
1010
0000
0011
0000
,
1100
0000
0101
0000
,
1001
0000
0000
0000
;

//---------------dance-single - ----------------
#NOTES:
     dance-single:
     :
     Easy:
     4:
     0.239067,0.299320,0.183673,0.238095,0.000000,246.000000,219.000000,27.000000,35.000000,0.000000,0.000000,0.239067,0.299320,0.183673,0.238095,0.000000,246.000000,219.000000,27.000000,35.000000,0.000000,0.000000:
// measure 0
0000
0000
0000
0000
,  // measure 1
0000
0000
0000
0000
,  // measure 2
0000
0000
0000
0000
,  // measure 3
0000
0000
0000
0000
,  // measure 4
2000
0000
3010
0000
,  // measure 5
0200
0000
0301
0000
,  // measure 6
0002
0000
0013
0000
,  // measure 7
0200
0000
1300
0000
,  // measure 8
1010
0000
1000
0000
,  // measure 9
0100
0000
0001
0000
,  // measure 10
0100
0000
1000
0000
,  // measure 11
0001
0000
0100
0000
,  // measure 12
0010
1000
0010
0100
,  // measure 13
0001
1000
1001
0000
,  // measure 14
0002
0000
0023
0000
,  // measure 15
0230
0000
1300
0000
,  // measure 16
1001
0000
1000
0010
,  // measure 17
1000
0000
0001
0100
,  // measure 18
0010
0000
1000
0001
,  // measure 19
2000
0000
3001
0000
,  // measure 20
0002
0000
0013
0000
,  // measure 21
0200
0000
1300
0000
,  // measure 22
0002
0000
1003
0000
,  // measure 23
1000
0010
0100
0001
,  // measure 24
1000
0000
0001
0010
,  // measure 25
0001
0000
1000
0100
,  // measure 26
0010
0000
0001
1000
,  // measure 27
0002
0000
1003
0000
,  // measure 28
2000
0000
3010
0000
,  // measure 29
0200
0000
0301
0000
,  // measure 30
0002
0000
0023
0000
,  // measure 31
0230
0000
1300
0000
,  // measure 32
0020
0000
0000
0030
,  // measure 33
0010
0000
0100
0000
,  // measure 34
0002
0000
0000
0003
,  // measure 35
1000
0100
0010
0001
,  // measure 36
0200
0000
0000
0300
,  // measure 37
0100
0000
0010
0000
,  // measure 38
2000
0000
0000
3000
,  // measure 39
0001
0010
0100
1000
,  // measure 40
1100
0000
0101
0000
,  // measure 41
1000
0001
1000
0000
,  // measure 42
1010
0000
0011
0000
,  // measure 43
1000
0010
0100
0001
,  // measure 44
0101
0000
1100
0000
,  // measure 45
0001
1000
0001
0000
,  // measure 46
1010
0000
1100
0000
,  // measure 47
0011
0000
0101
0000
,  // measure 48
1000
1000
1000
0000
,  // measure 49
0001
0001
0001
0000
,  // measure 50
0010
0010
0010
0000
,  // measure 51
0100
0100
0100
0000
,  // measure 52
1000
0100
1000
0000
,  // measure 53
0100
0010
0001
0000
,  // measure 54
0001
0100
0001
0000
,  // measure 55
0100
0010
1000
0000
,  // measure 56
0002
0000
0013
0100
,  // measure 57
2000
0000
3001
0000
,  // measure 58
2000
0000
3010
0100
,  // measure 59
0001
0100
1000
0100
,  // measure 60
0002
0000
1003
0100
,  // measure 61
0010
0001
1001
0000
,  // measure 62
2000
0000
3020
0000
,  // measure 63
0230
0000
0301
0000
,  // measure 64
1001
0000
0001
0010
,  // measure 65
0100
1000
0001
0000
,  // measure 66
0200
0000
0310
1000
,  // measure 67
0001
0100
1000
0100
,  // measure 68
0101
0000
1000
0100
,  // measure 69
0010
0001
1000
0000
,  // measure 70
0020
0000
0130
0001
,  // measure 71
1000
0100
0001
0100
,  // measure 72
1100
0000
0001
0001
,  // measure 73
0100
0010
1000
0000
,  // measure 74
0011
0000
1000
1000
,  // measure 75
0100
0010
0001
1000
,  // measure 76
1001
0000
1000
0100
,  // measure 77
0010
0001
0011
0000
,  // measure 78
0002
0000
0203
0000
,  // measure 79
0320
0000
1030
0000
,  // measure 80
1001
0000
0001
0100
,  // measure 81
0010
0000
1000
0100
,  // measure 82
0010
0000
0001
1000
,  // measure 83
0020
0000
0230
0000
,  // measure 84
0301
0000
1000
0100
,  // measure 85
0010
0000
1001
0000
,  // measure 86
0011
0000
0101
0000
,  // measure 87
1010
0000
1100
0000
,  // measure 88
1001
0000
0000
0000
;

//---------------dance-single - ----------------
#NOTES:
     dance-single:
     :
     Beginner:
     3:
     0.166181,0.239456,0.095238,0.136054,0.000000,171.000000,157.000000,14.000000,20.000000,0.000000,0.000000,0.166181,0.239456,0.095238,0.136054,0.000000,171.000000,157.000000,14.000000,20.000000,0.000000,0.000000:
0000
0000
0000
0000
,
0000
0000
0000
0000
,
0000
0000
0000
0000
,
0000
0000
0000
0000
,
2000
0000
3000
0000
,
0002
0000
0003
0000
,
0020
0000
0030
0000
,
0200
0000
0300
0000
,
1000
0000
0100
0000
,
0010
0000
0100
0000
,
1000
0000
0001
0000
,
0010
0000
0001
0000
,
0100
0000
0010
0000
,
0100
0000
0001
0000
,
1001
0000
0000
0000
,
0110
0000
0000
0000
,
1001
0000
0001
0001
,
0001
0000
1000
1000
,
1000
0000
0010
0010
,
0010
0000
0100
0000
,
0002
0000
0003
0000
,
0200
0000
0300
0000
,
2000
0000
3000
0000
,
0100
0000
0010
0000
,
1001
0000
1000
1000
,
1000
0000
0001
0001
,
0001
0000
0010
0010
,
0010
0000
0100
0000
,
2000
0000
3000
0000
,
0002
0000
0003
0000
,
1000
0000
0010
0000
,
0100
0000
0001
0000
,
0020
0000
0000
0000
,
0030
0000
0010
0000
,
0200
0000
0300
0000
,
1000
0000
0001
0000
,
0200
0000
0000
0000
,
0300
0000
0100
0000
,
0020
0000
0030
0000
,
1000
0000
0001
0000
,
1001
0000
1000
0000
,
0100
0000
0001
0000
,
0100
0000
1000
0000
,
0001
0001
0001
0000
,
1001
0000
0001
0000
,
0100
0000
1000
0000
,
0110
0000
0000
0000
,
1001
0000
0000
0000
,
1000
1000
1000
0000
,
0001
0001
0001
0000
,
0010
0010
0010
0000
,
0100
0100
0100
0000
,
1000
1000
1000
0000
,
0100
0100
0100
0000
,
0001
0001
0001
0000
,
0100
0100
0100
0000
,
2000
0000
3000
0000
,
1000
0000
0001
0000
,
0200
0000
0300
0000
,
0010
0000
1000
0000
,
0002
0000
0003
0000
,
0001
0000
1001
0000
,
1000
0000
0100
0000
,
0010
0000
0001
0000
,
2000
0000
3000
0000
,
0001
0000
0100
0000
,
0020
0000
0030
0000
,
1000
0000
0001
0000
,
0020
0000
0030
0000
,
0100
0000
1000
0000
,
0002
0000
0003
0000
,
0001
0000
1000
0000
,
1001
0000
1000
0000
,
0010
0000
1000
0000
,
1001
0000
0001
0000
,
0010
0000
0001
0000
,
1000
0000
1000
0000
,
0001
0001
0001
0000
,
1000
0000
0100
0000
,
0010
0000
0001
0000
,
1000
0000
0100
0000
,
0010
0000
0100
0000
,
1000
0000
0001
0000
,
0100
0000
0010
0000
,
1000
0000
0010
0000
,
0100
0000
0010
0000
,
1001
0000
0000
0000
,
0110
0000
0000
0000
,
1001
0000
0000
0000
;
