#TITLE:Wing of Hearts;
#SUBTITLE:;
#ARTIST:USAO & DJ Nanashi;
#TITLETRANSLIT:;
#SUBTITLETRANSLIT:;
#ARTISTTRANSLIT:;
#GENRE:;
#CREDIT:;
#BANNER:;
#BACKGROUND:;
#LYRICSPATH:;
#CDTITLE:;
#MUSIC:Wing of Hearts.ogg;
#OFFSET:-0.424000;
#SAMPLESTART:85.095840;
#SAMPLELENGTH:14.999995;
#SELECTABLE:YES;
#BPMS:0.000000=186.970001
;
#STOPS:
;
#BGCHANGES:;
#KEYSOUNDS:;
#ATTACKS:;

//---------------dance-single - ----------------
#NOTES:
     dance-single:
     :
     Beginner:
     4:
     0.232088,0.339796,0.030509,0.000000,0.000000,213.000000,209.000000,4.000000,0.000000,0.000000,0.000000,0.232088,0.339796,0.030509,0.000000,0.000000,213.000000,209.000000,4.000000,0.000000,0.000000,0.000000:
0000
0000
0000
0000
,
0000
0000
0000
0000
,
0000
0000
0000
0000
,
0000
0000
0000
0000
,
0000
0000
0000
0000
,
1000
0000
0000
0000
,
0001
0000
0000
0000
,
1000
0000
0000
0000
,
0010
0000
0000
0000
,
1000
0000
0000
0000
,
0000
0000
0000
0000
,
0001
0000
0000
0000
,
1000
0000
0000
0000
,
0001
0000
0000
0000
,
0100
0000
0000
0000
,
0010
0000
0010
0000
,
1000
0000
1000
0000
,
0001
0000
0001
0000
,
0100
0000
0100
0000
,
0010
0000
0010
0000
,
1000
0000
1000
0000
,
0001
0000
0001
0000
,
0100
0000
0100
0000
,
0010
0000
0010
0000
,
1000
0000
1000
0000
,
0001
0000
0001
0000
,
0100
0000
0000
0000
,
0110
0000
0010
0000
,
0100
0000
0001
0000
,
1000
0000
0001
0000
,
1000
0000
0000
0001
,
0000
1000
0000
0001
,
0000
1000
0000
0001
,
0000
1000
0000
1010
,
0000
0110
0000
0101
,
0001
0000
1000
0000
,
0001
1000
0001
0000
,
0100
0000
0010
0000
,
1000
0000
0100
0000
,
0010
0000
0001
0000
,
0010
0000
0001
0000
,
0100
0000
0100
0000
,
0010
0000
1000
0000
,
0001
0000
0000
0000
,
1000
0000
0000
0000
,
0001
0000
0000
0000
,
0100
0000
0000
0000
,
0010
0000
0000
0000
,
0100
0000
0000
0000
,
0001
0000
0000
0000
,
0001
0000
0000
0000
,
1000
0000
1000
0000
,
0000
0000
0000
0000
,
0100
0000
0100
0000
,
0100
0000
0000
0000
,
1000
0001
1000
0000
,
0001
0000
1000
0000
,
0001
0000
0010
0000
,
0001
0000
0010
0000
,
0100
1000
0100
0000
,
1000
0000
0001
1000
,
0001
0000
1000
0000
,
0001
1000
0001
0000
,
1000
0001
1000
0001
,
1000
0001
1000
0001
,
1000
0001
1000
0001
,
1000
0000
0000
0000
,
0010
0100
0010
0000
,
0100
0001
0100
0000
,
0001
1000
0001
0000
,
1000
0100
1000
0000
,
0010
0100
0010
0000
,
0100
0001
0100
0000
,
0001
1000
0001
0000
,
1000
0010
1000
0000
,
0001
0000
1000
0000
,
0001
1000
0001
0000
,
1000
0100
1000
0000
,
0010
0100
0010
0000
,
0100
0001
0100
0000
,
0001
1000
0001
0000
,
1000
1000
0010
0010
,
0100
0100
0001
0001
,
1000
0000
1000
0000
,
0010
0010
0100
0000
,
0001
0001
1000
0000
,
0010
0010
1000
0000
,
0100
0100
1000
0000
,
0001
0001
0010
0000
,
0100
0100
1000
0000
,
0001
0010
0001
0000
,
0100
0100
0010
0000
,
1000
1000
0001
0000
,
1000
1000
0100
0000
,
0010
0010
0001
0000
,
0100
0100
0010
0000
,
1000
1000
0001
0000
,
1000
1000
0100
0000
,
1000
0010
1000
0010
,
1000
0000
0000
0000
;

//---------------dance-single - ----------------
#NOTES:
     dance-single:
     :
     Easy:
     8:
     0.435846,0.679592,0.518656,0.198310,0.000000,400.000000,332.000000,68.000000,26.000000,0.000000,0.000000,0.435846,0.679592,0.518656,0.198310,0.000000,400.000000,332.000000,68.000000,26.000000,0.000000,0.000000:
0000
0000
0000
0000
,
0000
0000
0000
0000
,
0000
0000
0000
0000
,
0000
0000
0000
0000
,
0000
0000
0000
0000
,
1000
1000
0010
0010
,
0100
0100
0001
0001
,
1000
1000
0100
1000
,
0020
0000
0000
0000
,
0230
0000
0000
0000
,
0302
0000
0000
0000
,
1003
0000
0000
0000
,
1000
0010
1000
0000
,
0001
0100
0001
0000
,
1000
0010
1000
0000
,
0001
1000
0001
0000
,
1000
0100
1000
0000
,
0010
0100
0010
0000
,
0100
0010
0100
0000
,
0001
1000
0001
1000
,
0001
1000
1001
1001
,
0001
0100
0001
0100
,
0001
0100
0001
0101
,
0100
0010
1000
0100
,
0001
0010
1000
0100
,
0001
0010
1000
0100
,
2002
0000
0000
3003
,
1100
1100
0011
0011
,
0110
0110
1001
1001
,
1100
1100
0101
0101
,
1100
1100
1010
1010
,
0011
0011
1010
1010
,
1100
1100
0101
0101
,
1100
1010
0011
1010
,
1100
0101
1100
1010
,
0010
0100
0001
0010
,
0200
2300
3002
2003
,
3100
0010
0001
1000
,
0002
2003
3200
2300
,
3001
0100
0001
0010
,
0002
2003
3200
2300
,
3010
0100
0001
0010
,
0100
1000
0100
1000
,
0001
1000
0001
0000
,
1000
0100
1000
0000
,
0020
0000
0000
0000
,
0230
0000
0000
0000
,
0302
0000
0000
0000
,
1003
0100
1000
0000
,
0020
0000
0230
0000
,
0302
0000
2003
0000
,
3100
1000
0100
0010
,
0022
0000
0033
0000
,
0100
1000
0100
0010
,
0100
1000
0100
0010
,
0001
1000
0001
1000
,
0100
0010
0001
0010
,
0100
1000
0001
0010
,
0001
0100
1000
0100
,
0001
0001
1000
1000
,
0100
0100
0110
0110
,
0010
0010
0001
0001
,
1001
1001
1100
1100
,
0100
0010
0001
0010
,
0100
1000
0001
1000
,
0100
0100
0100
0100
,
0110
0000
0000
0000
,
1001
1000
0100
0001
,
0010
1000
0100
0001
,
0010
1000
0100
0001
,
0010
1000
1100
1100
,
0001
0100
1000
0010
,
0001
0100
1000
1010
,
0010
0001
0100
0010
,
1000
0100
1000
0100
,
1100
1001
0001
0100
,
1000
0100
0001
0010
,
1000
0010
0001
0100
,
0010
1000
1100
0100
,
0010
0001
1000
0001
,
1000
1100
0100
1000
,
0010
1000
0100
0010
,
0001
1000
0001
1000
,
1100
0100
0010
0001
,
1000
0100
1100
0100
,
0000
1000
0010
1000
,
0100
1000
0010
0100
,
0101
0001
0010
0001
,
1000
0100
1000
0010
,
0100
0010
0100
0010
,
1000
0001
1000
0001
,
1000
0100
1000
0100
,
1100
0100
0010
0001
,
0011
0001
0100
1000
,
1100
0100
0001
0011
,
0010
1000
1010
0010
,
0001
0101
0100
1000
,
1100
0100
0101
0001
,
0011
1010
1100
1001
,
0110
0000
0000
0000
;

//---------------dance-single - ----------------
#NOTES:
     dance-single:
     :
     Medium:
     11:
     0.520836,0.572047,0.289837,0.213564,0.000000,478.000000,440.000000,38.000000,28.000000,0.000000,0.000000,0.520836,0.572047,0.289837,0.213564,0.000000,478.000000,440.000000,38.000000,28.000000,0.000000,0.000000:
// measure 0
0000
0000
0000
0000
,  // measure 1
0000
0000
0000
0000
,  // measure 2
0000
0000
0000
0000
,  // measure 3
0000
0000
0000
0000
,  // measure 4
0000
0000
0000
0000
,  // measure 5
1000
0001
0000
0101
0000
0110
0000
0010
,  // measure 6
1000
0001
0000
0001
0000
0100
0000
0010
,  // measure 7
1000
0001
0000
1000
0000
0010
1000
0100
,  // measure 8
0010
0001
0100
0010
1000
0000
1001
0000
,  // measure 9
2002
0000
0000
0000
,  // measure 10
0000
0000
0000
3003
,  // measure 11
0002
0100
0100
0100
,  // measure 12
0203
0010
0010
0010
,  // measure 13
2300
0001
0001
0001
,  // measure 14
3002
0100
0100
0100
,  // measure 15
0103
0000
0010
1000
0001
0000
1000
0001
,  // measure 16
0100
0001
1000
0000
0001
0000
0010
0001
,  // measure 17
0100
0000
0100
0010
1000
0000
1000
0001
,  // measure 18
0100
0000
0100
0001
0010
0000
0010
0001
,  // measure 19
1000
0001
0101
0100
,  // measure 20
0110
0000
0010
0000
1000
0001
0000
0000
,  // measure 21
0101
0000
0100
0000
0010
1000
0100
0000
,  // measure 22
0010
0001
0100
0000
0010
1000
0001
0000
,  // measure 23
1001
0010
1001
0100
,  // measure 24
1001
0010
0100
1000
,  // measure 25
0001
1000
0001
0000
0001
1000
0001
0000
,  // measure 26
0110
0000
0100
0000
0100
0010
0100
0000
,  // measure 27
1001
0000
0011
0000
0010
0001
1000
0000
,  // measure 28
1000
0010
0100
0000
0100
0001
0010
0000
,  // measure 29
0110
1001
0110
1001
,  // measure 30
0100
0001
1000
0000
1000
0001
0100
0000
,  // measure 31
0001
0010
0001
0010
0001
0000
1000
0000
,  // measure 32
0100
1000
0100
0000
1000
0010
1000
0000
,  // measure 33
0001
0101
0100
0110
,  // measure 34
0010
1000
0001
0000
1000
0001
0100
0000
,  // measure 35
0002
0010
0100
0010
,  // measure 36
1003
0100
1000
0000
0001
0000
0100
0000
,  // measure 37
0001
0110
1000
0110
,  // measure 38
0001
1000
0100
0000
1000
0000
1010
0000
,  // measure 39
0010
0100
0001
0000
0011
0000
0010
1000
,  // measure 40
0010
0001
0101
0110
,  // measure 41
1000
0001
1000
0001
1000
0000
0010
0000
,  // measure 42
0100
0001
0010
0000
0001
0000
1000
0000
,  // measure 43
0020
0000
0000
0000
,  // measure 44
0230
0000
0000
0000
,  // measure 45
0302
0000
0000
0000
,  // measure 46
2003
0000
0000
0000
,  // measure 47
3010
0010
0100
0100
,  // measure 48
0001
0000
0001
0000
1000
0000
1000
0010
,  // measure 49
0100
0001
0001
1000
,  // measure 50
1000
0000
0001
0000
0010
0001
0010
0000
,  // measure 51
2001
3200
0320
0032
,  // measure 52
2003
0000
3010
0100
,  // measure 53
0002
0000
0000
0000
0103
0000
0001
1000
,  // measure 54
0001
0000
0100
0000
0010
1000
0010
0000
,  // measure 55
0100
0001
1000
0001
,  // measure 56
0010
0001
1000
0000
0010
0000
1000
0000
,  // measure 57
0100
0010
0001
0100
,  // measure 58
0010
1000
0010
0000
1000
0000
0010
0000
,  // measure 59
1001
0100
1001
0010
,  // measure 60
1001
0000
0100
0000
0010
0001
1000
0000
,  // measure 61
0001
1000
0001
0000
1000
0100
1000
0000
,  // measure 62
0010
0100
0001
0000
1000
0001
0100
0000
,  // measure 63
0001
1000
0001
0100
,  // measure 64
0010
1000
0001
1000
,  // measure 65
0010
0100
0010
0100
0001
1000
0001
1000
,  // measure 66
0020
0000
0000
0000
,  // measure 67
0130
0000
0001
1000
0001
0000
1001
0000
,  // measure 68
1000
0001
1000
0000
0010
0100
0010
0000
,  // measure 69
0100
0000
0001
1000
0001
0000
1000
0000
,  // measure 70
0010
1000
0100
0000
0010
0000
0001
0000
,  // measure 71
1000
0000
0001
1000
0100
0000
1000
0000
,  // measure 72
0010
0100
0001
0000
0010
0000
0001
0000
,  // measure 73
1000
0000
0001
1000
0100
0000
1000
0000
,  // measure 74
0010
0100
0001
0100
0010
0000
1000
0000
,  // measure 75
1001
0000
0001
0010
0001
0000
0100
0000
,  // measure 76
0010
1000
0010
0000
1001
0000
0001
0000
,  // measure 77
0200
0000
0310
1000
0001
0000
2000
0000
,  // measure 78
3001
1000
0010
0000
1000
0000
0001
0000
,  // measure 79
0200
0000
0310
1000
0001
0000
2000
0000
,  // measure 80
3001
0100
0010
0000
1000
0000
0001
0000
,  // measure 81
2000
3200
0320
0032
,  // measure 82
1003
0001
0010
0001
,  // measure 83
1000
0010
1000
0000
0010
0000
0100
0001
,  // measure 84
0100
0000
0001
0000
1000
0001
1000
0000
,  // measure 85
0001
0000
0010
0001
0010
0000
0100
0000
,  // measure 86
1000
0100
1000
0000
0001
0000
1000
0001
,  // measure 87
1000
0000
0001
0000
0100
0001
1000
0001
,  // measure 88
0100
0010
1000
0001
,  // measure 89
0100
0001
0010
0100
,  // measure 90
1000
0001
1000
0000
0001
0010
0001
0000
,  // measure 91
0110
0000
1000
0100
1000
0000
0110
0000
,  // measure 92
0001
0010
0001
0000
1000
0010
1000
0000
,  // measure 93
1001
0000
0001
0100
0001
0000
0010
0000
,  // measure 94
0100
1000
0100
0000
1000
0000
0001
0000
,  // measure 95
0011
0010
0101
1000
,  // measure 96
0010
1000
0100
0000
0010
0000
0001
0000
,  // measure 97
0100
0000
0001
1000
0001
0000
1000
0010
,  // measure 98
1000
0010
0100
0001
,  // measure 99
0022
0000
0000
0000
,  // measure 100
0033
0000
0000
0000
;

//---------------dance-single - ----------------
#NOTES:
     dance-single:
     :
     Hard:
     14:
     0.712608,0.758916,0.396620,0.114409,0.072459,654.000000,602.000000,52.000000,15.000000,0.000000,0.000000,0.712608,0.758916,0.396620,0.114409,0.072459,654.000000,602.000000,52.000000,15.000000,0.000000,0.000000:
// measure 0
0000
0000
0000
0000
,  // measure 1
0000
0000
0000
0000
,  // measure 2
0000
0000
0000
0000
,  // measure 3
0000
0000
0000
0000
,  // measure 4
0000
0000
0000
0000
,  // measure 5
0001
0100
0000
0100
0000
0100
0000
0100
,  // measure 6
1000
0100
0000
0001
0010
1000
0010
0001
,  // measure 7
1000
0100
0000
0100
0000
0100
0000
0100
,  // measure 8
0001
0100
1000
0010
0100
0000
0001
0000
,  // measure 9
2002
0000
0000
0000
,  // measure 10
0000
0000
0000
0000
0000
0000
0000
3003
,  // measure 11
0010
0000
0110
0000
0100
0001
1000
0001
,  // measure 12
0010
0100
1000
0001
0000
1000
0001
1000
,  // measure 13
0100
0010
0001
0000
0100
0010
0100
0001
,  // measure 14
0100
0010
0100
1000
0000
1000
0100
0001
,  // measure 15
0100
0000
0010
1000
0001
0000
1000
1000
,  // measure 16
0001
0100
0010
1000
0001
0010
0001
0100
,  // measure 17
0010
0000
1000
0001
1000
0000
0010
0100
,  // measure 18
0001
0000
0010
0000
0001
0000
1000
0000
0100
1000
0100
0000
1000
0000
0001
0000
,  // measure 19
0101
0000
0100
0010
1000
0000
0001
1000
,  // measure 20
0100
1000
0001
0010
0001
0001
0100
0000
,  // measure 21
1010
0000
1000
0000
0001
1000
0001
0000
,  // measure 22
1000
0000
0001
0000
1000
0000
0100
0010
0100
0000
0010
0000
0011
0000
0000
0000
,  // measure 23
1100
1100
0011
0011
,  // measure 24
1001
1001
0110
0110
,  // measure 25
0001
0100
1000
0010
0001
0100
1000
0010
,  // measure 26
0001
0000
1001
0000
1000
0010
1000
0000
,  // measure 27
1001
0000
0101
0000
0100
0100
0010
1000
,  // measure 28
0001
0100
1000
0100
0001
0100
1000
0100
,  // measure 29
0001
0101
1000
1010
,  // measure 30
0100
0010
0110
0000
0010
0001
0011
0000
,  // measure 31
1000
0001
0100
0001
1000
0000
0001
0001
,  // measure 32
1000
0100
0001
0100
1000
0100
0001
0100
,  // measure 33
1000
0001
0101
0000
0100
0010
1010
0000
,  // measure 34
0001
0000
1000
0000
0100
0000
0010
0000
0001
1000
0001
0000
0100
0000
0100
0000
,  // measure 35
0010
1000
0002
0000
0203
0000
0302
0000
,  // measure 36
0013
0001
0100
0100
0010
1000
0100
1000
,  // measure 37
0001
0010
0011
0000
0100
0010
0110
0000
,  // measure 38
0010
1000
1100
0000
0100
0001
0101
0000
,  // measure 39
1000
1000
0010
0010
0001
0000
0010
1000
,  // measure 40
1001
0000
0001
0000
0100
0000
0100
0000
1000
0100
1000
0000
0100
0000
0010
0000
,  // measure 41
0100
0001
0100
0000
0001
0000
1000
0000
0010
0000
1000
0000
0001
0000
0000
0000
,  // measure 42
0100
0000
0010
0000
1000
0000
0000
0001
1000
0001
1000
0000
0010
0000
0000
0000
,  // measure 43
0120
0000
0000
0000
,  // measure 44
0230
0000
0000
0000
,  // measure 45
0302
0000
0000
0000
,  // measure 46
2003
0000
0000
0000
,  // measure 47
3001
0001
0001
0001
,  // measure 48
0100
0000
0100
0000
0100
0000
0100
0001
,  // measure 49
1000
0000
0010
1000
0000
0010
1000
0001
,  // measure 50
1000
0000
0100
0000
0010
0000
0001
0000
0100
0010
0100
0000
1001
0000
0000
0000
,  // measure 51
0001
0100
0010
0100
0001
0000
1001
0000
,  // measure 52
1000
0010
0100
0000
0010
0001
0010
1000
,  // measure 53
0001
0000
0100
0001
1001
0000
1000
0010
,  // measure 54
0100
0000
0001
0000
0010
0000
0001
0000
1000
0100
1000
0000
0010
0000
0100
0000
,  // measure 55
0001
0000
1000
0001
0100
0100
0010
1000
,  // measure 56
0001
0010
0001
0100
0010
1000
0010
0100
,  // measure 57
0001
0000
0000
0000
1001
0000
0000
0000
1010
0000
0000
0000
0010
0000
0100
0001
,  // measure 58
0100
0001
1000
0010
1000
0000
1001
0000
,  // measure 59
0001
0100
0010
0100
0001
1000
0002
0000
,  // measure 60
1003
0100
0001
0100
1000
1000
0010
0000
,  // measure 61
0110
0000
0100
0001
0010
0010
0001
1000
,  // measure 62
0100
0000
0100
0000
1000
0000
0010
0100
0010
0000
1000
0000
0001
0000
0000
0000
,  // measure 63
0100
0100
0001
0001
1000
1000
0010
0010
,  // measure 64
0100
0100
1000
1000
0100
0100
0010
1000
,  // measure 65
0001
0000
0010
0000
0100
0000
1000
0000
0100
0010
0100
0000
0010
0001
0010
0000
,  // measure 66
0001
0000
0000
0000
,  // measure 67
1001
0000
1000
0100
0001
0000
1100
0000
,  // measure 68
0001
0100
1000
0000
0100
0100
0001
0001
,  // measure 69
0010
0000
1000
0010
0001
0000
1001
0000
,  // measure 70
1000
0100
0010
0001
0100
0010
1000
0100
,  // measure 71
1000
1000
0001
0100
0001
0000
0011
0000
,  // measure 72
0010
0100
0010
0000
0100
1000
0001
1000
,  // measure 73
0100
0000
0001
0100
1100
0000
0110
0000
,  // measure 74
0010
0001
0010
1000
0010
0001
0010
0100
,  // measure 75
1000
0000
1000
0001
0010
0001
0100
0000
,  // measure 76
0010
1000
0001
1000
0010
0000
0100
0001
,  // measure 77
1000
0000
0010
0100
0001
0000
0101
0000
,  // measure 78
0100
0010
1000
1000
0001
0100
0001
1000
,  // measure 79
0010
0010
0100
0001
0010
0000
1001
0000
,  // measure 80
1000
0010
0100
0010
1000
0010
0100
0010
,  // measure 81
1000
0000
0000
0000
0001
0000
1000
0000
1010
0000
0000
0000
0010
0000
0100
0001
,  // measure 82
0100
0001
1000
0100
1100
1000
0010
0100
,  // measure 83
0101
0001
0010
1000
0020
0000
0031
0100
,  // measure 84
0010
0000
1000
0000
0002
0000
0000
0000
0013
0000
0001
0000
0100
0000
0001
0010
,  // measure 85
0002
0000
1003
0100
1100
0000
1010
0000
,  // measure 86
0010
0100
0010
0000
0100
0001
1000
0001
,  // measure 87
1000
1000
0010
0010
0100
0100
0001
0001
,  // measure 88
1000
0000
1000
0000
0010
0000
0000
0000
0100
0000
0100
0000
0001
0000
0001
1000
,  // measure 89
0001
0000
1000
0010
0100
0010
1000
0000
,  // measure 90
0010
0000
0010
0000
1000
0000
0100
0000
1000
0001
1000
0000
0001
0000
0100
0000
,  // measure 91
0210
0000
0310
1000
1001
0000
0001
0100
,  // measure 92
0010
0000
1000
0000
0100
0000
0010
0000
0001
0000
1000
0000
0100
0000
1000
0010
,  // measure 93
1000
0000
0001
0100
0101
0000
0011
0000
,  // measure 94
1000
0010
0100
0010
0001
0010
1000
0001
,  // measure 95
1000
0100
1000
0010
0100
0001
0100
0010
,  // measure 96
1000
0001
1000
0010
0100
0001
0010
0100
,  // measure 97
1000
0001
1000
0000
0100
0000
0100
0000
0010
0000
0010
0000
0001
0000
1000
0000
,  // measure 98
0001
0100
1000
0100
0001
0010
1000
0010
,  // measure 99
0002
0000
0003
0000
;
