#TITLE:WWW;
#SUBTITLE:;
#ARTIST:Moe Shop feat. EDOGA-SULLIVAN;
#TITLETRANSLIT:;
#SUBTITLETRANSLIT:;
#ARTISTTRANSLIT:;
#GENRE:;
#CREDIT:BadWolf;
#BANNER:WWW.png;
#BACKGROUND:WWW-bg.png;
#LYRICSPATH:;
#CDTITLE:cdtitle.png;
#MUSIC:WWW.ogg;
#OFFSET:-0.660000;
#SAMPLESTART:43.287338;
#SAMPLELENGTH:14.222221;
#SELECTABLE:YES;
#BPMS:0.000000=135.000000
;
#STOPS:
;
#BGCHANGES:;
#KEYSOUNDS:;
#ATTACKS:;

//---------------dance-single - ----------------
#NOTES:
     dance-single:
     :
     Hard:
     12:
     0.534622,0.526012,0.358549,0.126986,0.291321,501.000000,453.000000,48.000000,17.000000,0.000000,0.000000,0.534622,0.526012,0.358549,0.126986,0.291321,501.000000,453.000000,48.000000,17.000000,0.000000,0.000000:
0000
0000
0000
0000
,
0000
0000
0000
0000
,
0000
0000
0000
0000
,
0000
0000
0000
0000
,
1001
0000
0001
0000
1000
0100
0010
0000
,
0100
0000
0000
1000
0001
0000
0100
0010
,
1000
0000
0001
0000
0000
1000
0100
0010
,
0001
0000
0001
0000
1000
0001
1000
0000
,
1010
0000
0000
0000
0010
0000
0000
0100
0000
0000
0001
0000
0000
1000
0000
0000
,
1100
0000
0000
0000
0100
0000
0000
0010
0000
0000
0001
0000
0000
0101
0000
0000
,
0110
0000
0000
0000
0010
0000
0000
1000
0000
0000
0001
0000
0000
0010
0000
0000
,
0110
0000
0000
0000
0100
0000
0000
1000
0000
0000
1010
0000
0000
1001
0000
0000
,
0011
0000
0000
0000
0010
0000
0000
0100
0000
0000
1000
0000
0000
0001
0000
0000
,
0101
0000
0000
0000
0100
0000
0000
0010
0000
0000
1000
0000
0000
1100
0000
0000
,
0110
0000
0000
0000
0010
0000
0000
0001
0000
0000
1000
0000
0000
0010
0000
0000
,
0110
0000
0000
0000
0100
0000
0000
0001
0000
0000
0011
0000
0000
1001
0000
0000
,
1010
0000
0000
0000
0000
0000
0000
0000
0000
0010
0000
0100
0000
0000
0001
0000
0000
1000
0000
0000
0100
0010
0000
0000
,
0001
0000
0000
0000
0000
0000
0000
0000
0000
0100
0000
0010
0000
0000
1000
0000
0000
0001
0010
0000
0010
0100
0000
0000
,
1000
0000
0000
0000
0000
0000
0000
0000
0000
0001
0000
0100
0000
0000
0010
0000
0000
1000
0000
0000
0001
0000
0000
0000
,
1000
0100
0010
1000
0010
0001
0100
0001
,
1000
0000
0000
0000
0000
0000
0000
0000
0000
0100
0000
0010
0000
0000
0001
0000
0000
1000
0000
0000
0010
0100
0000
0000
,
0001
0000
0000
0000
0000
0000
0000
0000
0000
0010
0000
0100
0000
0000
1000
0000
0000
0001
0100
0000
0100
0010
0000
0000
,
1000
0000
0000
0000
0000
0000
0000
0000
0000
0001
0000
0010
0000
0000
0100
0000
0000
1000
0000
0000
0001
0000
0000
0000
,
2002
3003
1000
0001
,
1001
0000
1000
0010
0001
0010
0100
0010
,
1000
0100
0010
0001
0000
0100
0010
1000
,
0001
0010
0100
0010
1000
0010
0100
1000
,
0010
0001
0010
0100
0001
1000
0100
0000
,
0010
0100
0001
0100
0010
0001
1000
0010
,
0001
0010
1000
0001
0000
0100
0010
0001
,
0020
0000
2030
0000
3002
0000
0013
0100
,
1000
0000
0000
0000
0000
0000
0001
0000
0000
0000
0000
0000
0000
0000
0000
1000
0000
0000
0000
0000
0000
0000
0000
0000
0001
0000
0000
0000
0000
0000
0000
0000
0000
0000
1000
0000
0001
0000
0000
0000
1000
0000
0001
0000
0000
0000
0000
0000
,
0101
0000
1000
0100
0101
0000
1000
0100
,
0010
1000
0010
0100
0010
0000
0001
0100
,
1100
0000
0001
0100
1100
0000
0001
0100
,
0010
0001
0010
0100
0010
0000
1000
0010
,
0011
0000
1000
0010
0011
0000
1000
0010
,
0100
1000
0100
0010
0100
0000
0001
0010
,
1010
0000
0001
0010
1010
0000
0001
1000
,
1001
0000
0000
0000
1100
0000
0000
0000
0101
0000
0000
1000
0001
0000
0010
0000
,
0100
0000
0000
0100
1000
0000
0010
0000
0100
0000
0010
0000
0001
0000
0010
0000
,
1000
0000
0000
1000
0001
0000
0010
0000
0100
0000
0001
0000
0100
0000
1000
0000
,
0001
0000
0000
0001
0100
0000
1000
0000
0100
0000
0010
0000
1000
0000
0100
0000
,
1000
0010
0001
0010
2000
0000
3200
0000
,
0310
0000
0000
0010
0001
0000
0100
0000
0010
0000
0100
0000
1000
0000
0100
0000
,
0001
0000
0000
0001
1000
0000
0100
0000
0010
0000
1000
0000
0010
0000
0001
0000
,
1000
0000
0000
1000
0010
0000
0001
0000
0010
0000
0100
0000
0001
0000
0010
0000
,
0011
1010
1100
0101
,
0002
0000
0000
0000
2003
0000
0000
0000
3001
0000
0000
1000
0100
0000
0010
0000
,
0001
0000
0000
0000
0000
0000
0000
0000
0000
0100
0000
0010
0000
0000
1000
0000
0000
0001
0000
0000
0010
0100
0000
0000
,
1000
0000
0000
0000
0000
0000
0000
0000
0000
0010
0000
0100
0000
0000
0001
0000
0000
1000
0100
0000
0100
0010
0000
0000
,
0001
0000
0000
0000
0000
0000
0000
0000
0000
1000
0000
0010
0000
0000
0100
0000
0000
0001
0000
0000
1000
0000
0000
0000
,
0001
0010
0100
0000
0011
0011
1100
1100
,
0001
0000
0000
0000
0000
0000
0000
0000
0000
0010
0000
0100
0000
0000
1000
0000
0000
0001
0000
0000
0100
0010
0000
0000
,
1000
0000
0000
0000
0000
0000
0000
0000
0000
0100
0000
0010
0000
0000
0001
0000
0000
1000
0010
0000
0010
0100
0000
0000
,
0001
0000
0000
0000
0000
0000
0000
0000
0000
1000
0000
0100
0000
0000
0010
0000
0000
0001
0000
0000
1000
0000
0000
0000
,
2002
3003
0001
1000
,
1001
0000
0001
0100
1000
0100
0010
0100
,
0001
0010
0100
1000
0000
0010
0100
0001
,
1000
0100
0010
0100
0001
0100
0010
0001
,
0100
1000
0100
0010
1000
0001
0010
0000
,
0100
0010
1000
0010
0100
1000
0001
0100
,
1000
0100
0001
1000
0000
0010
0100
1000
,
0200
0000
0302
0000
2003
0000
3100
0010
,
0001
0000
0000
0000
0000
0000
1000
0000
0000
0000
0000
0000
0000
0000
0000
0001
0000
0000
0000
0000
0000
0000
0000
0000
1000
0000
0000
0000
0000
0000
0000
0000
0000
0000
0001
0000
1000
0000
0000
0000
0001
0000
1000
0000
0000
0000
0000
0000
,
1010
0000
0001
0010
1010
0000
0001
0010
,
0100
0001
0100
0010
0100
0000
1000
0010
,
0011
0000
1000
0010
0011
0000
1000
0010
,
0100
1000
0100
0010
0100
0000
0001
0100
,
1100
0000
0001
0100
1100
0000
0001
0100
,
0010
0001
0010
0100
0010
0000
1000
0100
,
0101
0000
1000
0100
0101
0000
1000
0100
,
0010
1000
0010
0100
0010
0000
0001
1000
,
0001
1000
0010
0100
0002
0000
1003
0000
,
2002
3003
0000
0000
0000
0000
0000
0000
;

//---------------dance-single - ----------------
#NOTES:
     dance-single:
     :
     Medium:
     9:
     0.428978,0.442210,0.171805,0.037349,0.074698,402.000000,379.000000,23.000000,5.000000,0.000000,0.000000,0.428978,0.442210,0.171805,0.037349,0.074698,402.000000,379.000000,23.000000,5.000000,0.000000,0.000000:
0000
0000
0000
0000
,
0000
0000
0000
0000
,
0000
0000
0000
0000
,
0000
0000
0000
0000
,
1001
0000
0001
0000
0010
0100
1000
0000
,
0010
0000
0000
0100
0001
0000
1000
0100
,
0010
0000
0100
0000
0000
1000
0001
1000
,
0001
0000
1000
0000
0010
0100
0001
0000
,
1001
0000
0000
0000
1000
0000
0000
0100
0000
0000
0010
0000
0000
0001
0000
0000
,
1001
0000
0000
0000
0001
0000
0000
0100
0000
0000
0010
0000
0000
1010
0000
0000
,
1001
0000
0000
0000
1000
0000
0000
0100
0000
0000
0010
0000
0000
0001
0000
0000
,
1001
0000
0000
0000
0001
0000
0000
0100
0000
0000
0110
0000
0000
1010
0000
0000
,
1001
0000
0000
0000
0001
0000
0000
0010
0000
0000
0100
0000
0000
1000
0000
0000
,
1001
0000
0000
0000
1000
0000
0000
0010
0000
0000
0100
0000
0000
0101
0000
0000
,
1001
0000
0000
0000
0001
0000
0000
0010
0000
0000
0100
0000
0000
1000
0000
0000
,
1001
0000
0000
0000
1000
0000
0000
0010
0000
0000
0110
0000
0000
0101
0000
0000
,
1001
0000
0001
0000
0010
0100
0010
0000
,
0001
0000
1000
0000
0010
0100
0010
0000
,
1000
0000
0001
0000
0010
0100
0010
0000
,
0001
0100
1000
0000
0100
0001
1000
0000
,
0001
0100
0001
0000
1000
0010
1000
0000
,
0001
0010
0001
0000
1000
0100
1000
0000
,
0001
0100
0001
0100
0010
1000
0010
1000
,
0002
0000
1003
0001
,
1000
0000
0010
1000
0010
0100
0010
0001
,
0000
0010
1000
0001
0000
1000
0001
1000
,
0000
0000
0100
0000
0010
0000
0001
1000
,
0000
0010
1000
0000
0100
0000
0010
0000
,
0001
0000
0100
0001
0100
0010
0100
1000
,
0000
0100
0001
1000
0000
0001
1000
0001
,
0000
0000
0010
0000
0100
0000
1000
0001
,
0000
0000
1000
0000
0000
0001
0000
0000
1000
0000
0000
0000
0000
0000
0000
0000
,
0001
0000
1000
0010
0001
0000
1000
0100
,
0001
0010
0100
1000
0001
0000
1000
0001
,
1000
0000
0001
0100
1000
0000
0001
0010
,
1000
0100
0010
0001
1000
0000
0001
0000
,
1000
0000
0001
0010
1000
0000
0001
0100
,
1000
0010
0100
0001
1000
0000
0001
1000
,
0001
0000
1000
0100
0001
0000
1000
0010
,
0001
0000
0000
0000
0101
0000
0000
0000
1100
0000
0000
1000
0001
0000
1000
0000
,
0001
0000
0100
0000
0010
1000
0001
0000
,
1000
0000
0100
0000
0010
0001
1000
0000
,
0010
0100
1000
0000
1000
0100
0001
0000
,
1000
0100
0010
0100
1000
0000
0001
0000
,
1000
0000
0010
0000
0100
0001
1000
0000
,
0001
0000
0010
0000
0100
1000
0001
0000
,
0100
0010
0001
0000
0001
0010
1000
0000
,
1100
0101
0011
1010
,
0002
0000
0000
0000
2003
0000
0000
0000
3001
0000
0000
1000
0001
0000
1000
0000
,
0001
0000
1000
0000
0100
0010
0100
0000
,
1000
0000
0001
0000
0100
0010
0100
0000
,
0001
0000
1000
0000
0100
0010
0100
0000
,
1000
0010
0001
0000
0010
0100
0001
1000
,
0100
0000
0000
0000
0010
0000
0001
1000
,
0001
0000
0000
0000
0100
0000
0010
1000
,
0001
0000
0000
0000
0010
0000
0100
1000
,
0002
0000
1003
0001
,
1000
0000
0010
1000
0010
0100
0010
0001
,
0000
0010
1000
0001
0000
1000
0001
1000
,
0000
0000
0100
0000
0010
0000
0001
1000
,
0000
0010
1000
0000
0100
0000
0010
0000
,
0001
0000
0100
0001
0100
0010
0100
1000
,
0000
0100
0001
1000
0000
0001
1000
0001
,
0000
0000
0010
0000
0100
0000
1000
0001
,
0000
0000
1000
0000
0000
0001
0000
0000
1000
0000
0000
0000
0000
0000
0000
0000
,
0001
0000
1000
0010
0001
0000
1000
0100
,
0001
0010
0100
1000
0001
0000
1000
0001
,
1000
0000
0001
0100
1000
0000
0001
0010
,
1000
0100
0010
0001
1000
0000
0001
0000
,
1000
0000
0001
0010
1000
0000
0001
0100
,
1000
0010
0100
0001
1000
0000
0001
1000
,
0001
0000
1000
0100
0001
0000
1000
0010
,
0001
0100
0010
1000
0001
0000
1000
0001
,
1000
0100
0010
0001
2000
0000
3001
0000
,
1001
0000
0000
0000
;

//---------------dance-single - ----------------
#NOTES:
     dance-single:
     :
     Easy:
     6:
     0.285985,0.386934,0.261442,0.171805,0.000000,268.000000,233.000000,35.000000,23.000000,0.000000,0.000000,0.285985,0.386934,0.261442,0.171805,0.000000,268.000000,233.000000,35.000000,23.000000,0.000000,0.000000:
0000
0000
0000
0000
,
0000
0000
0000
0000
,
0000
0000
0000
0000
,
0000
0000
0000
0000
,
1000
0100
0010
0100
,
1000
0000
0001
1000
,
0001
0100
0010
0100
,
0001
0001
1000
0001
,
2002
0000
0000
3003
,
0220
0000
0000
0330
,
2002
0000
0000
3003
,
0220
0000
0000
0330
,
2020
0000
0000
3030
,
0202
0000
0000
0303
,
0022
0000
0000
0033
,
2200
0000
0000
3300
,
1000
0001
0000
0001
,
1000
0010
0000
0010
,
1000
0100
0000
0100
,
1000
0001
0100
0010
,
1000
0100
0000
0100
,
1000
0010
0000
0010
,
1000
0001
0000
0001
,
2002
3003
1000
0001
,
1000
0010
0001
0010
,
1000
1000
0001
0001
,
1000
0100
0001
0100
,
1000
1000
0001
0001
,
0010
0100
1000
0001
,
0100
0100
0010
0010
,
1000
0001
0010
0100
,
1000
0001
1000
0000
,
1001
0010
1001
0010
,
1000
0100
0010
0001
,
1001
0100
1001
0100
,
0001
0010
0100
1000
,
1001
0010
1001
0010
,
1000
0100
0010
0001
,
1001
0100
1001
0100
,
1001
0110
1001
0001
,
1000
0100
0010
0001
,
0100
0010
1000
0001
,
0010
0100
1000
0001
,
1000
0010
0100
0100
,
0001
0010
0100
1000
,
0010
0100
0001
1000
,
0100
0010
0001
1000
,
1001
0110
1001
0110
,
0002
0000
1003
0001
,
1000
0001
0000
0001
,
1000
0010
0000
0010
,
1000
0100
0000
0100
,
1000
0001
1001
1001
,
1000
0000
0100
0000
,
0010
0000
0001
0000
,
1000
0000
0001
0000
,
2002
3003
1000
0001
,
1000
0010
0001
0010
,
1000
1000
0001
0001
,
1000
0100
0001
0100
,
1000
1000
0001
0001
,
0010
0100
1000
0001
,
0100
0100
0010
0010
,
1000
0001
0010
0100
,
1000
0001
1000
0000
,
1001
0010
1001
0010
,
1000
0100
0010
0001
,
1001
0100
1001
0100
,
0001
0010
0100
1000
,
1001
0010
1001
0010
,
1000
0100
0010
0001
,
1001
0100
1001
0100
,
0001
0010
0100
1000
,
0002
0000
2000
0000
,
3003
0000
0000
0000
;

//---------------dance-single - ----------------
#NOTES:
     dance-single:
     :
     Beginner:
     2:
     0.108845,0.165829,0.059758,0.022409,0.000000,102.000000,94.000000,8.000000,3.000000,0.000000,0.000000,0.108845,0.165829,0.059758,0.022409,0.000000,102.000000,94.000000,8.000000,3.000000,0.000000,0.000000:
// measure 0
0000
0000
0000
0000
,  // measure 1
0000
0000
0000
0000
,  // measure 2
0000
0000
0000
0000
,  // measure 3
0000
0000
0000
0000
,  // measure 4
1000
0000
0000
0000
,  // measure 5
0001
0000
0000
0000
,  // measure 6
1000
0000
0000
0000
,  // measure 7
0001
0000
0000
0000
,  // measure 8
1001
0000
0000
0000
,  // measure 9
1001
0000
0000
0000
,  // measure 10
1001
0000
0000
0000
,  // measure 11
1001
0000
0000
0000
,  // measure 12
0110
0000
0000
0000
,  // measure 13
0110
0000
0000
0000
,  // measure 14
0110
0000
0000
0000
,  // measure 15
0110
0000
0000
0000
,  // measure 16
1000
0000
0000
0000
,  // measure 17
0001
0000
0000
0000
,  // measure 18
0100
0000
0000
0000
,  // measure 19
0010
0000
0000
0000
,  // measure 20
1000
0000
0000
0000
,  // measure 21
0001
0000
0000
0000
,  // measure 22
0010
0000
0000
0000
,  // measure 23
0200
0000
0300
0000
,  // measure 24
1000
0000
0001
0000
,  // measure 25
1000
0000
0000
0000
,  // measure 26
0010
0000
0100
0000
,  // measure 27
0010
0000
0000
0000
,  // measure 28
1000
0000
0001
0000
,  // measure 29
1000
0000
0000
0000
,  // measure 30
0100
0000
0010
0000
,  // measure 31
0100
0000
0000
0000
,  // measure 32
1000
0000
1000
0000
,  // measure 33
1000
0000
1000
0000
,  // measure 34
0001
0000
0001
0000
,  // measure 35
0001
0000
0001
0000
,  // measure 36
0100
0000
0100
0000
,  // measure 37
0100
0000
0100
0000
,  // measure 38
0010
0000
0010
0000
,  // measure 39
0010
0000
0010
0000
,  // measure 40
1000
0000
0000
0000
,  // measure 41
0001
0000
0000
0000
,  // measure 42
1000
0000
0000
0000
,  // measure 43
0001
0000
0000
0000
,  // measure 44
0010
0000
0000
0000
,  // measure 45
0100
0000
0000
0000
,  // measure 46
0010
0000
0000
0000
,  // measure 47
0100
0000
0000
0000
,  // measure 48
1000
0000
0000
0000
,  // measure 49
0001
0000
0000
0000
,  // measure 50
1000
0000
0000
0000
,  // measure 51
0010
0000
0000
0000
,  // measure 52
0100
0000
0000
0000
,  // measure 53
0001
0000
0000
0000
,  // measure 54
1000
0000
0000
0000
,  // measure 55
0100
0000
0000
0000
,  // measure 56
0020
0000
0030
0000
,  // measure 57
0001
0000
1000
0000
,  // measure 58
0001
0000
0000
0000
,  // measure 59
0100
0000
0010
0000
,  // measure 60
0100
0000
0000
0000
,  // measure 61
0001
0000
1000
0000
,  // measure 62
0001
0000
0000
0000
,  // measure 63
0010
0000
0100
0000
,  // measure 64
0010
0000
0000
0000
,  // measure 65
0001
0000
0001
0000
,  // measure 66
0001
0000
0001
0000
,  // measure 67
1000
0000
1000
0000
,  // measure 68
1000
0000
1000
0000
,  // measure 69
0010
0000
0010
0000
,  // measure 70
0010
0000
0010
0000
,  // measure 71
0100
0000
0100
0000
,  // measure 72
0100
0000
0100
0000
,  // measure 73
0002
0000
0000
0000
,  // measure 74
0003
0000
0000
0000
;
