#VERSION:0.83;
#TITLE:Undercover;
#SUBTITLE:;
#ARTIST:Hommarju;
#TITLETRANSLIT:;
#SUBTITLETRANSLIT:;
#ARTISTTRANSLIT:;
#GENRE:;
#ORIGIN:;
#CREDIT:;
#BANNER:;
#BACKGROUND:;
#PREVIEWVID:;
#JACKET:Undercover-jacket.png;
#CDIMAGE:;
#DISCIMAGE:;
#LYRICSPATH:;
#CDTITLE:;
#MUSIC:Undercover.ogg;
#OFFSET:-0.066000;
#SAMPLESTART:60.978626;
#SAMPLELENGTH:14.999999;
#SELECTABLE:YES;
#BPMS:0.000=130.000;
#STOPS:;
#DELAYS:;
#WARPS:;
#TIMESIGNATURES:0.000=4=4;
#TICKCOUNTS:0.000=4;
#COMBOS:0.000=1;
#SPEEDS:0.000=1.000=0.000=0;
#SCROLLS:0.000=1.000;
#FAKES:;
#LABELS:0.000=Song Start;
#BGCHANGES:;
#KEYSOUNDS:;
#ATTACKS:
;

//---------------dance-single - ----------------
#NOTEDATA:;
#CHARTNAME:;
#STEPSTYPE:dance-single;
#DESCRIPTION:;
#CHARTSTYLE:;
#DIFFICULTY:Hard;
#METER:12;
#RADARVALUES:0.455592,0.604272,0.145697,0.364243,0.611118,394.000000,376.000000,18.000000,45.000000,0.000000,0.000000,0.000000,0.000000,0.000000,0.455592,0.604272,0.145697,0.364243,0.611118,394.000000,376.000000,18.000000,45.000000,0.000000,0.000000,0.000000,0.000000,0.000000;
#CREDIT:;
#NOTES:
0000
0000
0000
0000
,
0000
0000
0000
0000
,
0000
0000
0000
0000
,
0000
0000
0000
0000
,
2000
3010
0002
0013
,
2000
0010
0000
3010
,
0002
0103
2000
3100
,
0002
0100
0000
0200
,
0000
0000
0000
0303
,
1000
0000
1000
0010
0000
0000
0001
0000
0001
0010
0000
0000
,
2000
0000
0000
3100
0000
0010
0001
0000
0000
1001
0000
0000
,
1000
0000
0100
0010
0000
0000
0001
0000
0100
0010
0000
0000
,
2000
0000
0000
3001
0000
0010
0100
0000
0000
0110
0000
0000
,
1000
0000
0001
0010
0000
0000
0001
0000
1000
0010
0000
0000
,
2000
0000
0000
3100
0000
0010
0001
0000
0000
1001
0000
0000
,
0001
0000
0001
0100
0000
0000
1000
0000
1000
0100
0000
0000
,
0020
0000
0000
1000
0000
0000
0031
0000
0000
1001
0000
0001
,
1000
0000
0000
1100
0000
0010
0001
0000
0010
0100
0000
1000
,
0000
0000
1000
0100
0000
0010
1000
0000
0010
0001
0000
0000
,
0100
0000
0000
0101
0000
0010
1000
0000
0010
0100
0000
0001
,
0000
0000
0001
0100
0000
1000
0100
0000
0001
0010
0000
0000
,
2100
0000
0000
3010
0000
0100
0001
0000
0100
0010
0000
1000
,
0000
0000
1000
0100
0000
0010
0001
0000
0100
1000
0000
0100
,
0001
0000
0000
1001
0000
0100
0010
0000
0010
0000
0000
1100
,
0000
0000
0011
0000
0000
1000
0010
0000
0010
0200
0000
0000
,
0320
0001
1000
0001
,
0230
1000
0001
1000
,
0302
0010
1000
0010
,
2003
0000
0000
0010
0000
0000
0001
0000
0000
3010
0000
0010
,
0200
0001
0320
1000
,
0230
1000
0320
0001
,
2030
0000
3100
0000
0000
0001
0100
0000
0000
1001
0000
0000
,
2000
0000
3010
0000
0000
0001
0010
0000
0000
1001
0000
1000
,
0001
0010
0100
0010
0000
0010
0001
0100
0010
0100
0000
0100
,
0001
0010
0100
0001
0000
0100
0010
0100
1000
0010
0001
0010
,
1000
0001
0010
0100
0000
0100
1000
0001
0100
0010
0000
0010
,
1000
0001
0010
0001
1000
0010
2000
0000
0000
3001
0000
0001
,
1000
0100
0001
0100
0000
1000
0001
0100
1000
0100
0000
0001
,
0010
0100
0010
0001
0000
1000
0010
0100
0010
1000
0100
0010
,
0002
0000
0000
1003
0010
0100
0002
0000
0000
1003
0100
0010
,
0001
0000
0100
1000
0000
0010
0002
0000
0000
1003
0000
1000
,
0020
0000
0000
0030
,
2000
0000
0000
3001
0000
0100
0010
0000
0000
0110
0000
0000
,
1000
0000
1000
0010
0000
0000
0001
0000
0001
0010
0000
0000
,
0002
0000
0000
0103
0000
0010
1000
0000
0000
1001
0000
0000
,
0100
0000
0100
1000
0000
0000
0010
0000
0010
0001
0000
0000
,
0200
0000
0000
0310
0000
1000
0100
0000
0000
0011
0000
0000
,
0100
0000
0100
0001
0000
0000
0010
0000
0010
1000
0000
0000
,
0200
0000
0000
0001
0000
0000
1300
0000
0000
1001
0000
0001
,
0020
1000
0001
1000
,
0230
0001
1000
0001
,
2300
0100
0001
0100
,
3002
0000
0000
0100
0000
0000
1000
0000
0000
0103
0000
0100
,
0020
0001
0230
1000
,
0302
0010
2003
0100
,
3002
0000
0103
0000
0000
1000
0100
0000
0000
1001
0000
0000
,
2000
0000
3100
0000
0000
0001
0100
0000
0000
1001
0000
1000
,
0001
0010
0100
0001
0000
0100
1000
0100
0010
1000
0000
0010
,
0001
0100
0001
1000
0000
0001
1000
0100
0010
0001
0100
1000
,
0100
0001
0010
0100
0000
1000
0010
0100
0001
0010
0000
0001
,
1000
0100
1000
0001
0100
0001
1000
0100
0010
0001
0100
0010
,
1000
0010
0001
0010
0000
0010
1000
0100
0001
0100
0000
0100
,
1000
0010
0100
1000
0100
0010
0001
0010
0100
0001
0010
0100
,
2000
0000
0000
3001
0100
0010
2000
0000
0000
3001
0010
0100
,
1000
0000
0010
0001
0000
0100
2000
0000
0000
0010
0000
3010
;

//---------------dance-single - ----------------
#NOTEDATA:;
#CHARTNAME:;
#STEPSTYPE:dance-single;
#DESCRIPTION:;
#CHARTSTYLE:;
#DIFFICULTY:Challenge;
#METER:10;
#RADARVALUES:0.367712,0.473516,0.080943,0.283300,0.449233,318.000000,308.000000,10.000000,35.000000,132.000000,0.000000,0.000000,0.000000,0.000000,0.367712,0.473516,0.080943,0.283300,0.449233,318.000000,308.000000,10.000000,35.000000,132.000000,0.000000,0.000000,0.000000,0.000000;
#CREDIT:;
#NOTES:
0000
0000
0000
0000
,
0000
0000
0000
0000
,
0000
0000
0000
0000
,
0000
0000
0000
0000
,
MMMM
0010
MMMM
0100
,
MMMM
0010
MMMM
0100
,
MMMM
0001
MMMM
1000
,
MMMM
0001
MMMM
1000
,
MMMM
MMMM
MMMM
MMMM
,
0001
0000
0001
0100
0000
0000
1000
0000
1000
0100
0000
0000
,
0002
0000
0000
0013
0000
0100
1000
0000
0000
MMMM
0000
0000
,
0001
0000
0010
0100
0000
0000
1000
0000
0010
0100
0000
0000
,
0002
0000
0000
1003
0000
0100
0010
0000
0000
MMMM
0000
0000
,
0001
0000
1000
0100
0000
0000
1000
0000
0001
0100
0000
0000
,
0002
0000
0000
0013
0000
0100
1000
0000
0000
MMMM
0000
0000
,
1000
0000
1000
0010
0000
0000
0001
0000
0001
0010
0000
0000
,
0200
0001
1300
MMMM
,
1001
0000
0000
MMMM
0000
0100
1000
0000
0100
0000
0000
0001
,
0000
0000
0001
0000
0000
1000
0100
0000
0010
0001
0000
0000
,
0110
0000
0000
MMMM
0000
0100
0001
0000
0100
0000
0000
1000
,
0000
0000
1000
0000
0000
0001
0100
0000
0010
1000
0000
0000
,
0101
0000
0000
MMMM
0000
0010
1000
0000
0010
0000
0000
0001
,
0000
0000
0001
0010
0000
0100
1000
0000
0010
0001
0000
0000
,
1001
0000
0000
MMMM
0000
0010
0100
0000
0100
0000
0000
0011
,
0000
0000
1100
0000
0000
0001
0100
0000
0100
0020
0000
0000
,
0230
1000
0001
1000
,
0320
0001
1000
0001
,
2030
0100
0001
0100
,
3002
0100
1003
MMMM
,
0020
1000
0230
0001
,
0320
0001
0230
1000
,
0302
0000
0013
0000
0000
1000
0010
0000
0000
1001
0000
0000
,
0002
0000
0103
0000
0000
1000
0100
0000
0000
1001
0000
0001
,
1000
0000
1000
0100
0000
1000
0001
0000
0001
0100
0000
0001
,
1000
0000
0010
0100
0000
0010
1000
0000
0100
0010
0000
0100
,
1000
0000
0001
0010
0000
0001
1000
0000
0010
0100
0000
0010
,
1000
0000
1000
0100
0000
0100
0010
0000
0000
MMMM
0000
0000
,
0001
0000
0001
0010
0000
0001
0100
0000
0100
0010
0000
0100
,
0001
0000
0001
1000
0000
1000
0010
0000
0010
0100
0000
0100
,
0002
0000
0000
1003
0100
0010
0002
0000
0000
1003
0010
0100
,
0001
0000
0010
0100
0000
1000
0002
0000
0000
0103
0000
0000
,
MMMM
MMMM
MMMM
MMMM
,
0002
0000
0000
1003
0000
0010
0100
0000
0000
MMMM
0000
0000
,
0001
0000
0001
0100
0000
0000
1000
0000
1000
0100
0000
0000
,
2000
0000
0000
3010
0000
0100
0001
0000
0000
MMMM
0000
0000
,
0010
0000
0010
0001
0000
0000
0100
0000
0100
1000
0000
0000
,
0020
0000
0000
0130
0000
0001
0010
0000
0000
MMMM
0000
0000
,
0010
0000
0010
1000
0000
0000
0100
0000
0100
0001
0000
0000
,
0020
1000
0031
MMMM
,
2000
0010
0001
0010
,
3002
0010
1000
0010
,
0203
1000
0001
1000
,
0320
0001
1030
MMMM
,
0002
0010
2003
0100
,
3020
0001
0230
1000
,
0302
0000
0103
0000
0000
1000
0100
0000
0000
1001
0000
0000
,
2000
0000
3100
0000
0000
0001
0100
0000
0000
1001
0000
0001
,
1000
0000
1000
0010
0000
0100
0001
0000
0001
0010
0000
0100
,
1000
0000
0001
0100
0000
0010
1000
0000
0100
0010
0000
0001
,
1000
0000
1000
0010
0000
1000
0001
0000
0001
0010
0000
0001
,
1000
0000
0100
0010
0000
0001
0100
0000
0000
MMMM
0000
0000
,
0001
0010
0001
0010
0000
0000
1000
0010
1000
0010
0000
0000
,
0001
0000
0001
0100
0000
0100
0010
0000
0010
1000
0000
1000
,
0200
0000
0000
1300
0001
0010
0200
0000
0000
1300
0001
0100
,
0010
0000
1000
0100
0000
0010
0002
0000
0000
1003
0000
0001
,
MMMM
0000
0000
0000
;

//---------------dance-single - ----------------
#NOTEDATA:;
#CHARTNAME:;
#STEPSTYPE:dance-single;
#DESCRIPTION:;
#CHARTSTYLE:;
#DIFFICULTY:Medium;
#METER:9;
#RADARVALUES:0.396620,0.445489,0.259017,0.307583,0.323771,343.000000,311.000000,32.000000,38.000000,0.000000,0.000000,0.000000,0.000000,0.000000,0.396620,0.445489,0.259017,0.307583,0.323771,343.000000,311.000000,32.000000,38.000000,0.000000,0.000000,0.000000,0.000000,0.000000;
#CREDIT:;
#NOTES:
0000
0000
0000
0000
,
0000
0000
0000
0000
,
0000
0000
0000
0000
,
0000
0000
0000
0000
,
2000
3010
0002
0013
,
2000
0010
0000
3010
,
0002
0103
2000
3100
,
0002
0100
0000
0200
,
0000
0000
0000
0303
,
1000
1010
0001
0011
,
2000
0000
0000
3100
0000
0010
0001
0000
0000
1001
0000
0000
,
1000
0110
0001
0110
,
2000
0000
0000
3001
0000
0010
0100
0000
0000
0110
0000
0000
,
1000
0011
0001
1010
,
2000
0000
0000
3100
0000
0010
0001
0000
0000
1001
0000
0000
,
0001
0101
1000
1100
,
0020
1000
0031
1001
,
1000
0000
0000
1100
0000
0000
0001
0000
0001
0100
0000
0000
,
0010
0000
0010
1000
0000
1000
0100
0000
0100
0010
0000
0000
,
0001
0000
0000
0101
0000
0000
1000
0000
1000
0100
0000
0000
,
0010
0000
0010
0001
0000
0001
0100
0000
0100
0010
0000
0000
,
1000
0101
0010
0101
,
1000
0000
1000
0100
0000
0100
0010
0000
0010
0001
0000
0000
,
0001
1100
0010
1100
,
0001
0000
0001
0100
0000
0100
0010
0000
0010
1000
0000
0000
,
0002
0010
0100
0013
,
2000
0010
0100
3010
,
0002
0100
0010
0103
,
2000
0100
0010
3100
,
0002
0013
2000
3010
,
0002
0103
2000
3100
,
1000
0000
0100
0000
0000
1000
0100
0000
0000
1001
0000
0000
,
0001
0000
0010
0000
0000
0001
0010
0000
0000
1001
0000
0000
,
1000
0000
1000
0010
0000
0010
0100
0000
0100
0001
0000
0001
,
0010
0000
0010
0100
0000
0100
1000
0000
1000
0010
0000
0000
,
0001
0000
0001
0100
0000
0100
0010
0000
0010
1000
0000
1000
,
0100
0000
0100
0010
0000
0010
0001
0000
0001
1000
0000
0000
,
0001
0000
0001
0100
0000
0100
0010
0000
0010
0100
0000
0100
,
0001
0000
0001
0010
0000
0010
0100
0000
0100
1000
0000
1000
,
0020
0000
0000
1030
0000
0001
0020
0000
0000
0031
0000
1000
,
0010
0000
0010
0100
0000
0100
0020
0000
0000
1030
0000
0000
,
0200
0000
0000
0300
,
2000
0000
0000
3001
0000
0100
0010
0000
0000
0110
0000
0000
,
1000
1010
0001
0011
,
0002
0000
0000
0103
0000
0010
1000
0000
0000
1001
0000
0000
,
0100
1100
0010
0011
,
0200
0000
0000
0310
0000
1000
0100
0000
0000
0011
0000
0000
,
0100
0101
0010
1010
,
0200
0001
1300
1001
,
2000
0001
0010
3100
,
0002
1000
0100
0013
,
2000
0010
0001
3100
,
0002
0100
1000
0013
,
2000
3100
0002
0013
,
2000
3010
0002
0103
,
1000
0000
0100
0000
0000
1000
0100
0000
0000
1001
0000
0000
,
0001
0000
0100
0000
0000
0001
0100
0000
0000
1001
0000
0000
,
1000
0000
0100
0010
0000
0100
1000
0000
0010
0100
0000
0010
,
1000
0000
1000
0100
0000
0100
0010
0000
0010
0100
0000
0000
,
0001
0000
0100
0010
0000
0100
0001
0000
0010
0100
0000
0010
,
0001
0000
0001
0100
0000
0100
0010
0000
0010
1000
0000
0000
,
0001
0000
0010
0100
0000
0010
0001
0000
1000
0100
0000
1000
,
0010
0000
0010
0100
0000
0100
0001
0000
0001
0010
0000
0010
,
0200
0000
0000
1300
0000
0001
0200
0000
0000
0301
0000
1000
,
0100
0000
0010
0001
0000
0010
0200
0000
0000
0310
0000
0000
;

//---------------dance-single - ----------------
#NOTEDATA:;
#CHARTNAME:;
#STEPSTYPE:dance-single;
#DESCRIPTION:;
#CHARTSTYLE:;
#DIFFICULTY:Easy;
#METER:6;
#RADARVALUES:0.350367,0.393079,0.283300,0.307583,0.133556,303.000000,268.000000,35.000000,38.000000,0.000000,0.000000,0.000000,0.000000,0.000000,0.350367,0.393079,0.283300,0.307583,0.133556,303.000000,268.000000,35.000000,38.000000,0.000000,0.000000,0.000000,0.000000,0.000000;
#CREDIT:;
#NOTES:
0000
0000
0000
0000
,
0000
0000
0000
0000
,
0000
0000
0000
0000
,
0000
0000
0000
0000
,
2000
3010
0002
0013
,
2000
0010
0000
3010
,
0002
0103
2000
3100
,
0002
0100
0000
0200
,
0000
0000
0000
0303
,
1000
1010
0001
0011
,
2000
0001
3001
1001
,
1000
0011
0001
1010
,
0200
0010
0310
0110
,
1000
0110
0001
0110
,
0002
1000
1003
1001
,
0001
0101
1000
1100
,
0020
0100
0130
1001
,
1000
1100
0001
0101
,
0010
1000
0100
1000
,
0001
0101
1000
1100
,
0010
0001
0100
0010
,
1000
0101
0010
0101
,
1000
0100
0010
0001
,
0001
1100
0010
1100
,
0001
0100
0010
1000
,
0002
0010
0010
0013
,
2000
0100
0100
3100
,
0002
0010
0010
0013
,
2000
0100
0100
3100
,
0002
0013
2000
3010
,
0002
0103
2000
3100
,
1000
0100
1000
1001
,
0001
0010
0001
1001
,
1000
0000
1000
0010
0000
0000
0100
0000
0100
0001
0000
0000
,
0010
0000
0010
0100
0000
0000
0100
0000
0100
0010
0000
0000
,
0001
0000
0001
0100
0000
0000
0010
0000
0010
1000
0000
0000
,
0001
0000
0001
1000
0000
0000
1000
0000
1000
0001
0000
0000
,
0001
0000
0001
0100
0000
0000
0010
0000
0010
0100
0000
0000
,
0001
0000
0001
0010
0000
0000
0100
0000
0100
1000
0000
1000
,
0020
0000
0000
1030
0000
1000
0020
0000
0000
0130
0000
0100
,
0001
0000
0000
1001
0000
1000
0002
0000
0000
1003
0000
0000
,
0200
0000
0000
0300
,
2000
0001
3010
0110
,
1000
1010
0001
0011
,
0002
0100
1003
1001
,
0100
1100
0010
0011
,
0200
0010
0301
0011
,
0100
0101
0010
1010
,
0200
0001
1300
1001
,
2000
0010
0010
3010
,
0002
0010
0010
0013
,
2000
0100
0100
3100
,
0002
0100
0100
0103
,
2000
3100
0002
0013
,
2000
3010
0002
0103
,
1000
0100
0010
1001
,
0001
0010
0100
1001
,
1000
0000
1000
0001
0000
0000
0100
0000
0100
0010
0000
0000
,
1000
0000
1000
0100
0000
0000
0010
0000
0010
0001
0000
0000
,
0100
0000
0100
0010
0000
0000
0010
0000
0010
0100
0000
0000
,
0001
0000
0001
0100
0000
0000
0010
0000
0010
1000
0000
0000
,
0001
0000
0010
0001
0000
0000
1000
0000
0010
1000
0000
0000
,
0001
0000
0001
0100
0000
0000
0010
0000
0010
1000
0000
1000
,
0002
0000
0000
0103
0000
0100
0002
0000
0000
0013
0000
0010
,
0001
0000
0001
1000
0000
1000
0002
0000
0000
1003
0000
0000
;

//---------------dance-single - ----------------
#NOTEDATA:;
#CHARTNAME:;
#STEPSTYPE:dance-single;
#DESCRIPTION:;
#CHARTSTYLE:;
#DIFFICULTY:Beginner;
#METER:2;
#RADARVALUES:0.150322,0.183437,0.056660,0.145697,0.000000,130.000000,123.000000,7.000000,18.000000,0.000000,0.000000,0.000000,0.000000,0.000000,0.150322,0.183437,0.056660,0.145697,0.000000,130.000000,123.000000,7.000000,18.000000,0.000000,0.000000,0.000000,0.000000,0.000000;
#CREDIT:;
#NOTES:
// measure 0
0000
0000
0000
0000
,  // measure 1
0000
0000
0000
0000
,  // measure 2
0000
0000
0000
0000
,  // measure 3
0000
0000
0000
0000
,  // measure 4
0000
1000
0000
1000
,  // measure 5
0000
0001
0000
0001
,  // measure 6
0000
1000
0000
1000
,  // measure 7
0000
0001
0000
0001
,  // measure 8
0000
0000
0000
0000
,  // measure 9
0010
0000
0100
0000
,  // measure 10
0010
0000
0110
0000
,  // measure 11
1000
0000
0001
0000
,  // measure 12
1000
0000
1001
0000
,  // measure 13
0100
0000
0010
0000
,  // measure 14
0100
0000
0110
0000
,  // measure 15
0001
0000
1000
0000
,  // measure 16
0001
0000
1000
1000
,  // measure 17
1000
0000
0010
0000
,  // measure 18
0100
0100
0100
0000
,  // measure 19
0001
0000
0010
0000
,  // measure 20
0001
0001
0001
0000
,  // measure 21
0100
0000
0010
0000
,  // measure 22
0100
0100
0100
0000
,  // measure 23
0001
0000
1000
0000
,  // measure 24
0100
0100
0100
0000
,  // measure 25
0020
0000
0030
0000
,  // measure 26
0200
0000
0300
0000
,  // measure 27
0020
0000
0030
0000
,  // measure 28
0200
0000
0300
0000
,  // measure 29
2000
3000
1000
0000
,  // measure 30
0002
0003
0001
0000
,  // measure 31
0200
0300
0100
0000
,  // measure 32
0020
0030
0010
0010
,  // measure 33
0010
0000
0100
0000
,  // measure 34
0010
0000
1000
0000
,  // measure 35
0100
0000
0010
0000
,  // measure 36
0001
0000
0100
0000
,  // measure 37
0001
0000
0010
0000
,  // measure 38
0001
0000
0100
0000
,  // measure 39
0020
0030
0020
0030
,  // measure 40
0010
0010
0010
0000
,  // measure 41
0000
0000
0000
0000
,  // measure 42
1000
0000
1001
0000
,  // measure 43
0010
0000
0100
0000
,  // measure 44
1000
0000
1001
0000
,  // measure 45
0001
0000
0100
0000
,  // measure 46
0010
0000
0110
0000
,  // measure 47
1000
0000
0100
0000
,  // measure 48
0010
0000
0110
0000
,  // measure 49
0002
0000
0003
0000
,  // measure 50
2000
0000
3000
0000
,  // measure 51
0200
0000
0300
0000
,  // measure 52
0020
0000
0030
0000
,  // measure 53
0002
0003
0001
0000
,  // measure 54
2000
3000
1000
0000
,  // measure 55
0020
0030
0010
0000
,  // measure 56
0200
0300
0100
0100
,  // measure 57
0100
0000
1000
0000
,  // measure 58
0001
0001
0001
0000
,  // measure 59
1000
0000
0010
0000
,  // measure 60
0100
0100
0100
0000
,  // measure 61
0001
0000
0010
0000
,  // measure 62
1000
1000
1000
0000
,  // measure 63
0010
0000
0100
0000
,  // measure 64
0001
0001
0001
0001
;
