#TITLE:Ultimatum;
#SUBTITLE:;
#ARTIST:Rogue;
#TITLETRANSLIT:;
#SUBTITLETRANSLIT:;
#ARTISTTRANSLIT:;
#GENRE:;
#CREDIT:;
#BANNER:Ultimatum.png;
#BACKGROUND:Ultimatum-bg.png;
#LYRICSPATH:;
#CDTITLE:;
#MUSIC:Ultimatum.mp3;
#OFFSET:0.009000;
#SAMPLESTART:55.502998;
#SAMPLELENGTH:11.425000;
#SELECTABLE:YES;
#BPMS:0.000000=173.000000
,64.000000=86.500000
,96.000000=173.000000
,156.000000=86.500000
,158.000000=173.000000
,190.000000=86.500000
,192.000000=173.000000
;
#STOPS:
;
#BGCHANGES:;
#KEYSOUNDS:;
#ATTACKS:;

//---------------dance-single - ----------------
#NOTES:
     dance-single:
     Shortysnmn2010:
     Beginner:
     3:
     0.139346,0.221769,0.039976,0.167901,0.000000,122.000000,117.000000,5.000000,21.000000,13.000000,0.000000,0.139346,0.221769,0.039976,0.167901,0.000000,122.000000,117.000000,5.000000,21.000000,13.000000,0.000000:
// measure 0
0000
0000
0000
0000
,  // measure 1
0000
0000
0000
0000
,  // measure 2
0000
0000
0000
0000
,  // measure 3
0000
0000
0000
0000
,  // measure 4
0000
0000
0000
0000
,  // measure 5
0000
0000
0000
0000
,  // measure 6
0000
0000
0000
0000
,  // measure 7
0000
0000
0000
0000
,  // measure 8
1000
0000
0000
0001
,  // measure 9
0000
0001
0000
0000
,  // measure 10
1001
0000
0000
0000
,  // measure 11
0000
0100
0000
0100
,  // measure 12
0100
0000
0000
0010
,  // measure 13
0000
0010
0000
0000
,  // measure 14
0220
0000
0000
0000
,  // measure 15
0000
0330
0000
0000
,  // measure 16
1001
0000
0000
0010
,  // measure 17
0020
0000
0030
1000
,  // measure 18
2000
3000
0000
0001
,  // measure 19
0002
0000
0003
0000
,  // measure 20
0100
0000
0000
0010
,  // measure 21
0020
0000
0030
0100
,  // measure 22
0200
0300
0000
0001
,  // measure 23
0002
0000
0003
0000
,  // measure 24
0000
1000
0000
1000
,  // measure 25
0000
1000
0000
0000
,  // measure 26
0000
0010
0000
0100
,  // measure 27
0000
0010
0000
0000
,  // measure 28
0000
0100
0000
0100
,  // measure 29
0000
0100
0000
0000
,  // measure 30
0000
0001
0000
0100
,  // measure 31
0000
0001
0000
0000
,  // measure 32
1000
0000
0001
0000
,  // measure 33
1000
0000
1000
0000
,  // measure 34
0001
0000
1000
0000
,  // measure 35
0001
0000
0000
0000
,  // measure 36
0010
0000
0100
0000
,  // measure 37
0010
0000
0010
0000
,  // measure 38
0100
0000
0010
0000
,  // measure 39
0200
0300
0000
0001
,  // measure 40
0001
0002
M000
0003
,  // measure 41
0000
0000
0000
1000
,  // measure 42
1000
2000
000M
3000
,  // measure 43
0000
0000
0000
0010
,  // measure 44
0010
0020
0M00
0030
,  // measure 45
0000
0000
0100
0000
,  // measure 46
0100
0100
0000
0100
,  // measure 47
0100
0000
0020
0030
,  // measure 48
M00M
0000
0100
0000
0200
0000
0000
0300
,  // measure 49
0000
0001
0001
0002
,  // measure 50
M000
0003
0000
0000
,  // measure 51
0000
0010
0010
0020
,  // measure 52
0M00
0030
0000
0000
,  // measure 53
0100
0000
0100
0100
,  // measure 54
0000
0100
0100
0000
,  // measure 55
2000
0000
3000
0000
,  // measure 56
0000
0010
0000
0000
,  // measure 57
0200
0000
0300
0000
,  // measure 58
0000
0001
0000
0000
,  // measure 59
1000
0000
0001
0000
,  // measure 60
1000
0000
0001
0000
,  // measure 61
2000
0000
3000
0000
,  // measure 62
1001
0000
0000
0100
,  // measure 63
0000
0010
M000
0100
,  // measure 64
0000
0000
0000
0001
,  // measure 65
0000
1000
00M0
0001
,  // measure 66
0000
0000
0000
0100
,  // measure 67
0000
0001
M000
0100
,  // measure 68
0000
0000
0010
0000
,  // measure 69
0010
0010
0000
0010
,  // measure 70
0010
0000
0000
1000
,  // measure 71
0000
0001
0M00
1000
,  // measure 72
0000
0000
0000
0100
,  // measure 73
0000
0010
000M
0100
,  // measure 74
0000
0000
0000
1000
,  // measure 75
0000
0010
0M00
1000
,  // measure 76
0000
0000
0001
0000
,  // measure 77
0001
0001
0000
1000
,  // measure 78
1000
0000
2002
0000
,  // measure 79
0000
3003
0000
0000
;

//---------------dance-single - ----------------
#NOTES:
     dance-single:
     Shortysnmn2010:
     Easy:
     4:
     0.205593,0.254250,0.119929,0.175896,0.000000,180.000000,165.000000,15.000000,22.000000,26.000000,0.000000,0.205593,0.254250,0.119929,0.175896,0.000000,180.000000,165.000000,15.000000,22.000000,26.000000,0.000000:
// measure 0
0000
0000
0000
0000
,  // measure 1
0000
0000
0000
0000
,  // measure 2
0000
0000
0000
0000
,  // measure 3
0000
0000
0000
0000
,  // measure 4
0000
0000
0000
0000
,  // measure 5
0000
0000
0000
0000
,  // measure 6
0000
0000
0000
0000
,  // measure 7
0000
0000
0000
0000
,  // measure 8
1000
0000
0000
0010
,  // measure 9
0000
0100
0000
0000
,  // measure 10
2002
0000
3000
0000
,  // measure 11
0000
0010
0000
0010
,  // measure 12
0013
0000
0000
0100
,  // measure 13
0000
1000
0000
0000
,  // measure 14
2002
0000
0000
0000
,  // measure 15
0000
0000
3003
0000
,  // measure 16
1000
0000
0000
0001
0000
0000
1000
0000
,  // measure 17
0020
0000
0000
0030
0000
0100
0000
0000
,  // measure 18
0001
0000
0000
1000
0000
0000
0000
0000
,  // measure 19
2000
0000
0000
3000
0000
0100
0000
0000
,  // measure 20
0010
0000
0000
0100
0000
0000
0010
0000
,  // measure 21
0002
0000
0000
0003
0000
1000
0000
0000
,  // measure 22
0100
0000
0000
1000
0000
0000
0000
0000
,  // measure 23
0020
0000
0000
0030
0000
0100
0000
0000
,  // measure 24
0001
1000
0000
0100
,  // measure 25
0000
1000
1000
0000
,  // measure 26
0000
0010
0000
0100
,  // measure 27
0000
0010
0010
0000
,  // measure 28
0000
1000
0000
0100
,  // measure 29
0000
1000
1000
0000
,  // measure 30
0000
0001
0000
0010
,  // measure 31
0000
0001
0001
0000
,  // measure 32
1000
0100
1000
0000
,  // measure 33
0100
1000
0100
0000
,  // measure 34
1000
0100
1000
0000
,  // measure 35
0100
0010
0100
0000
,  // measure 36
0010
0001
0010
0000
,  // measure 37
0001
0010
0001
0000
,  // measure 38
0010
0100
0010
0000
,  // measure 39
0200
0300
1000
0001
,  // measure 40
0010
0001
0MM0
1000
,  // measure 41
0001
0000
0000
0100
,  // measure 42
0001
1000
0MM0
0001
,  // measure 43
0010
0000
0000
0100
,  // measure 44
1000
0010
M00M
0100
,  // measure 45
0010
0000
2000
3000
,  // measure 46
0001
0002
0003
1000
,  // measure 47
2000
3000
0001
0000
,  // measure 48
MMMM
0100
1000
0000
,  // measure 49
0000
0001
0100
0010
,  // measure 50
M00M
0100
0010
0000
,  // measure 51
0000
0100
0001
0010
,  // measure 52
MM00
0001
1000
0000
,  // measure 53
0200
0300
0010
0020
,  // measure 54
0030
0100
0200
0300
,  // measure 55
0010
0001
0010
0000
,  // measure 56
0100
0010
0100
0000
,  // measure 57
1000
0100
1000
0000
,  // measure 58
0001
0100
0001
0000
,  // measure 59
1000
0010
1000
0000
,  // measure 60
0001
0010
0001
0000
,  // measure 61
1000
0100
1000
0000
,  // measure 62
1001
0000
0010
0010
,  // measure 63
0000
0110
M00M
0110
,  // measure 64
0000
0001
0000
0100
,  // measure 65
0000
0110
M00M
0110
,  // measure 66
0000
0010
0000
1000
,  // measure 67
0000
1001
0MM0
1001
,  // measure 68
0000
0001
0002
0003
,  // measure 69
1000
2000
3000
0001
,  // measure 70
0002
0003
1000
1000
,  // measure 71
0000
1001
0MM0
1001
,  // measure 72
0000
0001
0000
0010
,  // measure 73
0000
0110
M00M
0110
,  // measure 74
0000
0100
0000
1000
,  // measure 75
0000
1010
0M0M
1010
,  // measure 76
0000
1000
2000
3000
,  // measure 77
0001
0002
0003
0010
,  // measure 78
0020
0030
0200
0000
,  // measure 79
0000
0000
0300
0000
;

//---------------dance-single - ----------------
#NOTES:
     dance-single:
     Shortysnmn2010:
     Hard:
     9:
     0.384915,0.548775,0.343796,0.239858,0.011993,337.000000,294.000000,43.000000,30.000000,36.000000,0.000000,0.384915,0.548775,0.343796,0.239858,0.011993,337.000000,294.000000,43.000000,30.000000,36.000000,0.000000:
// measure 0
0000
0000
0000
0000
,  // measure 1
0000
0000
0000
0000
,  // measure 2
0000
0000
0000
0000
,  // measure 3
0000
0000
0000
0000
,  // measure 4
0000
0000
0000
0000
,  // measure 5
0000
0000
0000
0000
,  // measure 6
0000
0000
0000
0000
,  // measure 7
0000
0000
0000
0000
,  // measure 8
1001
0000
0000
0101
,  // measure 9
0000
0110
0000
0000
,  // measure 10
2000
0000
0000
0000
,  // measure 11
0000
0100
0000
3100
,  // measure 12
1001
0000
0000
0011
,  // measure 13
0000
1100
0000
0000
,  // measure 14
0220
0000
0000
0000
,  // measure 15
0000
0000
0330
0000
,  // measure 16
0001
0000
0000
1000
0000
0010
0100
0010
,  // measure 17
2000
0000
0000
0000
0000
0000
0000
0000
3000
0000
0110
0000
0000
0110
0000
0000
,  // measure 18
0002
0000
0003
0100
0000
0100
0010
0100
,  // measure 19
0002
0000
0000
0000
0000
0000
0000
0000
0003
0000
1100
0000
0000
1100
0000
0000
,  // measure 20
0010
0000
0000
0001
0000
0100
0001
0100
,  // measure 21
0020
0000
0000
0000
0000
0000
0000
0000
0030
0000
1001
0000
0000
1001
0000
0000
,  // measure 22
0010
0000
0000
0100
0000
0010
0100
1000
,  // measure 23
0020
0000
0030
0000
,  // measure 24
0100
0000
0001
0100
0001
0100
0001
0000
,  // measure 25
0000
0000
1000
0000
0100
0010
0100
1000
,  // measure 26
0000
0000
0010
0100
0010
0100
0010
0000
,  // measure 27
0000
0000
0100
0000
0001
0010
0100
0010
,  // measure 28
0000
0000
0100
1000
0100
1000
0100
0000
,  // measure 29
0000
0000
1000
0000
0001
0100
1000
0100
,  // measure 30
0000
0000
0001
1000
0001
1000
0001
0000
,  // measure 31
0000
0000
0010
0000
0100
0010
0001
0010
,  // measure 32
0100
1000
0001
0100
,  // measure 33
1000
0100
0001
1000
,  // measure 34
0010
0100
0010
1000
,  // measure 35
0001
0010
1000
0010
,  // measure 36
0001
1000
0100
1000
0001
1000
0100
1000
,  // measure 37
0001
0100
0010
0100
0001
0100
0010
0100
,  // measure 38
0002
1000
0010
0103
,  // measure 39
1001
0000
0000
0000
1000
0000
0001
0010
,  // measure 40
0001
0010
0200
0000
M3MM
0000
1000
0000
,  // measure 41
0001
0100
0010
0100
0000
0000
0001
0010
,  // measure 42
0100
0010
2000
0000
3MMM
0000
0010
0000
,  // measure 43
0100
1000
0010
1000
0000
0000
0001
1000
,  // measure 44
0100
1000
0002
0000
MMM3
0000
1000
0000
,  // measure 45
0010
0100
0001
1000
0001
0000
0000
0100
,  // measure 46
0001
0000
1000
0000
0000
0100
1000
0000
,  // measure 47
0001
0000
0000
0000
0100
0010
1001
0200
,  // measure 48
M3MM
0000
0010
0000
1000
0100
1000
0001
,  // measure 49
0000
0000
0010
0100
1000
0100
0020
0000
,  // measure 50
MM3M
0000
0100
0000
1000
0010
0100
0010
,  // measure 51
0000
0000
1000
0001
0100
0010
0200
0000
,  // measure 52
M3MM
0000
0001
0000
1000
0100
0001
0100
,  // measure 53
1000
0000
0000
1000
0010
0000
1010
0000
,  // measure 54
0000
0010
1000
0000
1010
0000
0001
0000
,  // measure 55
2000
0001
0100
0001
,  // measure 56
0100
3002
0010
1000
,  // measure 57
0203
0010
0001
0010
,  // measure 58
0001
0320
0001
0100
,  // measure 59
1030
0001
0100
0001
1000
0001
0100
0001
,  // measure 60
1000
0100
0010
0100
1000
0100
0010
0100
,  // measure 61
2000
0010
0001
3100
,  // measure 62
1001
0000
0000
0000
,  // measure 63
0100
0000
1001
0000
0001
0100
0020
0000
,  // measure 64
MM3M
0000
1000
0000
0000
0011
0011
0000
,  // measure 65
0100
0000
1100
0000
1000
0010
0200
0000
,  // measure 66
M3MM
0000
0010
0000
0000
1100
1100
0000
,  // measure 67
0001
0000
0110
0000
0010
0001
2000
0000
,  // measure 68
3MMM
0000
0010
0000
0000
0101
0101
0000
,  // measure 69
1001
0000
0000
0001
1000
0000
1001
0000
,  // measure 70
0000
1000
0001
0000
1001
0000
0100
0000
,  // measure 71
1000
0000
1100
0000
1000
0100
0002
0000
,  // measure 72
MMM3
0000
0100
0000
0000
0110
0120
0000
,  // measure 73
0031
0000
1001
0000
1000
0100
0002
0000
,  // measure 74
MMM3
0000
0100
0000
0000
1100
2100
0000
,  // measure 75
3010
0000
0110
0000
0100
0001
2000
0000
,  // measure 76
3MMM
0000
0100
0000
0000
1001
1001
0000
,  // measure 77
0110
0000
0000
0010
0100
0000
0110
0000
,  // measure 78
0000
0100
0010
0000
0110
0000
0000
0000
,  // measure 79
2002
0000
0000
0000
,  // measure 80
0000
0000
0000
3003
;

//---------------dance-single - ----------------
#NOTES:
     dance-single:
     Shortysnmn2010:
     Challenge:
     13:
     0.500275,0.710180,0.559669,0.335801,0.167901,438.000000,368.000000,70.000000,42.000000,48.000000,0.000000,0.500275,0.710180,0.559669,0.335801,0.167901,438.000000,368.000000,70.000000,42.000000,48.000000,0.000000:
// measure 0
0000
0000
0000
0000
,  // measure 1
0000
0000
0000
0000
,  // measure 2
0000
0000
0000
0000
,  // measure 3
0000
0000
0000
0000
,  // measure 4
0000
0000
0000
0000
,  // measure 5
0000
0000
0000
0000
,  // measure 6
0000
0000
0000
0000
,  // measure 7
0000
0000
0000
0000
,  // measure 8
0220
0330
0000
0101
,  // measure 9
0000
1001
0000
0000
,  // measure 10
2200
0000
3300
0000
,  // measure 11
0000
0110
0000
0010
,  // measure 12
2002
3003
0000
0101
,  // measure 13
0000
0110
0000
0000
,  // measure 14
2002
0000
0000
3003
0000
0001
0000
1000
,  // measure 15
0000
0000
1001
0000
0000
1000
0000
0001
,  // measure 16
1000
0000
0000
0000
0000
0000
1100
0000
0000
0000
1000
0000
0010
0100
0001
0100
,  // measure 17
0020
0000
0000
0000
0000
0000
0000
0000
0030
0000
2010
0000
0000
0001
0000
0000
,  // measure 18
0200
0000
3300
0011
0000
0110
0010
1001
,  // measure 19
2020
0000
0000
0000
0000
0000
0000
0000
3030
0000
0102
0000
0000
1000
0000
0000
,  // measure 20
0013
0000
0100
0000
0010
0000
0100
0000
1000
0000
0010
0000
0100
0010
0100
0010
,  // measure 21
0200
0000
0001
0000
0010
0000
0001
0000
0310
0000
2010
0000
0000
0100
0000
0000
,  // measure 22
3002
0010
0013
0200
1300
0200
0310
0011
,  // measure 23
2002
0000
0000
0000
3003
0110
0000
0000
,  // measure 24
1001
0000
0100
1000
0010
1000
0100
0000
,  // measure 25
0000
0000
0110
0000
0010
0001
1000
0010
,  // measure 26
0000
0000
0100
0001
0010
0001
0100
0000
,  // measure 27
0000
0000
0110
0000
0010
1000
0001
0010
,  // measure 28
0000
0000
0001
0100
1000
0100
0001
0000
,  // measure 29
0000
0000
1001
0000
1000
0100
0010
0100
,  // measure 30
0000
0000
1000
0010
0001
0010
1000
0000
,  // measure 31
0000
0000
0000
0000
0001
0000
0010
0001
0010
0000
0001
0000
1000
0000
0100
0000
,  // measure 32
0010
0000
0100
0000
0010
0000
0000
0000
0100
0000
1000
0100
1000
0001
0010
0001
,  // measure 33
0010
0000
0100
0000
0010
0000
0000
0000
0001
0000
0100
0001
0100
0010
1000
0010
,  // measure 34
1000
0000
0100
0000
1000
0000
0000
0000
0001
0000
0010
0001
0010
0100
1000
0100
,  // measure 35
1000
0000
0010
0000
1000
0000
0000
0000
0001
0000
1000
0100
1000
0001
0100
0001
,  // measure 36
0100
0001
0010
0001
0100
0001
0010
1000
,  // measure 37
0010
0001
0100
0010
0100
0001
0010
0100
,  // measure 38
4000
0004
0000
0000
0000
0000
0000
0000
0000
0000
0000
0000
0000
0000
0000
3003
,  // measure 39
1001
0000
0000
0000
0000
0000
1000
0100
1000
0000
0001
0000
0100
0010
0100
0010
0100
0000
0000
0000
0000
0000
0000
0000
0001
0000
0000
0000
0010
0000
0000
0000
,  // measure 40
0100
1000
1001
0000
MMMM
0000
0110
0000
,  // measure 41
1000
0001
0010
0100
1100
0000
0010
0001
,  // measure 42
0100
0010
0110
0000
MMMM
0000
1010
0000
,  // measure 43
0100
0001
1000
0010
0001
0000
0010
0100
,  // measure 44
0010
0100
0101
0000
MMMM
0000
1100
0000
,  // measure 45
1000
0010
0001
0010
0110
0000
0000
0200
,  // measure 46
0001
0000
0301
0000
0000
0002
0010
0000
,  // measure 47
0013
0000
0000
0000
0110
0000
0000
0000
1000
0001
1000
0001
0010
0100
0010
0000
,  // measure 48
MMMM
0000
1100
0000
0010
0001
1000
0001
,  // measure 49
0101
0000
0010
1000
0100
1000
1010
0000
,  // measure 50
MMMM
0000
0101
0000
0010
1000
0001
1000
,  // measure 51
0100
0000
0010
0100
0010
0100
1100
0000
,  // measure 52
MMMM
0000
0110
0000
0001
0100
0010
0100
,  // measure 53
0101
0000
0000
0002
1000
0000
1003
0000
,  // measure 54
0000
2000
0100
0000
3100
0000
0110
0000
,  // measure 55
0012
1000
0013
0021
,  // measure 56
0130
0120
0001
0130
,  // measure 57
2100
0001
0010
0001
,  // measure 58
3010
0000
1020
0000
0130
0001
1000
0000
,  // measure 59
0001
0010
0001
0010
1000
0010
1000
0010
,  // measure 60
0001
0100
0001
0100
1000
0100
1000
0100
,  // measure 61
0040
0400
0000
0000
0000
0000
0000
0000
0000
0000
0000
0000
0000
0000
0000
0330
,  // measure 62
0110
0000
0000
0000
0000
0000
1000
0100
1000
0000
0001
0000
0100
0010
0100
0010
,  // measure 63
1000
0000
1002
0000
0000
0010
0013
0000
,  // measure 64
MMMM
0000
0101
0000
0000
1010
1001
0000
,  // measure 65
0010
0000
2100
0000
0000
0010
3010
0000
,  // measure 66
MMMM
0000
0011
0000
0000
1100
0110
0000
,  // measure 67
0001
0000
0102
0000
0000
1000
1003
0000
,  // measure 68
MMMM
0000
0000
0000
1000
0001
1000
0001
0100
0001
0100
0001
1000
0000
0000
0000
,  // measure 69
1100
0000
0000
0020
0001
0000
0031
0000
,  // measure 70
0000
0002
0100
0000
0103
0000
0110
0000
,  // measure 71
1000
0001
2000
0000
0000
0100
3100
0000
,  // measure 72
MMMM
0000
0110
0000
0000
0011
1001
0000
,  // measure 73
0001
0000
0201
0000
0000
0010
0310
0000
,  // measure 74
MMMM
0000
0101
0000
0000
1010
0110
0000
,  // measure 75
0001
0000
0012
0000
0000
1000
1003
0000
,  // measure 76
MMMM
0000
0000
0000
0001
1000
0001
1000
0100
1000
0100
1000
0001
0000
0000
0000
,  // measure 77
0011
0000
0000
0200
1000
0000
1300
0000
,  // measure 78
0000
2000
0010
0000
3010
0000
0000
0000
,  // measure 79
2002
0000
0000
0000
,  // measure 80
0000
0000
0000
3003
;

//---------------dance-single - ----------------
#NOTES:
     dance-single:
     Shortysnmn2010:
     Medium:
     8:
     0.324379,0.419652,0.191886,0.159905,0.011993,284.000000,260.000000,24.000000,20.000000,36.000000,0.000000,0.324379,0.419652,0.191886,0.159905,0.011993,284.000000,260.000000,24.000000,20.000000,36.000000,0.000000:
// measure 0
0000
0000
0000
0000
,  // measure 1
0000
0000
0000
0000
,  // measure 2
0000
0000
0000
0000
,  // measure 3
0000
0000
0000
0000
,  // measure 4
0000
0000
0000
0000
,  // measure 5
0000
0000
0000
0000
,  // measure 6
0000
0000
0000
0000
,  // measure 7
0000
0000
0000
0000
,  // measure 8
1001
0000
0000
0001
,  // measure 9
0000
0010
0000
0000
,  // measure 10
2200
0000
0300
0000
,  // measure 11
0000
0010
0000
3100
,  // measure 12
1001
0000
0000
0110
,  // measure 13
0000
0110
0000
0000
,  // measure 14
2002
0000
0000
0000
,  // measure 15
0000
0000
3003
0000
,  // measure 16
1000
0000
0000
0001
0000
0010
0100
0010
,  // measure 17
0200
0000
0000
0000
0000
0000
0000
0000
0300
0000
1000
0000
0000
1000
0000
0000
,  // measure 18
0020
0000
0030
0100
0000
0002
0003
0010
,  // measure 19
2002
0000
0000
0000
0000
0000
0000
0000
3003
0000
0100
0000
0000
0100
0000
0000
,  // measure 20
0200
0000
0300
1000
0000
0010
0100
0010
,  // measure 21
0200
0000
0000
0000
0000
0000
0000
0000
0300
0000
0001
0000
0000
0001
0000
0000
,  // measure 22
0020
0000
0030
0100
0000
0020
0030
0001
,  // measure 23
0220
0000
0000
0000
0330
1001
0000
0000
,  // measure 24
0001
0100
0010
1000
,  // measure 25
0000
0000
1100
0000
1000
0001
1000
0001
,  // measure 26
0000
0100
0001
0010
,  // measure 27
0000
0000
0011
0000
0001
1000
0001
1000
,  // measure 28
0000
0100
1000
0010
,  // measure 29
0000
0000
0110
0000
0100
0001
0100
0001
,  // measure 30
0000
1000
0100
0010
,  // measure 31
0000
0000
0011
0000
0010
0100
0010
0100
,  // measure 32
1000
0010
0001
0010
,  // measure 33
1000
0000
0100
0000
0010
0100
0010
0100
,  // measure 34
1000
0100
0001
0100
,  // measure 35
0010
0000
0001
0000
0100
0001
0100
0001
,  // measure 36
1000
0010
0100
1000
,  // measure 37
0100
0000
0001
0000
0010
0100
0010
0100
,  // measure 38
1000
0001
0100
0010
,  // measure 39
0110
0000
1000
0001
,  // measure 40
0100
0010
MM0M
0010
,  // measure 41
0100
0001
0100
0001
0010
0000
0100
0000
,  // measure 42
1000
0001
MMM0
0001
,  // measure 43
0100
0010
0100
0010
1000
0000
0001
0000
,  // measure 44
0010
0100
M0MM
0100
,  // measure 45
1000
0001
1000
0001
0100
0000
0000
0100
,  // measure 46
0001
0000
0001
0000
0000
0001
0100
0000
,  // measure 47
0100
0000
0010
0000
2000
0100
3100
0010
,  // measure 48
MM0M
0000
0010
0000
0100
0010
0100
0010
,  // measure 49
0001
0100
1000
0100
,  // measure 50
M0MM
0000
0100
0000
0001
1000
0001
1000
,  // measure 51
0100
0010
0100
1000
,  // measure 52
0MMM
0000
1000
0000
0010
0100
0010
0100
,  // measure 53
0001
0000
0000
0001
1000
0000
1000
0000
,  // measure 54
0000
1000
0001
0000
0001
0000
0010
0000
,  // measure 55
1100
0010
0001
1010
,  // measure 56
0100
1001
0001
0100
,  // measure 57
0110
1000
0001
0100
,  // measure 58
0010
0000
1001
0000
0000
0101
0000
0000
,  // measure 59
0010
1000
0100
0010
,  // measure 60
0001
0100
0010
1000
,  // measure 61
2002
0000
0000
3003
,  // measure 62
0110
0000
0000
0000
,  // measure 63
0100
0000
1001
0000
0000
0100
1000
0000
,  // measure 64
0MMM
0000
0001
0000
0000
0100
0001
0000
,  // measure 65
1000
0000
0010
0000
0000
1000
0001
0000
,  // measure 66
MMM0
0000
1000
0000
0000
0100
0010
0000
,  // measure 67
0001
0000
0100
0000
0000
0001
0100
0000
,  // measure 68
M0MM
0000
0010
0000
0000
1000
0010
0000
,  // measure 69
0100
0000
0000
0001
0010
0000
0010
0000
,  // measure 70
0000
0001
0010
0000
0010
0000
0100
0000
,  // measure 71
1000
0000
0010
0000
0000
1000
0100
0000
,  // measure 72
M0MM
0000
0010
0000
0000
0001
0010
0000
,  // measure 73
0001
0000
0100
0000
0000
0010
0100
0000
,  // measure 74
M0MM
0000
0010
0000
0000
1000
0001
0000
,  // measure 75
0100
0000
0010
0000
0000
0100
0001
0000
,  // measure 76
MMM0
0000
1000
0000
0000
0100
0010
0000
,  // measure 77
0100
0000
0000
1000
0100
0000
0100
0000
,  // measure 78
0000
1000
0100
0000
0100
0000
0000
0000
,  // measure 79
0220
0000
0000
0000
,  // measure 80
0000
0000
0000
0330
;
