#TITLE:UNO;
#SUBTITLE:;
#ARTIST:Little Big;
#TITLETRANSLIT:;
#SUBTITLETRANSLIT:;
#ARTISTTRANSLIT:;
#CREDIT:;
#BANNER:;
#BACKGROUND:;
#LYRICSPATH:;
#CDTITLE:;
#MUSIC:UNO.mp3;
#OFFSET:-9.100;
#SAMPLESTART:36.140;
#SAMPLELENGTH:13.520;
#SELECTABLE:YES;
#BPMS:0.000=142.000;
#STOPS:;
#BGCHANGES:;

//---------------dance-single - ----------------
#NOTES:
     dance-single:
     :
     Hard:
     11:
     0.556,0.516,0.432,0.339,0.119: // measure 1
2002
0000
0000
0000
3003
0000
0001
1000
,  // measure 2
0100
0000
0100
0010
0002
0000
0103
0000
,  // measure 3
2002
0000
0000
0000
3003
0000
0001
0100
,  // measure 4
0010
0000
0010
1000
0200
0000
0320
0000
,  // measure 5
0032
0000
0000
0000
0000
0000
1003
0100
,  // measure 6
1000
0000
0000
0010
0000
0000
1000
0000
0200
0000
0000
0000
0310
0000
0000
0000
,  // measure 7
0001
0100
0001
0100
0010
0000
1000
0100
,  // measure 8
1000
0100
0010
0001
0200
0000
0301
0000
,  // measure 9
1001
0000
1000
0010
0100
0001
0100
0000
,  // measure 10
0001
0010
0100
0010
0100
0001
0100
1000
,  // measure 11
0001
0100
0010
1000
0001
0010
0001
1000
,  // measure 12
0001
0000
0000
0100
0000
0000
0010
0000
0110
0000
0000
0000
1001
0000
0000
0000
,  // measure 13
1100
0000
1000
0001
0100
0001
1000
0020
,  // measure 14
0000
0130
0001
0010
0100
0010
0001
1000
,  // measure 15
0200
0010
1000
0010
,  // measure 16
1300
0100
0010
0001
1000
0000
1001
0000
,  // measure 17
1100
0000
1000
0001
0100
0000
0010
1000
,  // measure 18
0100
0000
0010
0001
1000
0001
0100
0001
,  // measure 19
1000
0000
0100
0010
0001
0000
0001
0100
,  // measure 20
0010
0000
1000
0010
0100
1000
0100
0001
,  // measure 21
1000
0000
0000
0100
0000
0000
1000
0000
0002
0000
0000
0000
0013
0000
0001
0000
,  // measure 22
1000
0000
0000
0000
0000
0000
0000
0000
0000
0010
0000
0000
0000
0000
0000
0000
0000
0000
1000
0000
0000
0000
0000
0000
0001
0000
0000
0000
0000
0000
0000
0000
0100
0000
0000
0000
0000
0000
0000
0000
0010
0000
0000
0000
0000
0000
0000
0000
,  // measure 23
1000
0000
0000
0000
0000
0000
0000
0000
0100
0000
0000
0000
0000
0000
0000
0000
1000
0000
0000
0000
0000
0000
0000
0000
0001
0000
0000
0000
0000
0000
0000
0000
0000
0100
0000
0000
0000
0000
0000
0000
0000
0000
0220
0000
0000
0000
0000
0000
,  // measure 24
0000
0000
0330
0000
1000
0001
1000
0001
,  // measure 25
0101
0000
1100
0000
0101
0000
1100
0100
,  // measure 26
0020
0000
2030
0000
3200
0000
0310
0001
,  // measure 27
0011
0000
0101
0000
1010
0000
1100
1000
,  // measure 28
0100
1000
0001
0010
0001
0020
0130
0000
,  // measure 29
0011
0000
1010
0000
0011
0000
0110
0100
,  // measure 30
2000
0000
3020
0000
0230
0000
0301
0100
,  // measure 31
1100
0000
0110
0000
0101
0000
1001
1000
,  // measure 32
0100
0010
0001
1000
0010
0100
0010
1000
,  // measure 33
2002
0000
0000
0000
3003
0000
0010
0100
,  // measure 34
0010
0000
1000
0001
0200
0000
0300
0000
,  // measure 35
2002
0000
0000
0000
3003
0000
0001
0010
,  // measure 36
0100
0000
0010
0001
2000
0000
3002
0000
,  // measure 37
0203
0000
0001
0000
0000
0000
0010
0010
,  // measure 38
0310
0000
1000
0001
2000
0000
3100
0000
,  // measure 39
1000
0100
1000
0100
0010
0001
0010
0001
,  // measure 40
1000
0010
0100
0001
0101
0000
1001
0000
,  // measure 41
1000
0010
0100
0010
0001
0010
1000
0000
,  // measure 42
0001
0010
0100
0010
1000
0010
0001
0000
,  // measure 43
1000
0010
0010
0100
0001
0010
0100
0010
,  // measure 44
0001
0000
0000
0100
0000
0000
0010
0000
1010
0000
0000
0000
1001
0000
0000
0000
,  // measure 45
0011
0000
1000
0010
0100
0001
0100
0002
,  // measure 46
0000
1003
0010
0100
0001
0100
0001
0100
,  // measure 47
0010
1000
0100
0001
1000
0010
0001
1000
,  // measure 48
0010
0100
0010
1000
0001
0002
1003
0000
,  // measure 49
0101
0000
0000
0001
0000
0000
1000
0000
0200
0000
0000
0000
0310
0000
0001
0000
,  // measure 50
1000
0000
0000
0010
0000
0000
0100
0000
1000
0000
0100
0000
0010
0000
1000
0000
,  // measure 51
0001
0000
0000
0010
0000
0000
0001
0000
2000
0000
0000
0000
3010
0000
1000
0000
,  // measure 52
0100
0000
0000
0010
0000
0000
0100
0000
0001
0000
0100
0000
1000
0000
0100
0000
,  // measure 53
0010
0000
0000
1001
0000
0000
0100
0000
0020
0000
0000
0000
1030
0000
0010
0000
,  // measure 54
1000
0000
0000
0000
0000
0000
0000
0000
0000
0001
0000
0000
0000
0000
0000
0000
0000
0000
1000
0000
0000
0000
0000
0000
0100
0000
0000
0000
0000
0000
0000
0000
0010
0000
0000
0000
0000
0000
0000
0000
0001
0000
0000
0000
0000
0000
0000
0000
,  // measure 55
0100
0000
0000
0000
0000
0000
0000
0000
0010
0000
0000
0000
0000
0000
0000
0000
1000
0000
0000
0000
0000
0000
0000
0000
0001
0000
0000
0000
0000
0000
0000
0000
0000
1000
0000
0000
0000
0000
0000
0000
0000
0000
2002
0000
0000
0000
0000
0000
,  // measure 56
0000
3003
0101
1001
,  // measure 57
1100
0000
0110
0000
1100
0000
1000
0001
,  // measure 58
0101
0000
1100
0000
0101
0000
0001
0100
,  // measure 59
0110
0000
1001
0000
0110
0000
1000
0001
,  // measure 60
0011
0000
1100
0000
1000
0001
0100
0010
,  // measure 61
1000
0000
0000
1000
0100
0000
0010
0000
0001
0000
0000
0000
0010
0000
0001
0000
,  // measure 62
0100
0000
0000
0000
0000
0000
0000
0000
0000
0100
0000
0000
0001
0000
0000
0000
0000
0000
0001
0000
0000
0000
0000
0000
1000
0000
0000
0000
0000
0000
0000
0000
0010
0000
0000
0000
0000
0000
0000
0000
1000
0000
0000
0000
0000
0000
0000
0000
,  // measure 63
0100
0000
0000
0000
0000
0000
0000
0000
0001
0000
0000
0000
0000
0000
0000
0000
0100
0000
0000
0000
0000
0000
0000
0000
0110
0000
0000
0000
0000
0000
0000
0000
0000
0011
0000
0000
0000
0000
0000
0000
0000
0000
1002
0000
0000
0000
0000
0000
,  // measure 64
0000
0000
0013
0000
0001
0001
1000
2000
,  // measure 65
3010
0000
0000
0000
;

//---------------dance-single - ----------------
#NOTES:
     dance-single:
     :
     Medium:
     8:
     0.417,0.380,0.229,0.288,0.013: // measure 1
2000
0001
0000
0010
,  // measure 2
0000
0100
0001
0100
,  // measure 3
3002
0010
0000
1000
,  // measure 4
0000
0010
1000
1003
,  // measure 5
2001
0001
0000
0100
,  // measure 6
0000
0001
0100
3001
,  // measure 7
1000
0001
1000
0000
0001
0000
0100
0000
,  // measure 8
0010
1000
1001
0110
,  // measure 9
0001
0000
0100
0000
0001
0100
0001
0000
,  // measure 10
1000
0000
0100
0000
1000
0100
1000
0000
,  // measure 11
0001
0100
1000
0100
,  // measure 12
0001
1000
0100
0010
,  // measure 13
0220
0000
0330
0000
0001
1000
0001
0000
,  // measure 14
1000
0000
0010
0000
0100
0001
0100
0001
,  // measure 15
0010
0000
0100
0000
0010
0000
0001
1000
,  // measure 16
0010
0000
1000
0001
1000
0000
0110
0000
,  // measure 17
1001
0001
0101
0100
,  // measure 18
0110
0000
0010
0000
1000
0001
1000
0000
,  // measure 19
0001
0000
1000
0000
1100
0000
0001
0010
,  // measure 20
0001
0000
1000
0000
0001
0100
0001
0100
,  // measure 21
0001
0100
0110
0010
,  // measure 22
1010
1000
0001
0100
,  // measure 23
1000
0000
0000
0000
0100
0000
0000
0000
0001
0000
0000
1000
0000
0000
2002
0000
,  // measure 24
0000
0000
3003
0000
1000
0001
1000
0002
,  // measure 25
0100
0000
0100
0000
0103
0000
0010
2000
,  // measure 26
0001
0001
3001
1001
,  // measure 27
0210
0000
0010
0000
0310
0000
0001
2000
,  // measure 28
0100
0100
3100
1100
,  // measure 29
0001
0100
0001
0000
0100
0000
0010
1000
,  // measure 30
0010
1000
0100
0010
,  // measure 31
0001
0010
0001
0000
1000
0000
0100
1000
,  // measure 32
0100
1000
0001
0100
,  // measure 33
0220
0000
0330
0000
,  // measure 34
0010
0000
1000
0001
0200
0000
0300
0000
,  // measure 35
2002
0000
3003
0000
,  // measure 36
0001
0000
1000
0100
0020
0000
0230
0000
,  // measure 37
0320
0000
0001
0000
0000
0000
0031
0001
,  // measure 38
1000
0000
0001
0100
0002
0000
1003
0000
,  // measure 39
2010
0000
0100
0000
0000
0000
3100
1000
,  // measure 40
0100
0000
1000
0001
1000
0001
1000
0000
,  // measure 41
0220
0000
0330
0000
0001
1000
0001
0000
,  // measure 42
1000
0100
0010
0000
0001
0100
0010
0000
,  // measure 43
1000
0000
0001
0000
0100
0010
1000
0010
,  // measure 44
0100
0001
2002
3003
,  // measure 45
0022
0000
0033
0000
0010
0001
0100
0000
,  // measure 46
0010
1000
0001
1000
0100
0000
1000
0000
,  // measure 47
0002
0010
1000
0100
,  // measure 48
1003
0001
0220
0330
,  // measure 49
1001
0000
0001
0100
0001
0000
1000
0000
,  // measure 50
0100
0000
0010
0000
0001
0010
0001
0000
,  // measure 51
1000
0000
0001
0100
0010
0000
0100
0001
,  // measure 52
1000
0000
0100
0000
0010
0001
0010
0001
,  // measure 53
1000
0000
0001
0000
0100
0000
0010
1000
,  // measure 54
0100
0010
0001
1000
,  // measure 55
0010
0000
0000
0000
0100
0000
0000
0000
0010
0000
0000
0100
0000
0000
0220
0000
,  // measure 56
0000
0330
1010
1001
,  // measure 57
0001
0000
0010
0000
0001
0000
1000
0100
,  // measure 58
1000
0001
0100
0010
,  // measure 59
1000
0000
0001
0000
0100
0000
0010
1000
,  // measure 60
0010
0000
1000
0000
0100
0010
0100
0010
,  // measure 61
0100
0000
0010
0000
0001
0000
1000
0001
,  // measure 62
0100
0001
0100
1000
,  // measure 63
0010
0000
0000
0000
0001
0000
0000
0000
1000
0000
0000
0001
0000
0000
2002
0000
,  // measure 64
0000
0000
3003
0000
1000
0001
1000
0001
,  // measure 65
0100
0000
0000
0000
;

//---------------dance-single - ----------------
#NOTES:
     dance-single:
     :
     Easy:
     6:
     0.277,0.298,0.119,0.153,0.000: // measure 1
2002
0000
0000
3003
,  // measure 2
1000
0000
0001
0000
,  // measure 3
0200
0000
0000
0300
,  // measure 4
0010
0000
1000
0001
,  // measure 5
1002
0000
0000
0003
,  // measure 6
1000
0000
0100
0000
,  // measure 7
1000
0000
0100
0010
,  // measure 8
0001
1000
0001
0001
,  // measure 9
1001
0000
1000
0010
,  // measure 10
0100
0000
0010
1000
,  // measure 11
0001
0000
1000
0100
,  // measure 12
0010
0001
0100
0010
,  // measure 13
0110
0000
0010
1000
,  // measure 14
0001
0000
1000
0001
,  // measure 15
2002
0000
0000
0000
,  // measure 16
0003
0000
0002
3003
,  // measure 17
1001
0000
1001
0000
,  // measure 18
1000
0100
0010
0001
,  // measure 19
0100
0000
0010
0000
,  // measure 20
0100
0010
1000
0001
,  // measure 21
1000
0000
0100
0000
,  // measure 22
1000
0100
0010
0001
,  // measure 23
1000
0000
0001
0000
1000
0000
0000
2002
,  // measure 24
0000
3003
1000
0001
,  // measure 25
1000
1000
1000
1000
,  // measure 26
0100
0100
0100
0100
,  // measure 27
1000
1000
1000
1000
,  // measure 28
0001
0001
0002
0003
,  // measure 29
1000
0001
1000
0001
,  // measure 30
0100
0010
0100
0010
,  // measure 31
1000
0100
0010
0001
,  // measure 32
1000
0100
0010
0001
,  // measure 33
2002
0000
0000
3003
,  // measure 34
1000
0000
0001
0000
,  // measure 35
0220
0000
0000
0330
,  // measure 36
0010
0000
1000
1000
,  // measure 37
2002
0000
0000
3003
,  // measure 38
0001
0000
1000
0000
,  // measure 39
0001
0100
0010
1000
,  // measure 40
0001
0000
0100
0100
,  // measure 41
0110
0000
0010
1000
,  // measure 42
0001
0000
1000
0001
,  // measure 43
0010
0100
0010
0001
,  // measure 44
1000
0000
0001
0100
,  // measure 45
0001
0000
1000
0100
,  // measure 46
1000
1000
0001
0001
,  // measure 47
1000
0010
0100
0001
,  // measure 48
1000
0001
2002
3003
,  // measure 49
1000
0100
1000
0100
,  // measure 50
0001
0000
0100
0000
,  // measure 51
1000
0010
1000
0010
,  // measure 52
0001
0000
0010
1000
,  // measure 53
0001
0010
0001
0010
,  // measure 54
0100
0000
0010
0001
,  // measure 55
1000
0100
0010
0001
,  // measure 56
0100
0010
1000
1000
,  // measure 57
1001
0000
0001
0010
,  // measure 58
0001
0010
0100
1000
,  // measure 59
0100
1000
0001
0100
,  // measure 60
0010
1000
0010
0010
,  // measure 61
0010
0100
0001
0010
,  // measure 62
0100
0010
0001
1000
,  // measure 63
0001
0100
0010
1000
,  // measure 64
0100
0010
0100
0100
,  // measure 65
0100
0000
0000
0000
;

//---------------dance-single - ----------------
#NOTES:
     dance-single:
     :
     Beginner:
     4:
     0.145,0.217,0.119,0.000,0.000: // measure 1
1001
0000
0000
0000
,  // measure 2
0001
0000
0001
0000
,  // measure 3
0001
0000
0000
0000
,  // measure 4
1000
0000
1000
0000
,  // measure 5
1000
0000
0000
0000
,  // measure 6
0100
0000
0100
0000
,  // measure 7
0100
0000
0000
0000
,  // measure 8
0010
0000
0010
0000
,  // measure 9
0110
0000
0000
0000
,  // measure 10
1000
0000
0001
0000
,  // measure 11
0100
0000
0010
0000
,  // measure 12
1000
0000
0100
0000
,  // measure 13
1000
0000
0000
0000
,  // measure 14
0001
0000
0010
0000
,  // measure 15
0001
0000
0000
0000
,  // measure 16
1000
0000
1000
1000
,  // measure 17
1000
0000
0000
0000
,  // measure 18
0001
0000
0100
0000
,  // measure 19
0001
0000
1000
0000
,  // measure 20
0100
0000
0010
0000
,  // measure 21
0001
0000
0100
0000
,  // measure 22
0001
0000
1000
0000
,  // measure 23
0100
0000
0010
0000
,  // measure 24
0100
0000
0010
0010
,  // measure 25
0010
0000
0000
0000
,  // measure 26
0001
0000
0000
0000
,  // measure 27
1000
0000
0000
0000
,  // measure 28
0010
0000
0000
0100
,  // measure 29
0100
0000
0000
0000
,  // measure 30
0001
0000
0000
0000
,  // measure 31
1000
0000
0000
0000
,  // measure 32
0001
0000
1000
0000
,  // measure 33
1001
0000
0000
0000
,  // measure 34
0100
0000
0000
0000
,  // measure 35
1001
0000
0000
0000
,  // measure 36
0010
0000
0000
0000
,  // measure 37
0001
0000
0100
0000
,  // measure 38
0010
0000
0000
0000
,  // measure 39
1000
0000
0100
0000
,  // measure 40
0010
0000
0000
0000
,  // measure 41
1001
0000
0001
0000
,  // measure 42
0100
0000
0001
0000
,  // measure 43
1000
0000
0000
0000
,  // measure 44
0001
0000
0010
0000
,  // measure 45
0100
0000
0000
0000
,  // measure 46
0010
0000
0001
0000
,  // measure 47
1000
0000
0000
0000
,  // measure 48
0001
0000
1001
0000
,  // measure 49
1001
0000
0100
0000
,  // measure 50
0110
0000
0000
0000
,  // measure 51
0110
0000
0010
0000
,  // measure 52
1001
0000
1000
1000
,  // measure 53
1000
0000
0100
0000
,  // measure 54
0110
0000
0000
0000
,  // measure 55
0001
0000
0100
0000
,  // measure 56
0010
0000
1000
1000
,  // measure 57
1000
0000
0001
0000
,  // measure 58
1001
0000
0000
0000
,  // measure 59
0001
0000
0100
0000
,  // measure 60
0110
0000
0000
0000
,  // measure 61
0010
0000
1000
0000
,  // measure 62
1001
0000
0000
0000
,  // measure 63
0001
0000
0010
0000
,  // measure 64
0001
0000
0100
0100
,  // measure 65
0100
0000
0000
0000
;
