#TITLE:UNDERWORLD HOLOGRAPHY;
#SUBTITLE:;
#ARTIST:BEMANI Sound Team "L.E.D." feat. KOTOKO;
#TITLETRANSLIT:;
#SUBTITLETRANSLIT:;
#ARTISTTRANSLIT:;
#GENRE:DRUM & BASS;
#CREDIT:Graphics made by TonyAkita;
#MUSIC:UNDERWORLD HOLOGRAPHY.ogg;
#BANNER:UNDERWORLD HOLOGRAPHY.png;
#BACKGROUND:UNDERWORLD HOLOGRAPHY-bg.png;
#CDTITLE:;
#SAMPLESTART:57.254;
#SAMPLELENGTH:15.000;
#SELECTABLE:YES;
#OFFSET:1.270;
#BPMS:0.000=187.000;
#STOPS:;
#DISPLAYBPM:187.000;
#JACKET:UNDERWORLD HOLOGRAPHY-jacket.png;
#BGCHANGES:-0.350=UNDERWORLD HOLOGRAPHY.avi=1.000=0=0=0=StretchNoLoop====,
99999.000=-nosongbg-=1.000=0=0=0=StretchNoLoop====
;
#FGCHANGES:;

//--------------- dance-single - forcednature ----------------
#NOTES:
     dance-single:
     forcednature:
     Beginner:
     5:
     0,0,0,0,0:
0000
0000
0000
0000
,
0000
0000
0000
0000
,
0000
0000
0000
0000
,
0000
0000
0000
0000
,
0000
0000
0000
0000
,
0000
0000
0000
0000
,
0001
0000
0100
0000
,
0001
0000
1000
0001
,
1000
0000
0100
0000
,
1000
0000
0001
1000
,
0001
0000
0010
0000
,
0001
0000
0100
0010
,
0100
0000
0001
0000
,
1000
0000
0010
0100
,
0010
0000
0010
0000
,
0100
0100
0100
0000
,
0001
0000
1000
0000
,
0100
0100
0100
0000
,
1000
0000
0001
0000
,
0010
0010
0010
0000
,
0001
0000
1000
0000
,
0010
0010
0010
0000
,
1000
0000
0001
0000
,
1000
0000
0100
0000
,
0001
0000
0100
0000
,
1000
0000
0001
0000
,
0100
0000
0010
0000
,
0001
0000
0010
0000
,
1000
0000
0001
0000
,
0100
0100
0100
0000
,
0010
0000
0000
0010
0000
0000
0100
0000
,
0000
0010
0000
0000
0010
0000
0000
0000
,
1000
0001
1000
0000
,
0001
1000
0001
0000
,
0010
0000
0000
0010
0000
0000
0100
0000
,
0000
0010
0000
0000
0010
0000
0000
0000
,
0001
1000
0001
0000
,
1000
0001
1000
0000
,
0001
0000
0000
0100
0000
0000
1000
0000
,
0000
0100
0000
0000
0001
0000
0000
0000
,
1000
0100
0010
0000
,
0001
0100
0010
0000
,
1000
0000
0000
0100
0000
0000
0001
0000
,
0000
0100
0000
0000
1000
0000
0000
0000
,
0010
0010
0010
0000
,
0100
0100
0100
0001
,
1001
0000
0110
0000
,
1000
0001
1000
0001
,
0010
0010
0010
0000
,
0100
0100
0100
0000
,
1000
0100
1000
0000
,
0001
0000
1000
0000
,
0001
0100
0001
0000
,
1000
0000
0001
0000
,
1001
0000
0110
0000
,
1000
0001
1000
0001
,
0010
0100
0000
1000
,
0001
0100
0000
0010
,
1000
0001
1000
0000
,
0001
0100
0001
0000
,
1000
0100
1000
0000
,
0010
0010
0010
0000
,
0110
0000
0001
0000
,
1000
0010
1000
0000
,
0110
0000
1001
0000
,
0001
0010
0001
0000
,
0010
0000
0000
0000
,
0100
0000
0100
0000
,
0010
0000
0000
0000
,
0100
0000
0100
0000
,
1001
0000
0000
0000
,
1000
0000
0001
0000
,
1001
0000
0000
0000
,
0001
1000
1000
0001
,
1001
0000
0110
0000
,
1000
0001
1000
0001
,
0100
0010
0000
0010
,
0100
0010
0000
0010
,
1000
0000
0001
0000
,
0010
0100
0010
0100
,
0010
0000
0100
0000
,
1000
0001
1000
0001
,
1001
0000
0110
0000
,
1000
0001
1000
0001
,
0100
0010
0000
0010
,
0100
0001
0000
0001
,
1000
0000
0001
0000
,
0100
0010
0100
0010
,
1000
0000
0001
0000
,
0010
0100
0010
0100
,
0010
0010
0000
0100
,
0000
1000
0001
0000
,
0100
0100
0000
0001
,
0000
1000
0010
0000
,
1000
1000
0001
0001
,
0010
0100
0010
0100
,
1000
0000
0001
0000
0100
0000
0000
2002
,
0000
3003
0000
0000
;

//--------------- dance-single - forcednature ----------------
#NOTES:
     dance-single:
     forcednature:
     Easy:
     8:
     0,0,0,0,0:
0000
0000
0000
0000
,
0000
0000
0000
0000
,
0000
0000
0000
0000
,
0000
0000
0000
0000
,
0000
0000
0000
0000
,
0000
0000
0000
0000
,
1000
0100
1000
0000
0001
0000
1000
0000
,
0001
0100
0001
0000
1000
0000
0001
0000
,
0100
0010
0100
0000
0001
0000
1000
0000
,
0100
0010
0100
0000
1000
0000
0001
0000
,
1001
1000
0010
0100
,
0001
0010
0001
0000
0100
0000
0010
0000
,
1000
0100
1000
0000
0010
0000
0100
0000
,
0001
0100
0001
0000
2002
0000
3003
0000
,
1000
1000
0001
0001
,
1000
0001
0100
0010
,
0100
0100
0010
0010
,
1000
0001
0100
0010
,
1000
0100
0001
0100
,
1000
0010
0001
0010
,
1000
0100
0010
0001
,
0110
0110
0110
0000
,
1000
0000
0110
0000
0001
0100
0001
0000
,
1000
0010
1000
0100
,
0001
0000
0110
0000
1000
0001
1000
0000
,
0010
0100
0001
0010
,
0100
0000
1001
0000
0100
0010
0100
0000
,
0001
0010
0100
1000
,
0010
0000
1001
0000
0100
0001
0100
0000
,
0010
1000
0001
1000
,
0001
0000
1000
0000
0010
1000
0010
0000
,
1000
0100
0010
0000
,
0001
0000
1000
0000
0100
1000
0100
0000
,
0010
0001
0100
0000
,
0001
1000
0010
1000
,
0100
0010
0001
0000
,
0001
0100
0001
1000
,
0110
0010
0010
0000
,
0001
0100
0001
0000
1000
0100
1000
0000
,
0010
0100
0001
1000
,
0100
1000
0100
0000
0010
0001
0010
0000
,
0001
1000
0010
0100
,
0001
0100
0001
0000
1000
0010
1000
0000
,
0001
0010
0100
1000
,
1001
0000
0000
0000
,
0100
0100
0100
0100
,
1001
0000
0010
0000
1000
0010
0100
0000
,
1001
0000
0010
0000
1000
0100
0010
0000
,
0110
0000
0010
0000
0001
1000
0010
0000
,
1001
0000
0100
0000
0001
0010
0100
0000
,
1001
0000
0100
0000
0010
1000
0100
0000
,
1001
0000
0010
0000
0001
0100
0010
0000
,
0110
0000
0100
0000
1000
0010
0001
0000
,
0110
0000
0010
0000
1000
0001
0010
0000
,
1001
0000
0100
0000
1000
0010
0100
0000
,
0110
0000
1000
0000
0001
0010
0100
0000
,
1001
0000
0100
0000
0001
0010
0100
0000
,
1001
0000
0010
0000
1000
0010
0100
0000
,
1001
0000
0100
0000
0010
1000
0100
0000
,
0110
0000
1000
0000
0001
0010
0100
0000
,
1001
0000
0010
0000
0100
1000
0001
0000
,
1001
0000
0100
0000
0010
1000
0001
0000
,
1000
0100
1000
0000
0001
0000
1000
0000
,
0010
0000
0000
1001
0000
0000
0100
0000
,
0001
0010
0001
0000
1000
0000
0010
0000
,
1000
0000
0000
0110
0000
0000
0001
0000
,
1001
0001
0100
0010
,
0100
0100
0100
0000
,
1001
1000
0100
0010
,
0001
0001
0001
0000
,
0110
0001
0010
1000
,
0010
0010
0010
0000
,
0110
1000
0100
0001
,
0200
0000
0000
0310
,
1000
0100
1000
0000
0010
0100
0001
0000
,
1000
0100
0010
0000
0110
0000
1001
0000
,
0001
0100
0010
0000
1000
0100
0010
0000
,
0100
1000
0001
0000
1001
0000
0110
0000
,
0001
0100
0010
0000
1000
0100
0010
0000
,
0100
0010
0001
0000
1000
0001
0100
0000
,
0010
0100
0010
0100
0000
1001
0000
0110
,
0000
1000
0001
1000
0001
1000
0001
0000
,
0100
0001
1000
0000
0010
1000
0001
0000
,
1000
0100
0010
0000
0110
0000
1001
0000
,
0001
0100
0010
0000
1000
0100
0010
0000
,
0100
1000
0001
0000
0110
0000
1001
0000
,
0001
0100
0010
0000
1000
0010
0100
0000
,
0001
0010
0100
0000
1000
0001
0100
0000
,
0010
1000
0100
0000
0010
0001
1000
0001
,
0000
0100
0010
0100
0000
0010
0100
0010
,
1000
0000
0001
0100
0010
0000
1000
0000
,
0001
0010
1000
0000
0010
0000
0100
0000
,
1000
0000
0010
0100
1000
0000
0100
0000
,
0001
0010
1000
0000
0010
0000
0100
0000
,
1000
0000
0001
0100
0001
0000
1000
0000
,
0010
0100
1000
0000
0100
0000
0010
0000
,
1000
0100
0010
0001
0100
0000
0010
0020
,
0000
0030
0000
0000
;

//--------------- dance-single - forcednature ----------------
#NOTES:
     dance-single:
     forcednature:
     Medium:
     12:
     0,0,0,0,0:
0000
0000
0000
0000
,
0000
0000
0000
0000
,
0000
0000
0000
0000
,
0000
0000
0000
0000
,
0000
0000
0000
0000
,
0000
0000
0000
0000
,
1001
0000
0001
0100
1000
0100
0001
0010
,
0100
1000
0001
1000
0010
0001
0010
1000
,
0100
0000
0010
0001
1000
0100
0001
0100
,
1000
0010
1000
0100
0001
0100
0010
0001
,
1000
0000
0001
0100
1000
0100
0001
0010
,
0001
0100
1000
0100
0010
1000
0100
0001
,
0100
0000
1000
0010
0100
0001
0010
1000
,
0010
0001
1000
0010
0100
0001
0010
0100
,
1000
0000
1001
0000
1000
0100
1000
0000
,
0010
0100
0001
0100
1000
0100
0001
0000
,
0100
0010
1000
0100
0010
0100
1000
0001
,
0000
1001
0000
0001
0100
0001
0100
0010
,
1000
0100
0010
0000
0001
1000
0010
1000
,
0001
0010
0100
1000
0000
0001
0100
1000
,
0100
0001
0010
0000
0100
1000
0100
0001
,
0100
1000
0010
0000
1000
0001
1000
0000
,
0001
0100
0001
0100
0010
1000
0010
0001
,
0010
1000
0100
0001
0100
1000
0010
0000
,
1000
0100
1000
0100
0001
0100
1000
0010
,
0100
0001
0010
1000
0010
0001
0100
0000
,
0001
0100
0001
0100
1000
0100
0010
1000
,
0100
0001
0100
1000
0010
0100
0001
0000
,
1000
0010
1000
0010
0001
0010
1000
0100
,
0001
0100
1000
0010
0100
0100
0100
0000
,
0001
0000
0000
1000
0000
0000
0001
0000
0000
0100
0000
0000
1000
0000
0000
0100
,
0000
0010
1000
0001
0010
0100
1000
0000
,
0001
0100
1000
0100
0010
0100
0001
0010
,
1000
0010
0100
1000
0001
1000
0010
0000
,
0100
0000
0000
0001
0000
0000
0100
0000
0000
1000
0000
0000
0100
0000
0000
0010
,
0000
1000
0100
0010
0100
1000
0001
0000
,
0010
1000
0010
0001
1000
0010
0100
0001
,
0100
1000
0100
0001
0010
0100
1000
0000
,
0001
0000
0000
0100
0000
0000
1000
0000
0000
0100
0000
0000
0001
0000
0000
0010
,
0000
0100
1000
0100
0001
0100
1000
0010
,
1000
0100
0001
0100
1000
0010
0100
0001
,
0100
1000
0100
0001
0010
0001
0100
0000
,
0010
0000
0000
0001
0000
0000
0010
0000
0000
1000
0000
0000
0010
0000
0000
0100
,
0000
0001
0100
1000
0100
0001
0010
0000
,
0100
0100
1000
0100
0100
0010
0001
1000
,
0010
0100
0001
1000
0000
0100
0100
0010
,
0100
0100
1001
0000
1000
0010
0100
0000
,
0001
0100
0010
1000
0100
0001
0100
1000
,
0010
1000
1001
0000
0100
0001
0010
0000
,
0100
1000
0001
0100
1000
0100
0001
0010
,
0001
0100
1000
0100
0010
1000
0100
0001
,
0000
0110
0000
0001
0100
1000
0100
0001
,
0010
1000
0010
0001
1000
0010
0100
0001
,
0000
1001
0000
1000
0100
0001
0100
1000
,
0010
1000
1001
0000
0001
0010
0100
0000
,
1000
0001
1000
0000
0001
0100
0010
0000
,
1000
0100
0110
0000
0001
0100
0010
1000
,
0001
0010
1000
0010
0100
1000
0001
0100
,
0010
0001
0010
1000
0100
0001
0100
0010
,
0000
1001
0000
0001
0100
1000
0100
0001
,
1000
0100
0001
0100
1000
1000
1000
1000
,
0000
0010
0100
0001
0100
1000
0100
0010
,
0100
0100
0101
0000
0000
0100
0110
0000
,
0001
1000
1001
0000
1000
0100
1100
0000
,
0010
0100
0110
0000
0000
1000
1001
0000
,
1000
0010
1000
0100
0001
0100
1000
0000
,
0010
0100
0001
0100
1000
0100
0001
0010
,
0100
0000
1000
0000
0100
0000
0001
0000
0000
0000
0100
0010
0100
0000
0000
0000
,
0100
1000
0001
0100
0010
1000
0100
0001
,
0100
0000
1000
0000
0001
0000
0100
0000
0000
0000
0010
0100
0010
0000
0000
0000
,
1000
0001
1000
0010
1000
0001
0010
0001
,
1000
0000
0001
0000
0100
0000
0010
0000
0000
0000
1000
0001
1000
0000
0000
0000
,
0001
0010
0100
1000
0001
0100
0010
1000
,
0001
0001
0001
0001
0000
1000
0100
0001
,
0100
1000
1001
0000
1000
0010
0100
0000
,
0001
0010
1000
0010
0100
1000
0001
0100
,
0010
1000
0110
0000
0001
0100
0010
0000
,
0100
0001
1000
0100
0001
0100
1000
0010
,
0100
0001
0010
1000
0010
0001
0100
0010
,
0000
1001
0000
1000
0100
0001
0100
1000
,
0010
1000
0010
0001
0010
1000
0100
0001
,
0000
0110
0000
0001
0100
1000
0100
0001
,
0010
0100
0110
0000
0100
1000
0001
0000
,
1000
0010
0100
0001
0010
1000
0010
0000
,
0001
0100
1001
0000
1000
0100
0010
0000
,
0100
1000
0010
0100
0001
0010
1000
0010
,
0001
1000
0010
0100
0001
0100
1000
0100
,
0000
0110
0000
0010
1000
0100
0001
0100
,
1000
0010
1000
0100
0001
0100
0010
0001
,
0000
1000
0001
0100
0010
1000
0001
0000
,
1000
0100
0001
0100
1000
0010
0100
0001
,
0100
1000
0100
0001
0010
0001
0100
0010
,
1000
0100
0001
0100
1000
0010
0001
0010
,
1000
0001
0100
0010
0100
0001
0100
1000
,
0100
0001
0010
0001
1000
0100
0010
0001
,
0010
1000
0010
0001
0100
0010
1000
0100
,
0001
0100
1000
0001
0100
0010
0100
2000
,
0000
3000
0000
0000
;

//--------------- dance-single - forcednature ----------------
#NOTES:
     dance-single:
     forcednature:
     Hard:
     14:
     0,0,0,0,0:
0000
0000
0000
0000
,
0000
0000
0000
0000
,
0000
0000
0000
0000
,
0000
0000
0000
0000
,
0000
0000
0000
0000
,
2002
0000
0000
3003
,
1000
0000
0000
0000
0010
0100
0010
0000
1000
0000
0100
0000
0010
0000
0001
0000
,
1000
0100
0001
0100
0010
0001
1000
0001
,
0100
0000
0000
0000
0001
0010
0001
0000
1000
0000
0100
0000
0001
0000
0100
0000
,
0010
0001
1000
0010
0100
1000
0100
0001
,
1000
0000
0000
0000
0010
0100
0010
0000
0001
0000
0010
0000
1000
0000
0100
0000
,
0010
1000
0010
0001
0100
0010
1000
0001
,
0100
0000
0000
0000
0010
1000
0010
0000
1000
0000
0001
0000
0010
0000
1000
0000
,
0010
0000
0100
0000
1000
0000
0001
0000
1000
0001
1000
0000
0010
0000
0000
0000
,
0100
0001
0010
0100
0000
0001
0100
1000
,
0010
0100
0000
1000
0100
0001
0010
0000
,
0100
1000
0001
0100
1000
0100
0001
0010
,
0000
0110
0000
0001
1000
0000
0010
1000
,
0001
0100
0001
0000
0000
0100
0110
0000
,
0001
0000
1000
0100
0000
0001
0100
1000
,
0000
0010
0100
0000
0001
0100
1000
0000
,
0100
0000
0001
0000
0010
0000
0000
0000
0001
0000
0100
0001
0100
0000
0010
1000
,
0010
1000
0100
0001
0100
1000
0010
0100
,
0000
0101
0000
1000
0100
0010
0000
0000
,
0001
0100
0001
1000
0010
0100
0001
0010
,
0000
0110
0000
1000
0001
1000
0010
0001
,
0010
1000
0100
0000
0000
0010
0100
1000
,
0001
0000
0100
1000
0000
0100
0010
1000
,
0100
0001
0100
0000
0000
1000
1001
0000
,
0001
0000
0000
0000
1010
0000
0000
0000
0001
1000
0001
1000
0001
1000
0001
0000
,
0010
0000
0000
0100
1000
0000
0010
0000
0000
0100
0001
0000
0010
0000
0000
0100
,
1000
0000
0010
0100
0010
0000
1000
0001
1000
0000
0001
0000
0010
0000
0000
0000
,
0100
1000
0100
0001
0100
0010
0100
1000
,
0010
0001
0010
0100
0010
0001
0010
0000
,
0100
0000
0000
0001
1000
0000
0100
0000
0000
1000
0001
0000
0100
0000
0000
0001
,
1000
0000
0100
0010
0100
0000
1000
0001
1000
0000
0010
0000
0100
0000
0000
0000
,
0001
0010
1000
0010
0100
1000
0001
1000
,
0010
0001
0010
0100
0001
1000
0100
0000
,
1000
0000
0000
0100
0010
0000
0001
0000
0000
0100
0010
0000
1000
0000
0000
0100
,
0010
0000
0001
0100
0001
0000
1000
0010
1000
0010
1000
0000
0100
0000
0000
0000
,
1000
0010
0001
0010
0100
0001
1000
0100
,
0001
0100
0010
0100
1000
0001
1000
0000
,
0010
0000
0000
1000
0001
0000
0100
0000
0000
0001
1000
0000
0010
0000
0000
1000
,
0001
0000
0100
0010
0100
0000
0001
1000
0001
1000
0001
0000
0020
0000
0030
0000
,
1001
0001
0000
1000
0010
0100
0001
0100
,
1000
0100
0010
0100
0000
0001
0010
0100
,
0010
0000
0100
0000
1000
0000
0000
0110
0000
0000
0001
0000
0100
0000
0010
0000
,
0001
0000
0010
0000
1000
0000
0000
1001
0000
0000
0001
0000
0100
0000
1000
0000
,
0100
0000
0010
0000
1000
0000
0000
0110
0000
0000
1000
0000
0100
0000
0001
0000
,
0100
0000
1000
0000
0010
0000
0000
1001
0000
0000
0001
0000
0100
0000
0001
0010
,
0001
0000
1000
0000
0010
0000
0100
0000
0001
0000
0100
0010
0100
0000
0001
0000
,
0000
0110
0000
0001
0010
0100
1000
0010
,
0001
0000
0010
0000
1000
0000
0100
0000
0010
0000
0001
1000
0001
0000
0100
0000
,
0000
0000
1001
0000
0000
0000
0001
0100
0001
0000
1000
0100
1000
0100
1000
0000
,
0010
0000
0100
0000
0001
0000
0000
0110
0000
0000
0001
0000
1000
0000
0100
0000
,
0001
0000
0100
0000
1000
0000
0000
1001
0000
0000
1000
0000
0010
0000
1000
0000
,
0100
0000
0010
0000
0001
0000
0000
0110
0000
0000
0001
0000
0010
0000
1000
0000
,
0010
0000
0100
0000
1000
0000
0000
1001
0000
0000
0001
0010
0001
0000
1000
0100
,
1000
0000
0010
0000
1000
0000
0100
0000
0001
0000
0100
0010
0100
0000
1000
0000
,
0000
0110
0000
0001
0100
0001
0010
1000
,
0010
0000
0100
0000
1000
0000
0001
0000
1000
0001
1000
0001
1000
0001
1000
0000
,
0010
0000
0100
0000
0000
0000
0100
0000
0001
0000
1000
0001
1000
0000
0010
1000
,
0010
0010
0110
0000
0000
0001
1001
0000
,
1200
0000
0310
0021
0000
0031
0100
1000
,
0100
0010
0021
0000
0000
0130
0101
0000
,
2002
0000
3003
0220
0000
0000
0330
0000
,
1001
1001
0000
0001
0100
0010
0001
0010
,
1000
0100
0001
0100
0000
1000
1001
0001
,
0101
0101
0100
0001
1000
0010
0000
0100
,
0001
0000
0100
0000
0010
0000
1000
0000
0000
0000
0001
0010
0001
0010
0001
0000
,
0110
0110
1000
0010
0001
0010
0100
0001
,
0010
0000
0100
0000
1000
0000
0001
0000
0000
0000
0100
0010
0100
0000
0001
1000
,
0001
0010
1000
0010
0001
0100
1000
0100
,
0001
1000
0001
1000
0001
1000
0001
1000
0001
0000
0010
0000
0100
0000
1000
0000
,
0001
0000
1000
0000
0010
0000
0000
1001
0000
0000
1000
0000
0100
0000
0001
0000
,
0100
0000
0010
0000
0001
0000
0000
0110
0000
0000
1000
0000
0010
0000
0001
0000
,
0010
0000
0100
0000
0001
0000
0000
0110
0000
0000
0001
0000
1000
0000
0100
0000
,
0010
0000
0001
0000
0100
0000
0000
1001
0000
0000
1000
0000
0100
0000
1000
0001
,
1000
0000
0010
0000
0001
0000
0010
0000
0100
0000
0001
1000
0001
0000
0010
0000
,
0000
0110
0000
1000
0100
0001
0100
0010
,
1000
0000
0010
0000
0001
0000
1000
0000
0010
0000
0100
0001
0100
0000
0010
0000
,
0000
0000
0110
0000
0000
0000
0001
0100
0001
0000
1000
0100
1000
0100
1000
0000
,
0010
0000
0100
0000
0001
0000
0000
0110
0000
0000
1000
0000
0100
0000
0001
0000
,
0100
0000
0010
0000
1000
0000
0000
0110
0000
0000
0001
0000
0100
0000
0010
0000
,
0001
0000
1000
0000
0100
0000
0000
1001
0000
0000
1000
0000
0010
0000
0001
0000
,
0010
0000
0100
0000
0001
0000
0000
0110
0000
0000
0001
0100
0001
0000
1000
0100
,
1000
0000
0010
0000
0001
0000
0010
0000
0100
0000
0001
1000
0001
0000
0010
0000
,
0000
1001
0000
1000
0100
0001
0100
1000
,
0010
0000
1000
0000
0001
1000
0001
1000
0001
1000
0001
1000
0100
0000
0010
0000
,
0010
0000
0001
0000
1000
0000
0010
0000
1000
0000
0001
1000
0001
0000
0000
0100
,
0001
1000
0010
1000
0100
0001
0100
1000
,
0010
0000
0100
0000
0001
0000
0010
0000
0100
0000
1000
0010
1000
0000
0001
0000
,
0010
0100
1000
0100
0001
0100
1000
0010
,
0100
0000
0001
0000
0010
0000
0100
0000
1000
0000
0010
0001
0010
0000
0100
0000
,
0001
0010
1000
0010
0100
1000
0001
1000
,
0100
0000
0001
0000
1000
0000
0010
0000
0001
0000
1000
0010
1000
0000
0001
0000
,
0100
1000
0100
0010
1000
0100
0001
2000
,
0000
3000
0000
0000
;

//--------------- dance-single - forcednature ----------------
#NOTES:
     dance-single:
     forcednature:
     Challenge:
     16:
     0,0,0,0,0:
0000
0000
0000
0000
,
0000
0000
0000
0000
,
0000
0000
0000
0000
,
0000
0000
0000
0000
,
0000
0000
0000
0000
,
0001
1000
0001
1000
0001
1000
0001
1000
0001
1000
0001
1000
0001
1000
0001
1000
,
0001
0000
1000
0100
0010
0001
1000
0100
0010
0000
0001
0000
0100
0000
0010
0000
,
1000
0000
0100
0000
0001
0000
0100
0000
0010
0000
0001
0100
0010
0000
1000
0000
,
0001
0000
0100
0001
1000
0010
0100
0001
1000
0000
0010
0000
0001
0000
0010
0000
,
1000
0000
0000
0000
0000
0000
0001
0000
0000
0010
0000
0000
0100
0000
0000
1000
0000
0000
0001
0000
0000
0000
0000
0000
0100
0000
0000
0000
0000
0000
0010
0000
0000
1000
0000
0000
0002
0000
0003
0000
0000
0000
0010
0000
0000
0001
0000
0000
,
0100
0000
0001
1000
0100
0010
0001
1000
0100
0000
0010
0000
0001
0000
1000
0000
,
0100
0000
0001
0000
0100
0000
1000
0000
0010
0000
0100
0001
0010
0000
0100
0000
,
1000
0000
0010
1000
0001
0100
0010
1000
0001
0000
0010
0000
1000
0000
0010
0000
,
0100
0000
1000
0000
0001
0000
0100
0000
0010
1000
0100
0010
0001
0100
0010
1000
,
0001
0100
0001
0010
0100
1000
0100
0001
,
0100
0000
1000
0000
0010
0000
0100
0000
0001
0000
1000
0100
0010
0000
0001
0000
,
0100
0001
1000
0100
0001
0100
0010
0001
,
0100
0000
1000
0000
0100
0000
0001
0000
1000
0000
0001
0010
0100
0000
1000
0001
,
0100
0010
0001
0010
1000
0100
0001
0100
,
0010
0000
0001
0000
1000
0000
0010
0000
1000
0000
0001
0100
0010
0000
1000
0000
,
0100
0001
0100
1000
0010
0100
0001
0000
,
1000
0000
0010
0000
0001
0000
0010
0000
0100
0000
0001
0010
0100
0000
1000
0100
,
0010
0001
0100
1000
0100
0001
1000
0100
,
0010
0000
0100
0000
1000
0000
0001
0000
0100
0000
0010
1000
0100
0000
0010
0000
,
0001
0100
0010
0001
0010
1000
0100
0001
,
0100
0000
0010
0000
0001
0000
1000
0000
0010
0000
0100
0001
0010
0000
0100
0010
,
0001
1000
0010
0100
0001
0100
1000
0100
,
0001
0000
0010
0000
0100
0000
0001
0000
0100
0000
0010
0001
1000
0000
0010
0000
,
0100
1000
0100
0001
1000
0100
0001
0100
,
1000
0000
0010
0000
0100
0000
0001
0000
0010
0001
1000
0100
0010
0100
1000
0001
,
0100
0000
0010
1000
0100
0000
0010
0000
0100
1000
0010
0000
0100
0000
0010
1000
,
0100
0000
0010
0001
0100
0000
0010
1000
0001
0100
0010
0000
1000
0100
0010
0000
,
0110
0000
0001
0000
1000
0000
0001
0100
0000
0001
1000
0010
1000
0000
0001
1000
,
0100
0000
0010
0000
0001
0000
1000
0010
0000
1000
0001
1000
0100
0010
0001
0000
,
0100
0000
0001
0010
0100
0000
0010
0000
0001
0100
0010
0000
0100
0000
0001
0010
,
0100
0000
0000
0000
0000
0000
1000
0000
0001
0000
1000
0000
0001
0000
0000
0000
0000
0000
1000
0000
0000
0010
0000
0000
0100
0000
0000
0001
0000
0000
0100
0000
0000
0000
0000
0000
0001
0000
0000
0010
0000
0000
0100
0000
0000
1000
0000
0000
,
0010
0000
0100
0000
0001
0000
1000
0100
0000
0000
1000
0001
0010
0000
0100
0010
,
0001
0000
0100
0000
0010
0000
1000
0001
0000
0000
0100
0001
1000
0010
0100
0000
,
0001
0000
1000
0100
0010
0000
0001
0000
0100
0010
1000
0000
0001
0000
1000
0100
,
0010
0000
0000
0000
0000
0000
0001
0000
0100
0000
0001
0000
0100
0000
0000
0000
0000
0000
0010
0000
1000
0000
0010
0000
1000
0000
0000
0001
0000
0000
1000
0000
0000
0000
0000
0000
0010
0000
0000
0000
0000
0000
0100
0000
0000
0001
0000
0000
,
0010
0000
0100
0000
1000
0000
0001
0100
0000
0001
1000
0001
0010
0000
0100
1000
,
0010
0000
1000
0000
1001
0000
1001
0000
1000
0000
0001
0010
0100
0010
0001
0000
,
1000
0000
0001
0100
0010
0000
1000
0000
0100
0010
0001
0000
1000
0000
0001
0100
,
0010
0000
0000
0000
0000
0000
0000
0000
0000
0000
0000
0000
0000
0000
0000
0000
0000
0000
0000
0000
0000
0000
0000
0000
1000
0000
0000
0000
0000
0000
0000
0000
0001
0000
0000
0000
0000
0000
0000
0000
1000
0000
0000
0000
0000
0000
0000
0000
0001
0000
0000
0000
0000
0000
0000
0000
0000
0000
0000
0000
0000
0000
0000
0000
0000
0000
0000
0000
0000
0000
0000
0000
0100
0000
0000
0000
0000
0000
0000
0000
0000
0000
0000
0000
0000
0000
0000
0000
0000
0000
0000
0000
0000
0000
0000
0000
0001
0000
0000
0000
0000
0000
0000
0000
0000
0000
0000
0000
0010
0000
0000
0000
0000
0000
0000
0000
0000
0000
0000
0000
0100
0000
0000
0000
0000
0000
0000
0000
0000
0000
0000
0000
1000
0000
0000
0000
0000
0000
0000
0000
0000
0000
0000
0000
0020
0000
0000
0000
0000
0000
0000
0000
0000
0000
0000
0000
0000
0030
0000
0000
0000
0000
0000
0000
0000
0000
0000
0000
0100
0000
0000
0000
0000
0000
0000
0000
0000
0000
0000
0000
0001
0000
0000
0000
0000
0000
0000
0000
0000
0000
0000
0000
,
0010
0001
0000
1000
0001
0100
0010
1000
,
0100
1000
0100
0010
0001
1000
0001
0100
0010
1000
0001
1000
0100
0010
0001
0100
,
0010
0000
1000
0000
0001
0000
0000
0010
0000
0000
0100
1000
0010
0000
1000
0000
,
0100
0000
0001
0000
0100
0000
0000
1000
0000
0000
0010
0100
0001
0000
0010
0000
,
1000
0000
0010
0000
0001
0000
0000
1000
0000
0000
0100
0010
0001
0000
1000
0000
,
0100
0000
1000
0000
0001
0000
0000
1000
0000
0000
0010
0100
0001
0000
0100
0010
,
1000
0000
0001
0000
0010
0000
0100
1000
0010
0000
1000
0001
0010
0000
0100
0000
,
1000
0000
0010
0000
1000
0000
0000
0001
0000
0000
0010
0001
1000
0000
0100
0000
,
1000
0000
0010
0000
0001
0000
0010
0100
0001
0000
1000
0001
0100
0000
0010
0000
,
1000
0000
0001
0000
1000
0000
0100
0010
0001
0000
0100
0010
1000
0001
0100
0000
,
0010
0000
1000
0000
0001
0000
0000
0100
0000
0000
0010
1000
0001
0000
1000
0000
,
0100
0000
0010
0000
1000
0000
0000
0010
0000
0000
0001
1000
0100
0000
0010
0000
,
0001
0000
0100
0000
1000
0000
0000
0100
0000
0000
0001
0010
0100
0000
1000
0000
,
0010
0000
0001
0000
0010
0000
0000
1000
0000
0000
0100
0010
0001
0000
0100
0010
,
1000
0000
0001
0000
0100
0000
0010
1000
0100
0000
0010
0001
0100
0000
0010
0000
,
1000
0000
0010
0000
0100
0000
0000
1000
0000
0000
0100
0010
1000
0000
0100
0000
,
0010
0000
0001
0000
0100
0000
0001
0000
0010
0001
1000
0100
0010
0001
1000
0010
,
0100
0000
0010
0000
0000
0000
0100
0000
0001
0000
1000
0100
0010
0000
0001
0100
,
0010
1000
0002
0000
0000
0103
0010
0000
,
2000
0000
0000
0000
3001
0000
0020
0000
0000
0000
0130
1000
0010
0000
0100
0000
,
1000
0100
0002
0000
0000
0013
0100
0000
,
2002
0000
0000
3003
0000
0000
0220
0000
0330
0000
0000
1000
0001
0000
0100
0000
,
0101
0101
0001
1000
0100
0001
0000
0100
,
1000
0000
0010
0000
0100
0000
0001
0000
0000
0000
0100
0010
0100
0000
0001
0000
,
1010
1010
1000
0001
1000
0100
0000
0010
,
1000
0000
0010
0000
0001
0000
1000
0000
0000
0000
0010
0100
0010
1000
0001
0000
,
1001
1001
0001
0100
1000
0100
0001
0010
,
1000
0000
0000
0000
0000
0000
0010
0000
0000
0000
0000
0000
0100
0000
0000
0000
0000
0000
1000
0000
0000
0000
0000
0000
0000
0000
0000
0000
0000
0000
0001
0000
0000
0010
0000
0000
0001
0000
0000
0000
0000
0000
1000
0000
0100
0000
1000
0000
,
0100
1000
0010
0100
0001
0010
0100
1000
,
0001
0100
0010
1000
0001
1000
0100
0010
0001
1000
0010
0100
0010
1000
0001
0100
,
0010
0000
0100
0000
0001
0000
0000
1000
0000
0000
0100
0010
0001
0000
1000
0000
,
0010
0000
0001
0000
0010
0000
0000
0100
0000
0000
0001
1000
0100
0000
0010
0000
,
1000
0000
0010
0000
0001
0000
0000
0100
0000
0000
0001
0010
0100
0000
1000
0000
,
0001
0000
0100
0000
1000
0000
0000
0100
0000
0000
0001
1000
0100
0000
1000
0001
,
0010
0000
0001
0000
1000
0000
0100
0010
0001
0000
1000
0010
0100
0000
1000
0000
,
0100
0000
0001
0000
0010
0000
0000
0100
0000
0000
1000
0001
0010
0000
0100
0000
,
0001
0000
0100
0000
1000
0000
0010
0100
0001
0000
1000
0010
0100
0000
0001
0000
,
0010
0000
0100
0000
1000
0000
0001
1000
0010
0000
0100
0001
1000
0100
0010
0000
,
0001
0000
1000
0000
0100
0000
0000
0010
0000
0000
0001
0100
0010
0000
0001
0000
,
0010
0000
1000
0000
0001
0000
0000
1000
0000
0000
0100
0010
0001
0000
0100
0000
,
1000
0000
0100
0000
0010
0000
0000
1000
0000
0000
0001
0010
0100
0000
1000
0000
,
0100
0000
0001
0000
0100
0000
0000
1000
0000
0000
0010
0100
0001
0000
1000
0100
,
0010
0000
1000
0000
0010
0000
0001
0100
0010
0000
0100
0001
1000
0000
0100
0000
,
0010
0000
0001
0000
1000
0000
0000
0100
0000
0000
1000
0010
0100
0000
1000
0000
,
0100
0000
0001
0000
0010
0100
1000
0001
0100
0001
1000
0010
1000
0001
0010
0100
,
1000
0000
0100
0000
0001
0000
0100
0000
1000
0000
0010
0100
0010
0000
1000
0001
,
1000
0100
0020
0000
0031
0001
0100
0000
,
0020
0000
0000
0030
1000
0000
0200
0000
0000
0300
1000
0010
0100
0000
0001
0000
,
0010
0100
2000
0000
3100
0100
0010
0000
,
0002
0000
0000
0003
0100
0000
0020
0000
0000
0030
1000
0100
0010
0000
0001
0000
,
0100
1000
0200
0000
0301
0001
0010
0000
,
0200
0000
0000
0300
1000
0000
0002
0000
0000
0003
0010
0100
1000
0000
0001
0000
,
0100
1000
0200
0000
0010
0310
0100
2002
,
0000
3003
0000
0000
;

//--------------- dance-double - forcednature ----------------
#NOTES:
     dance-double:
     forcednature:
     Easy:
     8:
     0,0,0,0,0:
00000000
00000000
00000000
00000000
,
00000000
00000000
00000000
00000000
,
00000000
00000000
00000000
00000000
,
00000000
00000000
00000000
00000000
,
00000000
00000000
00000000
00000000
,
00000000
00000000
00000000
00000000
,
00000110
00000010
00000001
00000100
,
00001000
00000100
00000010
00001000
,
00000100
00000110
00000001
00000100
,
00001000
00001001
00001000
00000100
,
00000010
00000110
00001000
00010000
,
01000000
10000000
00010000
01000000
,
00100000
10010000
01000000
00100000
,
10000000
00010000
01100000
00000000
,
00001000
00000100
00010000
00001000
,
01000000
00010000
10000000
00100000
,
10000000
01000000
00100000
01000000
,
10000000
00010000
00100000
00010000
,
01000000
01000000
00100000
00100000
,
01000000
01000000
00100000
00100000
,
10000000
00010000
01000000
00100000
,
10010000
10010000
10010000
00000000
,
00100000
00000000
00100000
00000000
10000000
01000000
10000000
00000000
,
00100000
00010000
00100000
00000000
10000000
00000000
00010000
00000000
,
01000000
00000000
00001000
00000000
00010000
00000100
00010000
00000000
,
00001000
00100000
00001000
00000000
00010000
00000000
00000010
00000000
,
00001000
00000000
00000001
00000000
00000100
00000010
00000100
00000000
,
00000001
00000010
00000001
00000000
00000100
00000000
00000010
00000000
,
00001000
00000000
00000100
00000000
00010000
00001000
00010000
00000000
,
00100000
01000000
00100000
00000000
10000000
00000000
00010000
00000000
,
01100000
10000000
00010000
00100000
,
00010000
01000000
00001000
00000000
00010000
00001000
01000000
00000000
,
01100000
00010000
00100000
00001000
,
00010000
00000010
00001000
00000000
00000010
00001000
00000100
00000000
,
00000110
00000010
00000001
00000100
,
00000010
00001000
00000100
00000000
00000010
00000001
00000100
00000000
,
00001001
00001000
00000100
00010000
,
00001000
00010000
00000010
00000000
00001000
00000000
00000001
00000000
,
00000100
00000001
00000100
00000000
00000010
00001000
00000010
00000000
,
00010000
00001000
00010000
00000000
00001000
00000000
01000000
00000000
,
00010000
00100000
00010000
00000000
10000000
00100000
10000000
00000000
,
00010000
01000000
00010000
00000000
10000000
00000000
01000000
00000000
,
00100000
00010000
00100000
00000000
00001000
00010000
00001000
00000000
,
00010000
00000010
00010000
00000000
00000100
00000000
00001000
00000000
,
00001001
00000000
00000000
00000000
,
00010000
00010000
00010000
00010000
,
00011000
00000000
00010000
01000000
00100000
00000000
10000000
00000000
,
01100000
00000000
00100000
00010000
00001000
00000000
00010000
00000000
,
00001010
00000000
00000100
00000001
00000010
00000000
00000100
00000000
,
00011000
00000000
01000000
00010000
00100000
00000000
01000000
00000000
,
10010000
00000000
10000000
00100000
00010000
00000000
00001000
00000000
,
00001001
00000000
00000010
00000100
00000001
00000000
00001000
00000000
,
00010100
00000000
00001000
00100000
01000000
00000000
10000000
00000000
,
01010000
00000000
00100000
00001000
00010000
00000000
00000010
00000000
,
00001001
00000000
00000100
00000010
00000001
00000000
00001000
00000000
,
00010100
00000000
00001000
01000000
00010000
00000000
10000000
00000000
,
01100000
00000000
01000000
00010000
00100000
00000000
00001000
00000000
,
00010100
00000000
00001000
00000100
00000001
00000000
00000100
00000000
,
00001001
00000000
00000010
00000100
00000001
00000000
00010000
00000000
,
01001000
00000000
00010000
00100000
01000000
00000000
10000000
00000000
,
00110000
00000000
01000000
00001000
00010000
00000000
00000100
00000000
,
00001001
00000000
00000010
00000100
00000001
00000000
00001000
00000000
,
00000001
00000100
00000001
00001000
00000001
00000000
00000010
00000000
,
00000110
00000000
00000000
00000110
00000000
00000000
00000000
00000000
,
00010000
00100000
00001000
00100000
00010000
00000000
00100000
00000000
,
00011000
00000000
00000000
00011000
00000000
00000000
00000000
00000000
,
00011000
00001000
01000000
00100000
,
10000000
10000000
10000000
01000000
,
00100000
00010000
01000000
00001000
,
00000100
00000100
00000100
00000010
,
00001001
00000001
00000100
00001000
,
00010000
00010000
00010000
00100000
,
10000000
00010000
01000000
00010000
,
00022000
00000000
00000000
00033000
,
00010000
00001000
00010000
00000000
00001000
00000000
01000000
00000000
,
00010000
00100000
01000000
00000000
10000000
00100000
01000000
00000000
,
00010000
00100000
00001000
00000000
00010000
00000000
00000010
00000000
,
00001000
00000001
00000010
00000000
00000100
00001000
00000001
00000000
,
00000100
00000010
00001000
00000000
00000100
00000000
00000010
00000000
,
00000001
00000100
00000010
00000000
00010000
00001000
01000000
00000000
,
00010000
00100000
00010000
00100000
00000000
11000000
00000000
00220000
,
00000000
00330000
00101000
00011000
,
00010000
00000010
00001000
00000000
00000001
00000000
00000100
00000000
,
00000010
00001000
00000100
00000000
00000010
00000001
00000100
00000000
,
00000010
00010000
00001000
00000000
01000000
00000000
00010000
00000000
,
10000000
01000000
00100000
00000000
01000000
10000000
00010000
00000000
,
01000000
00001000
00010000
00000000
00000100
00000000
00001000
00000000
,
00000001
00000100
00000010
00000000
00001000
00000100
00000010
00000000
,
00000100
00001000
00000010
00000000
00010000
00000000
00000000
00011000
,
00000000
00001000
00000000
01001000
00000000
01000000
00000000
00000000
,
00010000
00000100
00001000
00000000
00000110
00000000
00001000
00000000
,
00000001
00000010
00001000
00000000
00011000
00000000
01000000
00000000
,
10000000
01000000
00001000
00000000
00011000
00000000
00000010
00000000
,
00000100
00001000
00000001
00000000
00000110
00000000
00000001
00000000
,
00000010
00001000
00010000
00000000
01100000
00000000
10000000
00000000
,
00010000
01000000
00100000
00000000
00011000
00000000
00000010
00000000
,
00001000
00000100
00000001
00000000
00000110
00000000
00000100
00000020
,
00000000
00000030
00000000
00000000
;

//--------------- dance-double - forcednature ----------------
#NOTES:
     dance-double:
     forcednature:
     Medium:
     12:
     0,0,0,0,0:
00000000
00000000
00000000
00000000
,
00000000
00000000
00000000
00000000
,
00000000
00000000
00000000
00000000
,
00000000
00000000
00000000
00000000
,
00000000
00000000
00000000
00000000
,
00000000
00000000
00000000
00000000
,
00011000
00000000
00010000
00000100
00001000
00000010
00000100
00001000
,
00010000
00000010
00001000
00000100
00000001
00000100
00001000
00000000
,
00000110
00000000
00000001
00001000
00000100
00001000
00010000
01000000
,
00100000
10000000
00100000
00010000
00001000
00010000
01000000
00000000
,
10010000
00000000
10000000
01000000
10000000
00100000
00010000
00001000
,
00000010
00000001
00000100
00001000
00000100
00000001
00000010
00000000
,
00000110
00000000
00000001
00000100
00001000
00010000
01000000
10000000
,
00100000
10000000
01000000
00010000
00001000
00010000
00100000
00000000
,
01000000
00100000
01000000
00010000
00000000
00100000
00001000
00000000
,
00010000
00000100
00010000
00000000
00001000
01000000
00001000
00000000
,
00010000
00000010
00001000
00000100
00000000
00000010
00000001
00000000
,
00000100
00000010
00000100
00000000
00000001
00001000
00000001
00000000
,
00000110
00000000
00001000
00000001
00000000
00001000
00000100
00000000
,
00010000
00001000
00010000
00000000
00100000
01000000
00100000
00000000
,
10000000
01000000
00010000
00000000
01000000
00100000
00010000
00000000
,
00001000
00000010
00000100
00000001
00000010
00001000
00010000
00000000
,
00001000
00100000
01000000
10000000
00100000
01000000
10000000
01000000
,
00010000
00100000
00001000
00010000
00000000
00000100
00000010
00000000
,
00000001
00000100
00001000
00000100
00000001
00000010
00001000
00010000
,
00100000
10000000
01000000
00010000
01000000
10000000
00100000
00000000
,
10000000
00010000
01000000
00000000
00100000
10000000
00010000
00000000
,
10000000
01000000
00010000
00001000
00000000
00000100
00000010
00000000
,
00001000
00000001
00000100
00000000
00000001
00001000
00000100
00000000
,
00000010
00000100
00001000
00000000
00000100
00010000
00001000
01000000
,
00001000
00000000
00000000
00000100
00000000
00000000
00001000
00000000
00000000
00010000
00000000
00000000
00001000
00000000
00000000
00000010
,
00000000
00001000
00010000
01000000
10000000
00010000
01000000
00010000
,
00001000
00000100
00000010
00000001
00000100
00001000
00010000
00000000
,
01000000
10000000
00100000
10000000
01000000
00010000
00001000
00000000
,
00010000
00000000
00000000
01000000
00000000
00000000
00010000
00000000
00000000
00001000
00000000
00000000
00010000
00000000
00000000
00100000
,
00000000
00010000
00001000
00000010
00000001
00001000
00000010
00000000
,
00001000
00000100
00010000
00001000
01000000
00010000
10000000
00100000
,
10000000
01000000
00100000
01000000
10000000
00010000
01000000
00000000
,
00001000
00000000
00000000
00000100
00000000
00000000
00001000
00000000
00000000
00100000
00000000
00000000
00001000
00000000
00000000
00000100
,
00000000
00001000
00010000
00100000
10000000
01000000
00100000
00001000
,
00010000
00000100
00000010
00001000
00010000
00000000
00000010
00000100
,
00000001
00000100
00001000
00010000
00000000
10000000
01000000
00010000
,
00001000
00000000
00000000
00000010
00000000
00000000
00001000
00000000
00000000
01000000
00000000
00000000
00001000
00000000
00000000
00000010
,
00000000
00001000
00000100
00001000
00010000
01000000
00100000
10000000
,
00010000
00100000
00000000
00001000
00010000
00000100
00010000
00001000
,
01000000
00010000
00001000
00000100
00000000
00000010
00000001
00000100
,
00000001
00000000
00000001
00000000
00001000
00000000
00000000
00000100
00000000
00000000
00010000
00000000
00001000
00000000
01000000
00000000
,
00010000
00000000
10000000
00000000
00100000
00000000
00000000
01000000
00000000
00000000
00010000
00000000
00100000
00000000
10000000
00000000
,
00100000
00000000
00010000
00000000
01000000
00000000
00000000
00001000
00000000
00000000
00000100
00000000
00000001
00000000
00001000
00000000
,
00000100
00000000
00000010
00000000
00000001
00000000
00000000
00000100
00000000
00000000
00000010
00000000
00001000
00000000
00000100
00000000
,
00001000
00010000
01000000
00010000
00100000
00000000
10000000
00100000
,
00000000
01100000
00000000
01000000
10000000
00010000
01000000
00010000
,
00001000
00000100
00000010
00000001
00000100
00000000
00000001
00001000
,
00000000
00000110
00000000
00000001
00000100
00001000
00010000
01000000
,
10000000
00000000
10000000
00000000
00010000
00000000
00000000
10000000
00000000
00000000
00100000
00000000
10000000
00000000
01000000
00000000
,
00010000
00000000
01000000
00000000
00100000
00000000
00000000
00001000
00000000
00000000
00010000
00000000
00000010
00000000
00001000
00000000
,
00000100
00000000
00000001
00000000
00000100
00000000
00000000
00001000
00000000
00000000
00000010
00000000
00000100
00000000
00000001
00000000
,
00000100
00000000
00001000
00000000
00010000
00000000
00000000
01000000
00000000
00000000
10000000
00000000
00010000
00000000
10000000
00000000
,
01000000
00010000
00001000
00100000
00010000
00000000
00001000
00000100
,
00000000
00001001
00000000
00000001
00000100
00001000
00010000
00000100
,
00001000
00010000
01000000
00100000
10000000
00010000
00100000
10000000
,
00000000
00100000
01000000
10000000
00010000
01000000
00010000
00001000
,
00000100
00001000
00000010
00000000
00000100
00000001
00000101
00000000
,
00000001
00000100
00001000
00000000
00001000
00010000
00011000
00000000
,
01000000
00010000
00100000
00000000
01000000
10000000
11000000
00000000
,
10010000
00000000
10000000
00010000
00100000
10000000
00100000
00000000
,
00010000
00010000
00100000
00010000
00001000
00000010
00001000
00000100
,
00001000
00000001
00000100
00002000
00003000
00010000
01010000
01000000
,
00100000
00100000
00010000
01000000
10000000
01000000
00010000
00100000
,
00010000
00001000
00000100
00000002
00000003
00000100
00000110
00000010
,
00000001
00000001
00000100
00001000
00010000
00000010
00001000
00010000
,
00100000
10000000
00100000
02000000
03000000
10000000
10010000
00010000
,
01000000
01000000
00010000
00001000
00000010
00001000
00000100
00000001
,
00000100
00001000
00010000
10000000
00100000
00010000
00001000
00000010
,
00000001
00000000
00000001
00000000
00001000
00000000
00000000
00000010
00000000
00000000
00000100
00000000
00001000
00000000
00100000
00000000
,
00010000
00000000
10000000
00000000
00100000
00000000
00000000
01000000
00000000
00000000
00010000
00000000
00100000
00000000
00001000
00000000
,
00010000
00000000
00000100
00000000
00001000
00000000
00000000
00000001
00000000
00000000
00000100
00000000
00001000
00000000
00010000
00000000
,
01000000
00000000
10000000
00000000
00010000
00000000
00000000
10000000
00000000
00000000
00100000
00000000
10000000
00000000
01000000
00000000
,
00010000
01000000
00100000
00010000
00001000
00000100
00001000
00000010
,
00000000
00001001
00000000
00000001
00000100
00000001
00000010
00001000
,
00000010
00000100
00001000
00010000
00100000
01000000
10000000
00010000
,
00000000
10010000
00000000
10000000
00100000
10000000
01000000
00010000
,
00001000
00000000
00001000
00000000
00010000
00000000
00000000
00000100
00000000
00000000
00001000
00000000
00000010
00000000
00000100
00000000
,
00000001
00000000
00000010
00000000
00001000
00000000
00000000
00000010
00000000
00000000
00000100
00000000
00010000
00000000
00001000
00000000
,
01000000
00000000
00010000
00000000
00100000
00000000
00000000
01000000
00000000
00000000
10000000
00000000
00100000
00000000
00010000
00000000
,
00100000
00000000
10000000
00000000
01000000
00000000
00000000
00010000
00000000
00000000
00001000
00000000
00000100
00000000
00000001
00000000
,
00000100
00000010
00001000
00000001
00000100
00001000
00010000
00000100
,
00000000
00011000
00000000
01000000
00010000
10000000
00100000
10000000
,
01000000
00010000
00001000
00010000
00100000
10000000
00010000
00001000
,
00000000
00000000
00000010
00000000
00001000
00000000
00000001
00000000
00000100
00000000
00000010
00000100
00000010
00000000
00000000
00000000
,
00000100
00000001
00000010
00001000
00010000
00100000
10000000
00010000
,
01000000
00100000
10000000
00100000
01000000
00010000
00002000
00003000
,
00000010
00001000
00000001
00000100
00001000
00010000
01000000
10000000
,
00100000
00010000
00001000
00000010
00000001
00000100
00000002
00000003
,
00001000
00000100
00001000
00010000
01000000
00010000
10000000
00100000
,
10000000
01000000
00010000
00001000
00000100
00000001
00000020
00000030
,
00000100
00001000
00010000
01000000
00100000
10000000
00100000
00020000
,
00000000
00030000
00000000
00000000
;

//--------------- dance-double - forcednature ----------------
#NOTES:
     dance-double:
     forcednature:
     Hard:
     14:
     0,0,0,0,0:
00000000
00000000
00000000
00000000
,
00000000
00000000
00000000
00000000
,
00000000
00000000
00000000
00000000
,
00000000
00000000
00000000
00000000
,
00000000
00000000
00000000
00000000
,
00001000
00010000
01000000
00010000
00001000
00000100
00001000
00010000
,
00001000
00000000
00000000
00000000
00100000
01000000
00100000
00000000
00010000
00000000
10000000
00000000
01000000
00000000
00010000
00000000
,
00001000
00000100
00000001
00000010
00000100
00000001
00000100
00001000
,
00000010
00000000
00000000
00000000
00001000
00000100
00001000
00000000
00000010
00000000
00000100
00000000
00001000
00000000
00010000
00000000
,
01000000
10000000
00100000
00010000
00001000
00000010
00000001
00000100
,
00000010
00000000
00000000
00000000
00010000
00001000
00010000
00000000
00100000
00000000
10000000
00000000
01000000
00000000
00100000
00000000
,
10000000
00100000
00010000
01000000
00010000
00001000
00000010
00001000
,
00000001
00000000
00000000
00000000
00000010
00000100
00000010
00000000
00000001
00000000
00000100
00000000
00001000
00000000
00010000
00000000
,
00001000
00000000
00000010
00000000
00000001
00000000
00000100
00000000
00001000
00010000
00001000
00000000
00100000
00000000
00000000
00000000
,
01000000
10000000
00100000
00010000
00000000
00001000
00010000
00001000
,
00000010
00000001
00000000
00000100
00001000
00010000
00000100
00000000
,
00010000
01000000
10000000
00100000
01000000
00010000
00001000
00000100
,
00000000
00000110
00000000
00010000
00001000
00000000
00000100
00000001
,
00000010
00001000
00010000
00000000
00100000
01000000
01100000
00000000
,
10000000
00000000
00010000
00001000
00000000
00000010
00000100
00000001
,
00000000
00000010
00000100
00000000
00010000
00001000
00000100
00000000
,
00000010
00000000
00001000
00000000
00000100
00000000
00000000
00000000
00000001
00000000
00000100
00001000
00000100
00000000
00010000
00001000
,
00010000
00100000
01000000
10000000
00010000
00100000
10000000
01000000
,
00000000
00011000
00000000
00001000
00000010
00000001
00000100
00000000
,
00000010
00001000
00010000
01000000
00100000
00010000
00001000
00100000
,
00000000
10010000
00000000
10000000
01000000
00010000
00001000
00000100
,
00000001
00001000
00000100
00000000
00000000
00000010
00001000
00010000
,
00100000
00000000
01000000
10000000
00000000
00010000
00001000
00000010
,
00000001
00001000
00000100
00000000
00000000
00000010
00000110
00000000
,
00000001
00000000
00000000
00000000
00010100
00000000
00000000
00000000
00010000
00001000
00010000
00001000
00010000
00001000
00010000
00000000
,
00000100
00000000
00000000
00010000
00001000
00000000
01000000
00000000
00000000
00001000
00010000
00000000
00000100
00000000
00000000
00010000
,
00001000
00000000
00100000
00010000
00100000
00000000
01000000
10000000
01000000
00000000
00010000
00000000
00001000
00000000
00000000
00000000
,
00000100
00000001
00000100
00001000
00010000
01000000
10000000
01000000
,
00010000
00001000
00000100
00000001
00000100
00001000
00010000
00000000
,
00000010
00000000
00000000
00010000
00001000
00000000
00100000
00000000
00000000
00001000
00010000
00000000
00000010
00000000
00000000
00010000
,
00001000
00000000
00000100
00000010
00000100
00000000
00000001
00000010
00000001
00000000
00001000
00000000
00000010
00000000
00000000
00000000
,
00010000
00100000
10000000
01000000
00010000
00001000
00000010
00000001
,
00000100
00001000
00010000
00100000
10000000
01000000
00010000
00000000
,
00000100
00000000
00000000
00010000
00001000
00000000
00100000
00000000
00000000
00001000
00010000
00000000
00000100
00000000
00000000
00010000
,
00001000
00000000
00100000
01000000
00100000
00000000
00001000
00010000
00001000
00010000
00001000
00000000
00000010
00000000
00000000
00000000
,
00000001
00001000
00000100
00010000
01000000
10000000
00010000
01000000
,
00001000
00000100
00000001
00001000
00000010
00010000
00100000
00000000
,
01000000
00000000
00000000
00001000
00010000
00000000
00000010
00000000
00000000
00010000
00001000
00000000
01000000
00000000
00000000
00001000
,
00010000
00000000
00000010
00000100
00000010
00000000
00010000
00000100
00010000
00000100
00010000
00000000
02000000
00000000
03000000
00000000
,
11000000
10000000
00000000
00010000
00001000
00000010
00000100
00000001
,
00001000
00000100
00010000
00100000
00000000
10000000
01000000
00010000
,
00001000
00000000
00000010
00000000
00001001
00000000
00000000
00000110
00000000
00000000
00000001
00000000
00000100
00000000
00000010
00000000
,
00001000
00000000
00010000
00000000
01010000
00000000
00000000
10100000
00000000
00000000
10000000
00000000
01000000
00000000
00010000
00000000
,
00001000
00000000
00000010
00000000
00000110
00000000
00000000
00001100
00000000
00000000
00000001
00000000
00001000
00000000
00000100
00000000
,
00010000
00000000
01000000
00000000
10100000
00000000
00000000
01010000
00000000
00000000
10000000
00000000
01000000
00000000
00100000
00010000
,
00100000
00000000
00001000
00000000
00000010
00000000
00000001
00000000
00000100
00000000
00000010
00001000
00000010
00000000
00001100
00000000
,
00000000
01010000
00000000
00001000
00010000
01000000
10000000
00100000
,
00010000
00000000
00000100
00000000
00000010
00000000
00000001
00000000
00000100
00000000
00000010
00001000
00000010
00000000
00001001
00000000
,
00000000
00000000
00011000
00000000
00000000
00000000
01000000
00010000
01000000
00000000
00100000
10000000
00100000
10000000
00100000
00000000
,
10000000
00000000
01000000
00000000
00110000
00000000
00000000
01100000
00000000
00000000
10000000
00000000
00010000
00000000
01000000
00000000
,
00001000
00000000
00010000
00000000
00001100
00000000
00000000
00010010
00000000
00000000
00000001
00000000
00000010
00000000
00001000
00000000
,
00010000
00000000
00100000
00000000
10010000
00000000
00000000
01100000
00000000
00000000
10000000
00000000
00100000
00000000
01000000
00000000
,
00001000
00000000
00010000
00000000
00010100
00000000
00000000
00101000
00000000
00000000
00100000
00010000
00100000
00000000
00000100
00001000
,
00000100
00000000
00000010
00000000
00000001
00000000
00001000
00000000
00000100
00000000
00010000
00001000
00010000
00000000
01001000
00000000
,
00000000
10100000
00000000
10000000
01000000
00010000
00001000
00000100
,
00000001
00000000
00001000
00000000
00000010
00000000
00010000
00000000
00001000
01000000
00001000
01000000
00001000
01000000
00001000
00000000
,
00010000
00000000
00000100
00000000
00000000
00000000
00000010
00000000
00001000
00000000
00010000
00000100
00010000
00000000
00001000
00100000
,
00001000
00100000
01100000
00000000
00000000
10000000
11000000
00000000
,
10020000
00000000
00130000
00201000
00000000
00310000
00000010
00000100
,
00001000
00000001
00002100
00000000
00000000
01003000
01010000
00000000
,
00220000
00000000
00330000
00002020
00000000
00000000
00003030
00000000
,
00011000
00011000
00000000
00010000
01000000
10000000
00010000
00100000
,
10000000
00010000
00001000
00000100
00000000
00000001
00001001
00001000
,
00001100
00001100
00000100
00010000
00001000
01000000
00000000
00100000
,
10000000
00000000
01000000
00000000
00100000
00000000
00001000
00000000
00000000
00000000
00010000
00000010
00010000
00000010
00010000
00000000
,
00001001
00001001
00000000
00000001
00000100
00001000
00010000
01000000
,
10000000
00000000
00010000
00000000
01000000
00000000
00100000
00000000
00000000
00000000
10000000
00100000
10000000
00000000
00001000
01000000
,
00001000
00010000
00000100
00000010
00000001
00000100
00001000
00010000
,
01000000
10000000
01000000
10000000
01000000
10000000
01000000
10000000
01000000
00000000
00100000
00000000
00001000
00000000
00010000
00000000
,
00000010
00000000
00000100
00000000
00000101
00000000
00000000
00001100
00000000
00000000
00010000
00000000
01000000
00000000
10000000
00000000
,
00100000
00000000
01000000
00000000
10010000
00000000
00000000
01100000
00000000
00000000
00001000
00000000
00010000
00000000
00000010
00000000
,
00001000
00000000
00010000
00000000
01010000
00000000
00000000
10100000
00000000
00000000
00010000
00000000
10000000
00000000
00100000
00000000
,
00010000
00000000
00001000
00000000
00001010
00000000
00000000
00000011
00000000
00000000
00000001
00000000
00000100
00000000
00000010
00001000
,
00000010
00000000
00000100
00000000
00001000
00000000
00010000
00000000
01000000
00000000
10000000
00100000
10000000
00000000
11000000
00000000
,
00000000
00110000
00000000
10000000
01000000
00010000
00001000
00000100
,
00000001
00000000
00001000
00000000
00000010
00000000
00000100
00000000
00000001
00000000
00000010
00000100
00000010
00000000
00001100
00000000
,
00000000
00000000
01010000
00000000
00000000
00000000
00010000
00001000
00010000
00000000
00000100
00001000
00000100
00001000
00000100
00000000
,
00010000
00000000
00001000
00000000
00110000
00000000
00000000
11000000
00000000
00000000
10000000
00000000
00100000
00000000
00010000
00000000
,
00001000
00000000
00000010
00000000
00000011
00000000
00000000
00001100
00000000
00000000
00000001
00000000
00000100
00000000
00000010
00000000
,
00010000
00000000
00001000
00000000
00110000
00000000
00000000
11000000
00000000
00000000
10000000
00000000
00100000
00000000
00010000
00000000
,
00001000
00000000
00010000
00000000
01010000
00000000
00000000
01100000
00000000
00000000
10000000
01000000
10000000
00000000
00010000
00100000
,
00010000
00000000
01000000
00000000
00001000
00000000
00010000
00000000
00000100
00000000
00010000
00001000
00010000
00000000
00110000
00000000
,
00000000
00001010
00000000
00000001
00001000
00000100
00010000
01000000
,
10000000
00000000
00010000
00000000
01000000
00010000
01000000
00010000
01000000
00010000
01000000
00010000
10000000
00000000
00010000
00000000
,
10010000
00000000
10000000
00000000
01000000
00000000
00010000
00000000
00001000
00000000
00000100
00000001
00000100
00000000
00000000
00000010
,
00001000
00000100
00010000
00001000
01000000
00010000
10000000
00100000
,
10000000
00000000
01000000
00000000
00010000
00000000
00001000
00000000
00000100
00000000
00000001
00001000
00000001
00000000
00000010
00000000
,
00000100
00010000
01000000
10000000
00100000
01000000
00001000
00010000
,
00000100
00000000
00000010
00000000
00000001
00000000
00001000
00000000
00000010
00000000
00010000
00001000
00010000
00000000
00100000
00000000
,
01000000
00010000
10000000
01000000
00010000
00001000
00000100
00000010
,
00001000
00000000
00000001
00000000
00001000
00000000
00000100
00000000
00000010
00000000
00000001
00000100
00000001
00000000
00001000
00000000
,
00000100
00010000
00100000
01000000
10000000
01000000
00010000
00002000
,
00000000
00003000
00000000
00000000
;

//--------------- dance-double - forcednature ----------------
#NOTES:
     dance-double:
     forcednature:
     Challenge:
     16:
     0,0,0,0,0:
00000000
00000000
00000000
00000000
,
00000000
00000000
00000000
00000000
,
00000000
00000000
00000000
00000000
,
00000000
00000000
00000000
00000000
,
00000000
00000000
00000000
00000000
,
00010000
00001000
00010000
00001000
00010000
00001000
00010000
00001000
00010000
00001000
00010000
00001000
00010000
00001000
00010000
00001000
,
00010000
00000000
00000010
00000100
00001000
00010000
00100000
01000000
10000000
00000000
01000000
00000000
00100000
00000000
10000000
00000000
,
01000000
00000000
00010000
00000000
00001000
00000000
00100000
00000000
01000000
00000000
00010000
00001000
00000100
00000000
00001000
00000000
,
00010000
00000000
01000000
00100000
00010000
00001000
00000100
00000010
00000001
00000000
00000100
00000000
00000010
00000000
00001000
00000000
,
00000100
00000000
00000000
00000000
00000000
00000000
00010000
00000000
00000000
01000000
00000000
00000000
00100000
00000000
00000000
01000000
00000000
00000000
10000000
00000000
00000000
00000000
00000000
00000000
00100000
00000000
00000000
00000000
00000000
00000000
01000000
00000000
00000000
00001000
00000000
00000000
00020000
00000000
00030000
00000000
00000000
00000000
00000100
00000000
00000000
00010000
00000000
00000000
,
00001000
00000000
00000100
00000010
00001000
00010000
01000000
00100000
10000000
00000000
00010000
00000000
10000000
00000000
00100000
00000000
,
00010000
00000000
00001000
00000000
00000010
00000000
00010000
00000000
00100000
00000000
01000000
10000000
00100000
00000000
01000000
00000000
,
00010000
00000000
10000000
00100000
01000000
00010000
00001000
00000010
00000100
00000000
00001000
00000000
00010000
00000000
00000100
00000000
,
00000010
00000000
00001000
00000000
00010000
00000000
00100000
00000000
10000000
00010000
01000000
00010000
00100000
00001000
00010000
00000100
,
00001000
01000000
10000000
00010000
01000000
00010000
00001000
00000010
,
00001000
00000000
00000100
00000000
00000010
00000000
00000001
00000000
00000100
00000000
00001000
00010000
01000000
00000000
10000000
00000000
,
00010000
01000000
00001000
00000100
00000010
00001000
00000100
00000010
,
00000001
00000000
00001000
00000000
00000010
00000000
00000100
00000000
00001000
00000000
00010000
00001000
00000010
00000000
00000100
00001000
,
00010000
01000000
00100000
10000000
01000000
00010000
00001000
00000100
,
00000001
00000000
00001000
00000000
00010000
00000000
00100000
00000000
00001000
00000000
00010000
00001000
00000100
00000000
00000001
00000000
,
00001000
00000100
00010000
00001000
00100000
01000000
10000000
00000000
,
00010000
00000000
00100000
00000000
00001000
00000000
00000100
00000000
00000001
00000000
00000100
00001000
00010000
00000000
00001000
00010000
,
00100000
10000000
01000000
00010000
00001000
00000100
00001000
00010000
,
01000000
00000000
00100000
00000000
00010000
00000000
00001000
00000000
00000010
00000000
00000100
00000001
00000010
00000000
00001000
00000000
,
00010000
01000000
10000000
00010000
01000000
10000000
01000000
00010000
,
00001000
00000000
00100000
00000000
01000000
00000000
00001000
00000000
00010000
00000000
00000100
00001000
00000010
00000000
00000100
00001000
,
00010000
01000000
10000000
00010000
01000000
00001000
00000010
00000001
,
00001000
00000000
00000100
00000000
00010000
00000000
00001000
00000000
01000000
00000000
00100000
10000000
01000000
00000000
00100000
00000000
,
00001000
00010000
00000100
00000010
00000001
00001000
00000100
00010000
,
00001000
00000000
01000000
00000000
00100000
00000000
10000000
00000000
01000000
00100000
00010000
01000000
00001000
00010000
00001000
00000100
,
00000010
00000000
00010000
00001000
00010000
00000000
00100000
00000000
00010000
00001000
00010000
00000000
00000010
00000000
00010000
00001000
,
00010000
00000000
01000000
10000000
00100000
00000000
01000000
00010000
00100000
01000000
10000000
00000000
00010000
00100000
00001000
00000000
,
00011000
00000000
00010000
00000000
00000100
00000000
00000010
00000001
00000000
00001000
00000100
00010000
00001000
00000000
01000000
00010000
,
10000000
00000000
00100000
00000000
01000000
00000000
00010000
00100000
00000000
00001000
00010000
00000100
00001000
00000010
00010000
00000000
,
00000100
00000000
00010000
00001000
00010000
00000000
01000000
00000000
00010000
00001000
00010000
00000000
00000100
00000000
00010000
00001000
,
00010000
00000000
00000000
00000000
00000000
00000000
00000010
00000000
00001000
00000000
00000010
00000000
00001000
00000000
00000000
00000000
00000000
00000000
00000001
00000000
00000000
00000010
00000000
00000000
00000100
00000000
00000000
00010000
00000000
00000000
00001000
00000000
00000000
00000000
00000000
00000000
00010000
00000000
00000000
00100000
00000000
00000000
01000000
00000000
00000000
00010000
00000000
00000000
,
00100000
00000000
01000000
00000000
10000000
00000000
00010000
01000000
00000000
00000000
00001000
00000100
00000010
00000000
00001000
00000100
,
00000010
00000000
00000001
00000000
00000100
00000000
00000001
00001000
00000000
00000000
00000100
00010000
00001000
01000000
00010000
00000000
,
01000000
00000000
00001000
00010000
00001000
00000000
00000010
00000000
00001000
00010000
00001000
00000000
01000000
00000000
00001000
00010000
,
00001000
00000000
00000000
00000000
00000000
00000000
10000000
00000000
01000000
00000000
10000000
00000000
01000000
00000000
00000000
00000000
00000000
00000000
00100000
00000000
00010000
00000000
00100000
00000000
00010000
00000000
00000000
01000000
00000000
00000000
00001000
00000000
00000000
00000000
00000000
00000000
00010000
00000000
00000000
00000000
00000000
00000000
00000100
00000000
00000000
00001000
00000000
00000000
,
00000010
00000000
00000100
00000000
00000001
00000000
00000010
00000100
00000000
00010000
00001000
00010000
00100000
00000000
01000000
00010000
,
00100000
00000000
01000000
00000000
01100000
00000000
01100000
00000000
10000000
00000000
00010000
00100000
00001000
00010000
00000010
00000000
,
00000100
00000000
00001000
00010000
00001000
00000000
00100000
00000000
00001000
00010000
00001000
00000000
00000100
00000000
00001000
00010000
,
00001000
00000000
00000000
00000000
00000000
00000000
00000000
00000000
00000000
00000000
00000000
00000000
00000000
00000000
00000000
00000000
00000000
00000000
00000000
00000000
00000000
00000000
00000000
00000000
10000000
00000000
00000000
00000000
00000000
00000000
00000000
00000000
01000000
00000000
00000000
00000000
00000000
00000000
00000000
00000000
10000000
00000000
00000000
00000000
00000000
00000000
00000000
00000000
01000000
00000000
00000000
00000000
00000000
00000000
00000000
00000000
00000000
00000000
00000000
00000000
00000000
00000000
00000000
00000000
00000000
00000000
00000000
00000000
00000000
00000000
00000000
00000000
00100000
00000000
00000000
00000000
00000000
00000000
00000000
00000000
00000000
00000000
00000000
00000000
00000000
00000000
00000000
00000000
00000000
00000000
00000000
00000000
00000000
00000000
00000000
00000000
00001000
00000000
00000000
00000000
00000000
00000000
00000000
00000000
00000000
00000000
00000000
00000000
00010000
00000000
00000000
00000000
00000000
00000000
00000000
00000000
00000000
00000000
00000000
00000000
00000100
00000000
00000000
00000000
00000000
00000000
00000000
00000000
00000000
00000000
00000000
00000000
00000010
00000000
00000000
00000000
00000000
00000000
00000000
00000000
00000000
00000000
00000000
00000000
00000002
00000000
00000000
00000000
00000000
00000000
00000000
00000000
00000000
00000000
00000000
00000000
00000000
00000003
00000000
00000000
00000000
00000000
00000000
00000000
00000000
00000000
00000000
00000000
00001000
00000000
00000000
00000000
00000000
00000000
00000000
00000000
00000000
00000000
00000000
00000000
00000100
00000000
00000000
00000000
00000000
00000000
00000000
00000000
00000000
00000000
00000000
00000000
,
00010000
00100000
00000000
10000000
00010000
00001000
00000001
00000100
,
00000001
00000010
00000100
00010000
00001000
00000010
00000100
00010000
00001000
01000000
00100000
00010000
00001000
00100000
01000000
10000000
,
00100000
00000000
00010000
00000000
00001000
00000000
00000000
00000010
00000000
00000000
00001000
00010000
01000000
00000000
10000000
00000000
,
00100000
00000000
00010000
00000000
00001000
00000000
00000000
00010000
00000000
00000000
00000100
00001000
00000010
00000000
00010000
00000000
,
00100000
00000000
10000000
00000000
01000000
00000000
00000000
00100000
00000000
00000000
00001000
00010000
00000100
00000000
00000010
00000000
,
00000001
00000000
00000100
00000000
00000010
00000000
00000000
00010000
00000000
00000000
00001000
00010000
00100000
00000000
00010000
00001000
,
00000010
00000000
00000001
00000000
00001000
00000000
00000100
00010000
00001000
00000000
00100000
01000000
10000000
00000000
00100000
00000000
,
00010000
00000000
00001000
00000000
00000100
00000000
00000000
00000001
00000000
00000000
00000010
00000100
00001000
00000000
00000001
00000000
,
00001000
00000000
00000100
00000000
00010000
00000000
00001000
00100000
00010000
00000000
10000000
00100000
01000000
00000000
00010000
00000000
,
00001000
00000000
00000001
00000000
00000100
00000000
00000001
00000100
00000010
00000000
00001000
00010000
01000000
00010000
00100000
00000000
,
10000000
00000000
00100000
00000000
00010000
00000000
00000000
01000000
00000000
00000000
00001000
00010000
00000100
00000000
00000010
00000000
,
00000100
00000000
00001000
00000000
00000001
00000000
00000000
00000100
00000000
00000000
00000001
00000010
00000100
00000000
00010000
00000000
,
00001000
00000000
00100000
00000000
01000000
00000000
00000000
10000000
00000000
00000000
01000000
00010000
00001000
00000000
00000100
00000000
,
00000001
00000000
00001000
00000000
00000100
00000000
00000000
00010000
00000000
00000000
00001000
00100000
00010000
00000000
01000000
00100000
,
10000000
00000000
00100000
00000000
00010000
00000000
00001000
00000100
00001000
00000000
00010000
00001000
00000010
00000000
00000001
00000000
,
00001000
00000000
00000100
00000000
00010000
00000000
00000000
00001000
00000000
00000000
00100000
01000000
10000000
00000000
00100000
00000000
,
00010000
00000000
00001000
00000000
00000100
00000000
00000001
00000000
00000010
00000100
00001000
00000001
00000010
00001000
00010000
00001000
,
00000100
00000000
00000001
00000000
00000000
00000000
00010000
00000000
01000000
00000000
10000000
01000000
00100000
00000000
00010000
00100000
,
00001000
00010000
00200000
00000000
00000000
10300000
00010000
00000000
,
00000200
00000000
00000000
00000300
00000001
00000000
00000020
00000000
00000000
00000030
00000100
00001000
00010000
00000000
01000000
00000000
,
10000000
01000000
00020000
00000000
00000000
00030100
00000001
00000000
,
00020020
00000000
00000000
00030030
00000000
00000000
02200000
00000000
03300000
00000000
00000000
10000000
00010000
00000000
00100000
00000000
,
00011000
00011000
00000100
00001000
00010000
01000000
00000000
00100000
,
10000000
00000000
01000000
00000000
00010000
00000000
00001000
00000000
00000000
00000000
00000100
00000001
00000100
00000000
00000010
00000000
,
00001001
00001001
00000001
00001000
00010000
10000000
00000000
00100000
,
10000000
00000000
00010000
00000000
01000000
00000000
00001000
00000000
00000000
00000000
00100000
00001000
00010000
00000100
00010000
00000000
,
00011000
00011000
00100000
00001000
00010000
00000100
00000010
00001000
,
00010000
00000000
00000000
00000000
00000000
00000000
00100000
00000000
00000000
00000000
00000000
00000000
10000000
00000000
00000000
00000000
00000000
00000000
00010000
00000000
00000000
00000000
00000000
00000000
00000000
00000000
00000000
00000000
00000000
00000000
10000000
00000000
00000000
01000000
00000000
00000000
10000000
00000000
00000000
00000000
00000000
00000000
00010000
00000000
01000000
00000000
00010000
00000000
,
01000000
00001000
00000100
00000001
00001000
00000100
00010000
01000000
,
10000000
01000000
00100000
00010000
01000000
00100000
00010000
00001000
00000010
00000100
00010000
00001000
00000100
00000001
00001000
00000001
,
00000100
00000000
00001000
00000000
00010000
00000000
00000000
01000000
00000000
00000000
10000000
00100000
01000000
00000000
00010000
00000000
,
00001000
00000000
00000100
00000000
00000010
00000000
00000000
00000001
00000000
00000000
00001000
00000100
00010000
00000000
00001000
00000000
,
00010000
00000000
00100000
00000000
10000000
00000000
00000000
01000000
00000000
00000000
00100000
00001000
00010000
00000000
00000100
00000000
,
00010000
00000000
00001000
00000000
00000010
00000000
00000000
00000001
00000000
00000000
00000100
00000010
00001000
00000000
00000100
00000010
,
00000001
00000000
00001000
00000000
00000100
00000000
00010000
00001000
00100000
00000000
00010000
01000000
00100000
00000000
00010000
00000000
,
00001000
00000000
00000010
00000000
00000001
00000000
00000000
00000100
00000000
00000000
00000010
00001000
00000100
00000000
00010000
00000000
,
01000000
00000000
10000000
00000000
00100000
00000000
01000000
00010000
00001000
00000000
00000010
00001000
00000100
00000000
00000010
00000000
,
00000001
00000000
00000100
00000000
00001000
00000000
00010000
01000000
10000000
00000000
01000000
00100000
00010000
01000000
00100000
00000000
,
00010000
00000000
00001000
00000000
00000010
00000000
00000000
00000100
00000000
00000000
00001000
00000001
00000100
00000000
00000010
00000000
,
00010000
00000000
00001000
00000000
00100000
00000000
00000000
01000000
00000000
00000000
10000000
00010000
00100000
00000000
00001000
00000000
,
00010000
00000000
00000100
00000000
00000010
00000000
00000000
00001000
00000000
00000000
00010000
00001000
00000100
00000000
00000001
00000000
,
00001000
00000000
00000100
00000000
00010000
00000000
00000000
00001000
00000000
00000000
00100000
01000000
10000000
00000000
00100000
00010000
,
00001000
00000000
00000010
00000000
00000001
00000000
00001000
00000100
00010000
00000000
00001000
01000000
00010000
00000000
00100000
00000000
,
01000000
00000000
10000000
00000000
00010000
00000000
00000000
01000000
00000000
00000000
00001000
00010000
00000100
00000000
00001000
00000000
,
00000010
00000000
00010000
00000000
00100000
10000000
00010000
00100000
00001000
00010000
00000100
00000010
00001000
00010000
00000010
00000100
,
00001000
00000000
01000000
00000000
00010000
00000000
00100000
00000000
10000000
00000000
00010000
00001000
00000100
00000000
00001000
00010000
,
00000100
00000010
00000002
00000000
00000103
00000100
00000010
00000000
,
00200000
00000000
00000000
00300000
01000000
00000000
20000000
00000000
00000000
30000000
00100000
01000000
00010000
00000000
00100000
00000000
,
00001000
00000010
00000002
00000000
00000103
00000100
00000001
00000000
,
00020000
00000000
00000000
00030000
00000100
00000000
02000000
00000000
00000000
03000000
00010000
01000000
00100000
00000000
00010000
00000000
,
00001000
00000100
00002000
00000000
00013000
00010000
00100000
00000000
,
02000000
00000000
00000000
03000000
00001000
00000000
00020000
00000000
00000000
00030000
00000100
00001000
00000010
00000000
00000100
00000000
,
00000001
00000000
00000100
00000000
00002000
00000000
00000000
00000000
00100000
00000000
00100000
00003000
00001000
00000000
00022000
00000000
,
00000000
00033000
00000000
00000000
;
