#TITLE:U.S.A.;
#SUBTITLE:;
#ARTIST:Remixed by BEMANI Sound Team "PHQUASE feat. TRANDER Jr.";
#TITLETRANSLIT:;
#SUBTITLETRANSLIT:;
#ARTISTTRANSLIT:;
#GENRE:IIDX EDITION;
#CREDIT:Graphics made by TonyAkita;
#MUSIC:U.S.A.ogg;
#BANNER:U.S.A.png;
#BACKGROUND:U.S.A-bg.png;
#JACKET:U.S.A-jacket.png;
#CDTITLE:;
#SAMPLESTART:53.031;
#SAMPLELENGTH:15.000;
#SELECTABLE:YES;
#OFFSET:1.178;
#BPMS:0.000=177.000;
#STOPS:;
#DISPLAYBPM:177.000;
#BGCHANGES:;
#FGCHANGES:;

//--------------- dance-single - forcednature ----------------
#NOTES:
     dance-single:
     forcednature:
     Beginner:
     4:
     0,0,0,0,0:
0000
0000
0000
0000
,
0000
0000
0000
0000
,
0000
0000
0000
0000
,
2000
0000
0000
3000
,
0002
0000
0000
0003
,
2000
0000
0000
3000
,
0002
0000
0000
0003
,
0100
0000
0001
0000
,
0100
0000
1000
0000
,
0100
0000
0010
0000
,
0010
0000
0000
0000
,
1000
0000
0100
0000
,
0001
0000
0100
0000
,
0010
0000
0010
0000
,
0010
0000
0000
0000
,
0100
0100
0100
0000
,
0010
0000
0000
0000
,
0100
0000
1000
0000
,
0001
0000
0100
0000
,
0010
0010
0010
0000
,
0100
0000
0000
0000
,
0100
0000
0001
0000
,
1000
0000
0100
0000
,
0100
0100
0100
0000
,
1000
0000
0001
0000
,
0100
0000
0010
0000
,
1000
0000
0001
0000
,
0100
0100
0100
0000
,
0001
0000
1000
0000
,
0100
0000
0010
0000
,
0100
0000
0000
0000
,
1000
0000
0001
0000
,
1000
0000
0001
0000
,
0100
0000
0010
0000
,
0100
0000
0010
0000
,
1000
0000
0001
0000
,
1000
0000
0001
0000
,
0010
0000
0100
0000
,
0010
0000
0010
0000
,
0200
0000
0300
0000
,
1000
0001
1000
0001
,
0100
0000
0100
0000
,
0001
0000
1000
0000
,
0010
0000
0010
0000
,
1000
0001
1000
0001
,
0010
0000
0100
0000
,
1000
0000
0001
0000
,
0100
0000
0010
0000
,
0001
1000
0001
1000
,
0100
0000
0010
0000
,
0001
0000
1000
0000
,
0010
0000
0100
0000
,
0001
1000
0001
1000
,
0010
0000
1000
0000
,
0001
0000
0100
0000
,
0010
0000
0000
0000
,
0100
0000
0001
0000
,
0100
0000
1000
0000
,
0100
0000
0010
0000
,
0010
0000
0010
0000
,
1001
0000
0000
0000
,
1001
0000
0000
0000
,
0110
0000
0110
0000
,
0110
0000
0000
0000
,
1000
0000
0001
0000
,
0001
0000
0000
0000
,
0001
0000
1000
0000
,
1000
0000
0000
0000
,
0000
0100
0000
0010
,
0000
0100
0000
0020
,
0000
0000
0030
0000
,
2002
0000
0000
3003
,
1000
0001
1000
0001
,
0100
0000
0001
0000
,
1000
0000
0100
0000
,
0010
0000
0001
0000
,
0001
1000
0001
1000
,
0100
0000
1000
0000
,
0001
0000
0100
0000
,
0010
0000
0000
0000
,
0100
0000
0001
0000
,
1000
0000
0010
0000
,
0100
0000
0100
0000
,
0100
0000
0000
0000
,
0010
0000
1000
0000
,
0001
0000
0010
0000
,
0100
0000
0100
0000
,
1000
0000
0001
0000
;

//--------------- dance-single - forcednature ----------------
#NOTES:
     dance-single:
     forcednature:
     Easy:
     6:
     0,0,0,0,0:
0000
0000
0000
0000
,
0000
0000
0000
0000
,
0000
0000
0000
0000
,
2002
3000
2000
0003
,
0002
0000
3003
0000
,
0220
0030
0020
0300
,
0200
0000
0330
0000
,
0001
0001
0100
0001
,
1000
1000
0100
1000
,
0010
0010
0100
0100
,
0001
1000
0100
0010
,
0100
0100
1000
0010
,
0100
0100
0001
0010
,
0001
0001
1000
1000
,
0010
0100
0001
1000
,
1001
1001
1001
0000
,
0001
0000
0100
0000
,
0010
1000
0001
0100
,
0010
1000
0001
0100
,
1001
1001
1001
0000
,
1000
0000
0100
0000
,
0010
0001
1000
0100
,
0010
0001
1000
0100
,
0110
0110
0110
0000
,
0001
0100
0010
1000
,
0001
0010
0100
1000
,
0001
0100
0010
1000
,
1001
1001
1001
0000
,
1000
0100
0010
0001
,
1001
0000
0110
0000
,
0000
0000
1000
0000
0000
0001
0000
0000
1000
0000
0000
0001
0000
0000
1000
0000
,
0001
0001
1000
1000
,
0010
0100
0010
0000
,
0100
0100
0001
0001
,
0100
1000
0100
0000
,
2002
0000
0000
3003
,
0100
0100
0100
0000
,
1000
0001
1000
0001
,
0100
0100
0100
0000
,
0020
0000
0200
0330
,
1001
1001
0110
0110
,
1000
0100
0001
0000
,
1000
0010
1000
0001
,
0100
0010
1000
0000
,
1001
1001
0110
0110
,
0001
0100
1000
0000
,
0001
0010
0100
1000
,
0010
0100
0001
0000
,
1001
1001
0110
0110
,
1000
0010
0001
0000
,
1000
0010
0100
0001
,
0010
0100
1000
0000
,
1001
1001
0110
0110
,
0001
0010
1000
0000
,
0001
0100
0010
1000
,
0001
0010
0100
0000
,
1000
1000
0001
0100
,
0001
0001
1000
0100
,
0010
0010
0100
0100
,
0010
0001
1000
0100
,
1001
0000
1000
0001
,
0110
0000
0001
1000
,
0010
0010
0100
0100
,
2002
0000
0000
3003
,
1000
1000
0001
0001
,
0100
0100
0100
0000
,
0001
0001
1000
1000
,
0100
0100
0000
0000
,
0000
1001
0000
0110
,
0000
1001
0000
0110
,
0020
0000
0000
0000
,
0200
0000
0000
0330
,
1001
1001
0110
0110
,
1000
0100
0001
0100
,
1000
0010
0100
0001
,
1000
0001
0100
0000
,
1001
1001
0110
0110
,
0001
0100
1000
0100
,
0001
0010
0100
1000
,
0010
0010
0010
0010
,
1000
1000
0001
0100
,
0001
0001
1000
0100
,
0010
0010
0100
0100
,
1000
0001
0100
0010
,
1001
1001
0100
0010
,
1001
1001
0010
0100
,
0110
0110
1000
0001
,
0110
0110
0001
1000
;

//--------------- dance-single - forcednature ----------------
#NOTES:
     dance-single:
     forcednature:
     Medium:
     11:
     0,0,0,0,0:
0000
0000
0000
0000
,
0000
0000
0000
0000
,
0000
0000
0000
0000
,
1001
0000
0001
0000
0100
0000
0001
1000
,
0001
1000
0010
0000
,
1000
0100
0010
0001
,
0100
0010
0100
0001
0100
0000
0010
0000
,
1000
0000
0000
0000
0100
0000
0000
1000
0000
0000
0001
0000
0100
0000
0000
0000
,
0010
0000
0000
0000
1000
0000
0000
0001
0000
0000
0010
0000
0100
0000
0000
0000
,
1000
0000
0000
0100
0000
0000
0010
0000
0000
0100
0000
0000
1000
0000
0000
0000
,
1001
0101
1001
1010
,
0001
0000
0000
0000
0010
0000
0000
0100
0000
0000
1000
0000
0001
0000
0000
0000
,
0100
0000
0000
0000
0001
0000
0000
1000
0000
0000
0010
0000
1000
0000
0000
0000
,
0001
0000
0000
0010
0000
0000
0100
0000
0000
1000
0000
0000
0100
0000
0000
0000
,
0110
0011
1100
0110
,
1001
1001
1001
0000
,
0001
0100
0001
0000
1000
0100
1000
0000
,
0010
0100
0001
0100
0010
1000
0001
0000
,
1000
0000
0100
0000
0010
0001
0010
0000
,
1001
1001
1001
0000
,
0001
0100
0001
0000
1000
0010
1000
0000
,
0001
0010
0100
1000
0010
0100
0001
0000
,
1000
0100
1000
0001
0010
0100
1000
0000
,
1001
1001
1001
0000
,
1000
0010
1000
0000
0001
0100
0001
0000
,
1000
0001
0010
0001
1000
0100
0010
0000
,
0100
1000
0001
0100
0001
1000
0010
0000
,
1001
1001
1001
0000
,
0001
0100
0001
0000
1000
0100
1000
0000
,
0010
0010
0000
0000
0100
0100
0000
0000
,
0000
0000
0001
0000
0000
1000
0000
0000
0001
0000
0000
1000
0000
0000
0001
0000
,
1000
0100
0010
0100
1000
0001
0010
0000
,
0001
1000
0010
0100
,
0001
0100
0010
1000
0001
0100
0001
0000
,
1000
0100
0010
0100
,
1000
0001
0010
0100
1000
0001
0100
0000
,
0010
0000
0000
0000
1000
0000
0000
0000
0001
0000
0000
0100
0000
0000
0001
0000
,
1000
0010
1000
0001
0010
0100
1000
0000
,
0010
0100
0001
0100
0010
1000
0001
0000
,
0100
0010
0100
0010
0200
0000
0300
0000
,
1001
0110
1001
0110
,
1000
0001
0100
0001
1000
0100
0010
0000
,
0100
1000
0001
0010
0100
1000
0001
0000
,
1000
0001
0100
0001
1000
0010
1000
0000
,
1001
0110
1001
0110
,
1000
0001
0010
0001
1000
0100
0010
0000
,
0100
1000
0001
0010
0100
1000
0001
0000
,
0100
0001
1000
0100
1000
0001
0100
0000
,
1100
0101
0011
1010
,
0001
0100
0001
0010
0100
1000
0010
0000
,
1000
0001
0100
0001
1000
0100
0010
0000
,
0100
1000
0001
0100
0001
1000
0010
0000
,
1010
0011
0101
1100
,
0001
0100
0001
0010
0001
0100
0010
0000
,
1000
0100
1000
0001
1000
0010
1000
0000
,
0001
0100
0001
1000
0100
0010
0001
0000
,
1000
0000
0000
0000
0010
0000
0000
1000
0000
0000
0001
0000
0100
0000
0000
0000
,
0001
0000
0000
0000
0010
0000
0000
0100
0000
0000
1000
0000
0100
0000
0000
0000
,
0010
0000
0000
0001
0000
0000
1000
0000
0000
0001
0000
0000
0010
0000
0000
0000
,
0110
1100
1001
0011
,
1001
0000
0000
0000
0000
0000
0000
0000
1000
0000
0000
0001
0000
0000
0100
0000
,
0110
0000
0000
0000
0000
0000
0000
0000
0001
0000
0000
0010
0000
0000
0100
0000
,
1000
0000
0000
0100
0000
0000
0010
0000
0001
0000
0000
0100
0000
0000
0010
0000
,
1000
0001
1000
0001
1000
0001
1000
0001
,
0100
0100
0101
1100
,
0001
1000
0001
1000
0001
0000
0010
0000
,
0100
1000
0100
0010
0100
0000
1000
0000
,
0001
0100
0001
0000
1000
0100
1000
0000
,
0010
1001
0100
1001
,
0001
0110
1000
0110
,
0001
1000
0001
0100
0010
1000
0100
0000
,
0020
0000
0100
0100
0200
0000
0330
0000
,
1010
0101
0011
1100
,
0001
0100
0001
0010
0001
1000
0100
0000
,
1000
0010
1000
0100
0001
0100
1000
0000
,
0010
0100
0001
0100
1000
0100
0001
0000
,
1001
0110
1100
0101
,
0001
0010
1000
0010
0100
1000
0001
0000
,
1000
0010
0100
0001
0100
1000
0100
0000
,
0010
1000
0100
0010
0001
0100
0010
0000
,
1000
0000
0001
0000
0100
0000
0000
0001
0000
0000
1000
0000
0010
0000
0000
0000
,
1000
0000
0100
0000
0010
0000
0000
0100
0000
0000
1000
0000
0001
0000
0000
0000
,
0010
0000
0000
0001
0000
0000
1000
0000
0000
0001
0000
0000
0100
0000
0000
0000
,
0110
1010
0101
1001
,
1000
0000
0010
0000
1000
0000
0000
0010
0000
0000
0100
0000
0001
0000
0000
0000
,
0001
0000
0010
0000
0001
0000
0000
0010
0000
0000
0100
0000
1000
0000
0000
0000
,
0001
0000
0000
0100
0000
0000
1000
0000
0000
0100
0000
0000
0010
0000
0000
0000
,
1100
0101
0011
1010
;

//--------------- dance-single - forcednature ----------------
#NOTES:
     dance-single:
     forcednature:
     Hard:
     13:
     0,0,0,0,0:
0000
0000
0000
0000
,
0000
0000
0000
0000
,
0000
0000
0000
0000
,
1001
0000
0101
0000
0001
0010
0100
2000
,
0000
3000
0100
0000
1000
0000
0020
0000
0000
0030
1000
0000
0100
0000
0001
0000
,
0100
0000
1000
0000
0020
0000
0000
0030
0100
0000
0001
0000
0010
0000
0100
0000
,
1000
0010
0100
0001
0100
0010
1000
0000
,
0001
0000
0010
0000
0100
0000
0000
1000
0000
0000
0001
0000
1000
0000
0010
0000
,
1000
0000
0001
0000
0100
0000
0000
0001
0000
0000
1000
0000
0010
0000
1000
0000
,
0001
0010
0000
0001
0010
0000
0100
1000
0000
0100
1000
0000
0010
0000
0100
0000
,
0101
0110
1010
1001
,
1000
0000
0100
0000
1000
0000
0000
0010
0000
0000
1000
0000
0100
0000
0010
0000
,
0001
0000
0100
0000
1000
0000
0000
0100
0000
0000
0001
0000
0010
0000
0001
0000
,
0100
0001
0000
0100
0001
0000
1000
0010
0000
1000
0010
0000
1000
0000
0001
0000
,
1001
1100
1001
0011
,
0110
0000
1001
0000
0110
0000
0000
0001
,
0100
1000
0100
0001
0010
0100
1000
0010
,
0100
0001
0100
0010
1000
0001
0010
0100
,
1000
0001
0100
0010
1000
0100
0010
0000
,
0110
0000
1001
0000
0110
0000
0000
1000
,
0010
1000
0100
0001
0100
1000
0010
0100
,
0001
0010
1000
0010
0100
1000
0010
0100
,
0001
1000
0100
0010
0001
0010
0100
0000
,
1001
0000
1100
0000
1001
0000
0001
0100
,
0010
1000
0100
0001
0100
0010
0001
1000
,
0010
0100
0001
0010
0100
1000
0010
0100
,
0001
0010
0100
0001
0100
1000
0100
0000
,
1001
0000
0101
0000
1001
0000
1000
0100
,
1000
0010
0001
0010
0100
0001
1000
0100
,
0110
0010
0000
0001
1001
1000
0000
0010
,
0000
0000
1000
0000
0000
0100
0000
0000
0001
0000
0000
0100
0000
0000
1000
0000
,
0010
1000
0100
0001
0100
1000
0010
0100
,
0001
0000
0010
0000
0100
0000
1000
0000
0100
0000
0000
0001
0000
0000
0100
0000
,
0010
0001
1000
0010
0100
0001
0100
1000
,
0100
0001
0010
0100
1000
0100
0010
0000
,
0001
0100
1000
0100
0001
0100
0010
1000
,
0100
0000
0000
0010
0000
0000
0001
0000
0101
0000
0000
0110
0000
0000
1010
0000
,
0000
0010
0001
0010
1000
0100
0010
0001
,
1000
0001
1000
0001
1000
0001
1000
0001
1000
0001
1000
0001
1000
0001
1000
0001
,
0100
0010
0100
0010
0200
0000
0300
0000
,
1100
0101
0011
1010
,
0001
0010
0001
0100
1000
0100
0001
0010
,
0100
1000
0100
0001
0100
1000
0010
0100
,
0001
1000
0100
0001
0100
1000
0010
0000
,
1100
1010
0101
0011
,
1000
0010
1000
0001
0100
1000
0100
0001
,
0100
0010
1000
0100
0010
0001
0100
1000
,
0100
0001
0010
0100
1000
0100
0001
0000
,
0101
0011
1100
1010
,
0001
0100
0010
1000
0001
0100
1000
0100
,
0010
0100
0001
1000
0100
0001
0100
0010
,
0100
1000
0010
0100
0001
1000
0100
0000
,
1010
1001
0101
1001
,
0001
0010
0001
1000
0100
0010
0001
1000
,
0100
0001
0100
1000
0010
1000
0001
0100
,
0001
1000
0001
1000
0001
1000
0001
1000
0001
1000
0001
1000
0001
1000
0001
1000
,
0001
0000
0100
0000
0001
0000
0000
1000
0000
0000
0010
0000
1000
0000
0001
0000
,
1000
0000
0100
0000
0010
0000
0000
0001
0000
0000
0010
0000
0100
0000
1000
0000
,
0010
1000
0000
0010
1000
0000
0001
0100
0000
0001
0100
0000
0001
0000
0010
0000
,
0011
0110
1100
1001
,
0110
0000
0000
0000
0000
0000
0000
0000
1100
0000
0000
0010
0000
0000
0001
0000
,
1001
0000
0000
0000
0000
0000
0000
0000
0101
0000
0000
1000
0000
0000
0010
0000
,
1001
0000
0000
1000
0000
0000
0100
0000
1001
0000
0000
0001
0000
0000
0100
0000
,
0001
0000
1000
0000
0001
0000
1000
0000
0001
1000
0001
1000
0001
1000
0001
1000
,
0001
0001
0100
0100
,
0010
1000
0001
0100
0010
1000
1000
0000
,
0001
0010
0100
1000
0100
0001
0100
1000
,
0010
0100
0001
0000
0100
0010
1000
0000
,
0100
1001
0010
1001
,
0100
1001
0010
1001
,
0110
0001
1000
0001
0100
0010
1000
0000
,
0020
0000
0001
0100
2000
0000
3030
0000
,
1010
0011
1001
0110
,
0001
0100
0001
1000
0100
0001
0100
1000
,
0010
0100
0001
0100
0010
1000
0001
0010
,
1000
0010
0100
1000
0001
0100
0010
0000
,
1001
0110
1100
0101
,
1000
0001
1000
0010
1000
0100
0001
0100
,
0010
1000
0010
0001
1000
0010
0100
0001
,
1000
0001
1000
0001
1000
0001
1000
0001
1000
0001
1000
0001
1000
0001
1000
0001
,
1000
0000
0010
0000
0100
0000
0000
0001
0000
0000
0100
0000
0010
0000
1000
0000
,
0001
0000
0010
0000
0100
0000
0000
1000
0000
0000
0100
0000
0010
0000
0001
0000
,
1000
0001
0000
1000
0001
0000
0100
0010
0000
0100
0010
0000
1000
0000
0100
0000
,
1100
0011
1001
0110
,
0001
0000
0100
0000
0010
0000
0000
1010
0000
0000
1000
0000
0100
0000
0010
0000
,
0001
0000
0100
0000
0010
0000
0000
0110
0000
0000
0100
0000
0010
0000
1000
0000
,
0001
0010
0000
0001
0010
0000
0100
1000
0000
0100
1000
0000
0010
0000
0100
0000
,
0101
1100
1010
0011
;

//--------------- dance-single - forcednature ----------------
#NOTES:
     dance-single:
     forcednature:
     Challenge:
     16:
     0,0,0,0,0:
0000
0000
0000
0000
,
0000
0000
0000
0000
,
0000
0000
0000
0000
,
1001
0000
0000
0000
1000
0000
0001
0100
0001
0000
0010
0000
1000
0000
0010
0000
,
0000
0000
0100
1000
0100
0000
0010
0000
0000
0000
0001
0100
0001
0000
0000
0000
,
1000
0000
0010
0000
0100
0000
0001
0100
0001
0000
1000
0000
0010
0000
1000
0100
,
1000
0000
0010
0000
0001
0000
0010
0000
0100
0000
0001
1000
0001
0000
0000
0000
,
1100
0000
1000
0000
0001
0000
0000
0010
0000
0000
0100
0000
1000
0000
0010
0000
,
0001
0000
0010
0000
1000
0000
0000
0100
0000
0000
0010
0000
1000
0000
0010
0000
,
0001
0100
0000
0010
1000
0000
0001
0010
0000
1000
0010
0000
0100
0000
1000
0000
,
0010
0100
1000
0100
0001
0010
1000
0010
,
0100
0000
1000
0000
0010
0000
0000
0100
0000
0000
1000
0000
0100
0000
0001
0000
,
1000
0000
0100
0000
0010
0000
0000
1000
0000
0000
0010
0000
0001
0000
1000
0000
,
0010
0100
0000
0001
0100
0000
1000
0100
0000
0001
1000
0000
0100
0000
0010
0000
,
0001
0010
1000
0010
0100
1000
0001
0100
,
0110
0000
1001
0000
0110
0000
0000
0001
,
0100
1000
0100
0010
1000
0100
0110
0010
,
0001
0000
1000
0000
0001
0100
0000
0010
1000
0000
0100
0001
0000
0100
0010
0000
,
0001
0000
1000
0000
0001
0010
0000
0100
1000
0000
0001
1000
0000
0100
0010
0000
,
1001
0000
0110
0000
1001
0000
0000
1000
,
0010
0001
0000
0010
1000
0001
1001
1000
,
0001
0000
0100
0000
0010
1000
0000
0100
0010
0000
0100
1000
0000
0001
1000
0000
,
0010
0000
0001
0000
0010
0100
0000
0001
0010
0000
0100
1000
0001
0010
0100
0010
,
0001
0000
0101
0000
1010
0000
1000
0010
,
1000
0000
0100
0000
0010
0001
0000
0100
0001
0000
1000
0010
0000
1000
0001
0000
,
1000
0000
0100
0000
0001
0100
0000
1000
0010
0000
0100
0001
0000
0100
1000
0000
,
0100
0000
0010
0000
1000
0001
0000
0010
1000
0000
0010
0001
0000
1000
0010
0000
,
0110
0000
1001
0000
0110
0000
0001
0100
,
0001
0000
0010
0000
1000
0010
0000
0100
0010
0000
0100
1000
0000
0001
1000
0000
,
1001
0000
0001
0000
0000
0000
0100
0010
0100
0000
0001
0000
0000
0000
0010
0100
,
0000
0000
1100
0000
0000
0101
0000
0000
1001
0000
0000
0110
0000
0000
1000
0010
,
1000
0100
0001
0100
1000
0010
0100
0001
,
0100
0000
0000
0010
0000
0000
1000
0000
1001
0000
0000
1100
0000
0000
0101
0000
,
0000
0100
0110
0010
1000
0001
0010
1000
,
0010
0000
0100
0000
1000
0000
0010
0000
0100
0000
0001
0100
0010
1000
0001
0010
,
0100
0001
0100
1000
0010
0100
0001
0100
,
1000
0000
0000
0100
0000
0000
0010
0000
0110
0000
0000
1001
0000
0000
0110
0000
,
0000
0001
1001
1000
0010
1000
0001
0100
,
0001
0010
0100
0010
0100
1000
0001
1000
0010
1000
0001
0100
0001
1000
0100
0010
,
0001
0000
1000
0000
0001
0000
1000
0000
0020
0000
0000
0130
0010
0000
0000
0000
,
1010
0101
0011
1100
,
1000
0010
0100
0001
0010
0100
0100
0001
,
0100
1000
0010
0100
0001
0100
1000
0100
,
0010
1000
0100
0000
0010
0001
1000
0000
0010
0100
0001
0000
0100
0010
1000
0000
,
0110
1001
0011
1010
,
0001
0100
1000
0100
0010
1000
1000
0100
,
0001
0100
0010
0001
1000
0010
0100
0001
,
0010
0000
0000
1000
0000
0000
0010
0000
0100
0000
1000
0000
0001
0100
0001
1000
,
0010
1001
1100
0101
,
1000
0001
0010
1000
0010
0100
0100
1000
,
0001
0100
1000
0100
0010
1000
0001
0100
,
0010
1000
0001
0000
0100
0001
0010
0000
0100
1000
0001
0000
1000
0010
0100
0000
,
0011
1010
1100
0101
,
0001
1000
0010
0100
1000
0100
0100
0001
,
1000
0100
0010
0001
0010
1000
0010
0001
,
0010
0100
1000
0001
1000
0100
0010
0001
1000
0001
0100
0001
1000
0010
0100
0010
,
1000
0000
0001
0000
1000
0000
0000
0010
0000
0000
0100
0000
0001
0000
0100
0000
,
1000
0000
0100
0000
0010
0000
0000
1000
0000
0000
0100
0000
0010
0000
1000
0000
,
0010
0001
0000
1000
0100
0000
1000
0001
0000
0100
0001
0000
0100
0000
0010
0000
,
1010
0000
1000
0001
1000
0000
0001
0010
0001
0000
1000
0100
1000
0000
0000
0000
,
1001
0000
0001
0000
0100
0001
0100
0001
0100
0000
0000
1010
0000
0000
0011
0000
,
1001
0000
1000
0000
0100
1000
0100
1000
0100
0000
0000
0011
0000
0000
1010
0000
,
1001
0000
0000
1000
0000
0000
0001
0000
1001
0000
0000
0001
0000
0000
1000
0000
,
0010
1000
0010
0100
0001
0010
0100
1000
0001
1000
0100
0010
0001
1000
0001
0100
,
0020
0000
0030
0000
1000
0000
0001
0100
0002
0000
0003
0000
2000
0000
3000
0000
,
0100
0010
0100
1000
0100
0010
0100
2000
,
3000
0000
0010
0000
0100
0000
0001
1000
0001
0000
0100
0000
1000
0000
0100
0010
,
0100
0002
0003
1000
0100
0002
0003
0000
,
0100
1001
0010
1001
,
1000
0110
0001
0110
,
0001
0100
0010
0100
2000
0000
3000
0000
,
0200
0300
0001
0010
0200
0000
0300
0000
,
1010
0011
1100
0101
,
0001
0010
0001
0100
1000
0100
0100
0010
,
1000
0100
0001
0100
0010
0001
1000
0010
,
1000
0100
0010
0000
0100
1000
0001
0000
1000
0010
0100
0000
0001
0100
0010
0000
,
1010
1100
0011
0101
,
0001
1000
0100
0001
0100
0010
0010
1000
,
0010
0001
1000
0010
0100
1000
0100
0001
,
1000
0100
0010
0100
0010
0001
1000
0001
0100
0010
1000
0001
0010
0100
1000
0001
,
0100
0000
0010
0000
1000
0000
0000
0001
0000
0000
0100
0000
1000
0000
0100
0000
,
0001
0000
0100
0000
0010
0000
0000
1000
0000
0000
0100
0000
0001
0000
0100
0000
,
0010
0001
0000
1000
0100
0000
1000
0001
0000
0100
0010
0000
0100
0000
0001
0000
,
0101
0000
1000
0001
1000
0000
0010
1000
0010
0000
0100
0001
0100
0000
0001
0010
,
0001
0000
0010
0000
0110
0000
0000
1001
0000
0000
1000
0000
0100
0000
0001
0000
,
0100
0000
1000
0000
1010
0000
0000
0101
0000
0000
0001
0000
0010
0000
1000
0000
,
0010
0100
0000
1000
0001
0000
0100
0001
0000
1000
0010
0000
1000
0000
0100
0000
,
0010
0000
0001
1000
0010
0000
0100
0001
0010
0000
0100
1000
0001
0000
0100
0000
;

//--------------- dance-double - forcednature ----------------
#NOTES:
     dance-double:
     forcednature:
     Easy:
     6:
     0,0,0,0,0:
00000000
00000000
00000000
00000000
,
00000000
00000000
00000000
00000000
,
00000000
00000000
00000000
00000000
,
00002000
00003000
00020000
00030000
,
02000000
00000000
03000000
00000000
,
20000000
30000000
00200000
00300000
,
02000000
03000000
00000000
00000000
,
00010000
00010000
00100000
00001000
,
00010000
00010000
00000100
00001000
,
00000010
00000100
00000010
00000100
,
00000001
00001000
00000100
00000010
,
00000100
00000100
00001000
00010000
,
01000000
01000000
00010000
00001000
,
00100000
00100000
01000000
01000000
,
10000000
00010000
01000000
00100000
,
10010000
10010000
10010000
00000000
,
00010000
00010000
01000000
01000000
,
00001000
00000000
00001000
00000000
,
00010000
00001000
00010000
00001000
,
00011000
00011000
00011000
00000000
,
00000100
00000000
00000010
00000000
,
00000001
00001000
00000001
00001000
,
00000010
00000100
00000010
00000100
,
00001001
00001001
00001001
00000000
,
00001000
00000100
00010000
00001000
,
00100000
00010000
00100000
00001000
,
00010000
00001000
01000000
00000000
,
00011000
00011000
00011000
00000000
,
00000100
00001000
00010000
01000000
,
10010000
00000000
01100000
00000000
,
00010000
00001000
00010000
00001000
,
00000100
00000100
00000010
00000010
,
00000100
00001000
00000100
00000000
,
00000010
00000010
00000001
00000010
,
00000100
00000100
00000010
00000000
,
00000001
00000001
00000100
00000001
,
00001000
00001000
00000010
00000000
,
00010000
00010000
00001000
00001000
,
01000000
01000000
01000000
00000000
,
00200000
00000000
00000000
00300000
,
10010000
10010000
01100000
01100000
,
10000000
00010000
01000000
00001000
,
00010000
00000100
00001000
00000001
,
00000100
00000100
00000010
00000000
,
00001001
00001001
00000110
00000110
,
00000001
00000100
00000010
00001000
,
00000100
00000010
00000100
00010000
,
00001000
01000000
00010000
00000000
,
10010000
10010000
01100000
01100000
,
10000000
01000000
00010000
01000000
,
00100000
00001000
00010000
00000010
,
00000100
00000001
00001000
00000000
,
00001001
00001001
00000110
00000110
,
00000001
00000100
00001000
00010000
,
00000100
00001000
00010000
01000000
,
00010000
00010000
00010000
00000000
,
10000000
10000000
00010000
00010000
,
01000000
01000000
00001000
00001000
,
00010000
00000100
00010000
00001000
,
00010000
00000010
00001000
00000001
,
00000110
00000000
00000001
00001000
,
00001001
00000000
00000100
00000010
,
00001000
00010000
01000000
10000000
,
00100000
00100000
01000000
01000000
,
10020000
00000000
01000000
00000000
,
02000000
00000000
03030000
00000000
,
00021000
00000000
00000100
00000000
,
00000200
00000000
00030300
00000000
,
00000000
00000110
00000000
00000110
,
00000000
00000110
00000000
00000110
,
00000010
00000010
00000010
00000010
,
00000020
00000000
00000000
00000030
,
00001000
00000001
00001000
00000001
,
00000100
00001000
00010000
01000000
,
10000000
00100000
10000000
01000000
,
00010000
00001000
00010000
00000000
,
00000100
00001000
00000010
00000100
,
00000001
00001000
00000100
00010000
,
00001000
01000000
00010000
10000000
,
00100000
00100000
00100000
00000000
,
10000000
10000000
00010000
01000000
,
00001000
00001000
00010000
00100000
,
00010000
00001000
00010000
00001000
,
00000010
00000100
00000010
00000100
,
00001001
00000001
00000100
00001000
,
00011000
00001000
01000000
00010000
,
10010000
00100000
10000000
01000000
,
01100000
00010000
00100000
00001000
;

//--------------- dance-double - forcednature ----------------
#NOTES:
     dance-double:
     forcednature:
     Medium:
     11:
     0,0,0,0,0:
00000000
00000000
00000000
00000000
,
00000000
00000000
00000000
00000000
,
00000000
00000000
00000000
00000000
,
00001000
00000000
00010000
00000000
00000100
00001000
00000100
00001000
,
00000000
00001000
00000001
00001000
00000000
00000001
00000100
00000000
,
00000010
00000000
00000010
00000000
00001000
00000100
00001000
00000100
,
00010000
00001000
00010000
00002000
00000000
00010000
00013000
00000000
,
00001000
00000000
00000000
00000000
01000000
00000000
00000000
00010000
00000000
00000000
00100000
00000000
01000000
00000000
00000000
00000000
,
10000000
00000000
00000000
00000000
00010000
00000000
00000000
01000000
00000000
00000000
00001000
00000000
00010000
00000000
00000000
00000000
,
00000100
00000000
00000000
00001000
00000000
00000000
00000100
00000000
00000000
00000010
00000000
00000000
00000100
00000000
00000000
00000000
,
00002000
00003002
00000203
00000320
,
00000130
00000000
00000000
00000000
00000001
00000000
00000000
00000010
00000000
00000000
00000100
00000000
00001000
00000000
00000000
00000000
,
00000010
00000000
00000000
00000000
00010000
00000000
00000000
00001000
00000000
00000000
01000000
00000000
00010000
00000000
00000000
00000000
,
00100000
00000000
00000000
01000000
00000000
00000000
10000000
00000000
00000000
00010000
00000000
00000000
00100000
00000000
00000000
00000000
,
00002000
00000000
00023000
00000000
00030020
00000000
00000230
00000300
,
00001001
00001001
00001001
00000000
,
00000001
00000100
00001000
00010000
,
01000000
00100000
01000000
10000000
00100000
01000000
00010000
00000000
,
10000000
01000000
00100000
00010000
01000000
00100000
10000000
00000000
,
10010000
10010000
10010000
00000000
,
10000000
00100000
00010000
00001000
,
00000010
00000001
00000100
00000010
00001000
00000100
00000010
00000000
,
00000100
00001000
00000001
00000100
00000010
00001000
00000001
00000000
,
00001001
00001001
00001001
00000000
,
00001000
00000100
00010000
00001000
01000000
00010000
10000000
00000000
,
00100000
10000000
01000000
00100000
00010000
01000000
00001000
00000000
,
00010000
00000100
00001000
00000010
00001000
00000001
00000100
00000000
,
00001001
00001001
00001001
00000000
,
00000001
00000100
00000010
00001000
00000100
00000010
00000100
00000000
,
00011000
00001000
01010000
10000000
,
00000000
00000000
00100000
00000000
00000000
01000000
00000000
00000000
00100000
00000000
00000000
01000000
00000000
00000000
00100000
00000000
,
10000000
01000000
10000000
00000000
00010000
00100000
00010000
00000000
,
01000000
00001000
00010000
00000100
00010000
00001000
00100000
00000000
,
00001000
00010000
00001000
00000000
00010000
00000010
00010000
00000000
,
00000010
00001000
00000100
00000010
00000001
00000100
00000010
00000000
,
00001001
00001000
00000001
00000010
,
00000100
00000000
00000000
00000000
00000100
00000000
00000000
00000000
00010000
00000000
00000000
00010000
00000000
00000000
00010000
00000000
,
00001000
01000000
00010000
00000000
10000000
00000000
00100000
00000000
,
10000000
01000000
00100000
01000000
10000000
00010000
00100000
00001000
,
00010000
00001000
00010000
00001000
00020000
00000000
00030000
00000000
,
00011000
00011000
00011000
00011000
,
00000100
00001000
00000010
00001000
00000100
00000010
00000001
00000000
,
00001000
00000010
00001000
00000100
00010000
00001000
01000000
00000000
,
00100000
10000000
00010000
00100000
01000000
10000000
00010000
00000000
,
10010000
10010000
10010000
10010000
,
10000000
00100000
10000000
00010000
00100000
01000000
10000000
00000000
,
00010000
01000000
00001000
00100000
00010000
00100000
00001000
00000000
,
00010000
00000010
00001000
00000100
00000010
00000001
00000100
00000000
,
00001001
00001001
00001001
00001001
,
00000001
00000100
00000001
00000010
00000100
00001000
00000010
00000000
,
00001000
00000100
00010000
00000100
00001000
00000010
00000100
00000000
,
00000001
00000010
00000100
00001000
00000100
00010000
00001000
00000000
,
00011000
00011000
00011000
00011000
,
00001000
01000000
00010000
10000000
00100000
10000000
01000000
00000000
,
00100000
01000000
10000000
00010000
00100000
01000000
10000000
00000000
,
00010000
01000000
00010000
01000000
00010000
01000000
00010000
01000000
,
00001000
00000000
00000000
00000000
00010000
00000000
00000000
00000010
00000000
00000000
00001000
00000000
00000100
00000000
00000000
00000000
,
00000010
00000000
00000000
00000000
00000001
00000000
00000000
00000100
00000000
00000000
00000010
00000000
00001000
00000000
00000000
00000000
,
00000001
00000000
00000000
00000100
00000000
00000000
00001000
00000000
00000000
00000100
00000000
00000000
00000001
00000000
00000000
00000000
,
00000101
00001100
00011000
01010000
,
10010000
00000000
00000000
00000000
00000000
00000000
00000000
00000000
10000000
00000000
00000000
01000000
00000000
00000000
00100000
00000000
,
01010000
00000000
00000000
00000000
00000000
00000000
00000000
00000000
00000100
00000000
00000000
00001000
00000000
00000000
00000010
00000000
,
00000100
00000000
00000000
00000001
00000000
00000000
00000010
00000000
00000100
00000000
00000000
00001000
00000000
00000000
00000010
00000000
,
00001000
00000001
00001000
00000001
00001000
00000001
00001000
00000001
,
00000100
00000100
00000010
00000010
,
00000100
00001000
00010000
00000000
,
01000000
01000000
00100000
00100000
,
10000000
00010000
01000000
00000000
,
00100000
00022000
00033000
00002020
,
00003030
00020200
00030300
00001001
,
00000202
00000000
00000000
00000300
,
00000020
00000000
00000000
00000033
,
00001001
00001001
00001001
00001001
,
00000001
00000100
00000010
00001000
00000100
00000010
00000100
00000000
,
00010000
00001000
01000000
00010000
10000000
00100000
10000000
00000000
,
00010000
00100000
01000000
10000000
00010000
01000000
00001000
00000000
,
10010000
10010000
10010000
10010000
,
10000000
00010000
00100000
00010000
01000000
00001000
00100000
00000000
,
00010000
00100000
00001000
00010000
00000100
00001000
00000001
00000000
,
00001000
00000100
00001000
00000100
00001000
00000100
00001000
00000100
,
00000010
00000000
00000000
00000000
00000001
00000000
00000000
00000100
00000000
00000000
00000001
00000000
00001000
00000000
00000000
00000000
,
00000010
00000000
00000000
00000000
00010000
00000000
00000000
00001000
00000000
00000000
00100000
00000000
00010000
00000000
00000000
00000000
,
01000000
00000000
00000000
00010000
00000000
00000000
01000000
00000000
00000000
10000000
00000000
00000000
01000000
00000000
00000000
00000000
,
01100000
10010000
01100000
10010000
,
10000000
00000000
01000000
00000000
10000000
00000000
00000000
00010000
00000000
00000000
01000000
00000000
00010000
00000000
00000000
00000000
,
00100000
00000000
00001000
00000000
00010000
00000000
00000000
00001000
00000000
00000000
00010000
00000000
00000100
00000000
00000000
00000000
,
00001000
00000000
00000000
00000010
00000000
00000000
00000001
00000000
00000000
00000010
00000000
00000000
00001000
00000000
00000000
00000000
,
00001001
00000110
00000101
00001100
;

//--------------- dance-double - forcednature ----------------
#NOTES:
     dance-double:
     forcednature:
     Hard:
     13:
     0,0,0,0,0:
00000000
00000000
00000000
00000000
,
00000000
00000000
00000000
00000000
,
00000000
00000000
00000000
00000000
,
00011000
00000000
01010000
00000000
10000000
00100000
10000000
02000000
,
00000000
03000000
00100000
00000000
00010000
00000000
00002000
00000000
00000000
00003000
00000100
00000000
00001000
00000000
00000010
00000000
,
00000100
00000000
00001000
00000000
00020000
00000000
00000000
00030000
01000000
00000000
10000000
00000000
00100000
00000000
10000000
00000000
,
01000000
00010000
00001000
00000100
00000001
00000010
00000001
00000000
,
00001000
00000000
00000100
00000000
00000010
00000000
00000000
00000001
00000000
00000000
00000100
00000000
00000001
00000000
00000100
00000000
,
00000010
00000000
00001000
00000000
00000010
00000000
00000000
00001000
00000000
00000000
00010000
00000000
01000000
00000000
00010000
00000000
,
10000000
01000000
00000000
10000000
01000000
00000000
00100000
00010000
00000000
00100000
00010000
00000000
10000000
00000000
00100000
00000000
,
01100000
01010000
00011000
00001100
,
00010000
00000000
00001000
00000000
00010000
00000000
00000000
00000100
00000000
00000000
00001000
00000000
00000010
00000000
00001000
00000000
,
00000001
00000000
00000010
00000000
00000001
00000000
00000000
00000100
00000000
00000000
00000010
00000000
00001000
00000000
00000100
00000000
,
00010000
00001000
00000000
00010000
00001000
00000000
00000100
00000001
00000000
00000100
00000001
00000000
00000010
00000000
00000100
00000000
,
00001100
00011000
01010000
10010000
,
01100000
00000000
10010000
00000000
01100000
00000000
00000000
10000000
,
00100000
10000000
01000000
00010000
00001000
00000100
00000001
00000010
,
00000100
00000001
00000100
00001000
00000010
00000100
00000001
00000100
,
00001000
00010000
00000100
00000010
00000001
00001000
00000100
00000000
,
00000110
00000000
00001001
00000000
00000110
00000000
00000000
00000001
,
00000100
00000001
00000010
00001000
00010000
00100000
10000000
01000000
,
10000000
00100000
01000000
00010000
01000000
10000000
01000000
00100000
,
10000000
01000000
00010000
00001000
00000100
00001000
00010000
00000000
,
00110000
00000000
11000000
00000000
00110000
00000000
10000000
01000000
,
10000000
00100000
00010000
00001000
00000100
00000010
00001000
00000001
,
00000010
00000100
00001000
00010000
00100000
00001000
00010000
00100000
,
10000000
01000000
00010000
01000000
00100000
00001000
00010000
00000000
,
00011000
00000000
00001100
00000000
00001010
00000000
00000001
00000010
,
00000100
00001000
00000001
00000100
00001000
00000100
00000010
00010000
,
00011000
00001000
00000000
01000000
01100000
00100000
00000000
10000000
,
00000000
00000000
00010000
00000000
00000000
01000000
00000000
00000000
00001000
00000000
00000000
00100000
00000000
00000000
00010000
00000000
,
10000000
01000000
10000000
00100000
00010000
00001000
00000100
00000001
,
00000010
00000000
00000100
00000000
00001000
00000000
00000001
00000000
00000100
00000000
00000000
00001000
00000000
00000000
00010000
00000000
,
00000100
00001000
00000010
00000100
00000001
00000010
00001000
00000010
,
00000100
00010000
00001000
01000000
00100000
00010000
00100000
00000000
,
10000000
01000000
00010000
01000000
00001000
00000100
00000010
00000001
,
00000100
00000000
00000000
00001000
00000000
00000000
00010000
00000000
00100000
00000000
00000000
00010000
00000000
00000000
00001000
00000000
,
00010000
01000000
10000000
00100000
01000000
00010000
00001000
00000100
,
00001000
00000001
00001000
00000001
00001000
00000001
00001000
00000001
00001000
00000001
00001000
00000001
00001000
00000001
00001000
00000001
,
00000100
00000010
00000100
00000010
00000200
00000000
00000300
00000000
,
00000101
00001100
00011000
00000110
,
00000001
00000010
00000001
00000100
00001000
00010000
01000000
10000000
,
00100000
10000000
01000000
00010000
00001000
00000100
00001000
00010000
,
01000000
00010000
00001000
00000010
00000001
00000100
00000001
00000000
,
00000110
00001100
00000101
00011000
,
00000001
00000010
00000001
00001000
00000100
00000010
00001000
00010000
,
00100000
00010000
00001000
00000100
00001000
00010000
01000000
10000000
,
00100000
00010000
00001000
00010000
00100000
10000000
01000000
00000000
,
11000000
01010000
00011000
01100000
,
10000000
00100000
00010000
00001000
00000010
00000001
00000100
00001000
,
00010000
01000000
00010000
00001000
00000100
00001000
00010000
01000000
,
10000000
00100000
00010000
00001000
00000100
00001000
00010000
00000000
,
01010000
00011000
01100000
10010000
,
10000000
01000000
10000000
00100000
00010000
00001000
00010000
00000010
,
00000100
00001000
00010000
00100000
10000000
01000000
00100000
00010000
,
10000000
00010000
10000000
00010000
10000000
00010000
10000000
00010000
10000000
00010000
10000000
00010000
10000000
00010000
10000000
00010000
,
10000000
00000000
00100000
00000000
01000000
00000000
00000000
00010000
00000000
00000000
01000000
00000000
00100000
00000000
10000000
00000000
,
00010000
00000000
00100000
00000000
01000000
00000000
00000000
00100000
00000000
00000000
00010000
00000000
00001000
00000000
00000100
00000000
,
00000010
00000001
00000000
00000010
00000001
00000000
00001000
00000100
00000000
00001000
00000100
00000000
00001000
00000000
00000001
00000000
,
00000101
00000110
00001010
00001001
,
00010100
00000000
00000000
00000000
00000000
00000000
00000000
00000000
00011000
00000000
00000000
01000000
00000000
00000000
00100000
00000000
,
11000000
00000000
00000000
00000000
00000000
00000000
00000000
00000000
01010000
00000000
00000000
00100000
00000000
00000000
00001000
00000000
,
00010010
00000000
00000000
00000100
00000000
00000000
00000001
00000000
00001100
00000000
00000000
00010000
00000000
00000000
00001000
00000000
,
00100000
00000000
00001000
00000000
00010000
00000000
00000010
00000000
00010000
00001000
00010000
00001000
00010000
00001000
00010000
00001000
,
00010000
00010000
00100000
00100000
,
10000000
01000000
00100000
01000000
10000000
00010000
01000000
00000000
,
00010000
00100000
00001000
00010000
00000100
00010000
00001000
01000000
,
00001000
00010000
00000010
00001000
00000100
00000010
00000001
00000000
,
00000100
00011000
00100000
00011000
,
00000010
00011000
01000000
00011000
,
00001000
00010000
00000100
00000010
00001000
00000000
00000000
00000000
,
00020000
00000000
00001000
00001000
00002000
00000000
00033000
00000000
,
01100000
01010000
11000000
00110000
,
10000000
00100000
00010000
00001000
00000100
00001000
00010000
00001000
,
00000010
00000100
00001000
00000001
00000100
00001000
00010000
01000000
,
10000000
00010000
10000000
00100000
01000000
00001000
00100000
00000000
,
00011000
00001001
00000101
00001100
,
00000001
00000100
00000001
00000010
00001000
00010000
00100000
10000000
,
01000000
00010000
00001000
00000100
00001000
00010000
00001000
00000010
,
00000001
00001000
00000001
00001000
00000001
00001000
00000001
00001000
00000001
00001000
00000001
00001000
00000001
00001000
00000001
00001000
,
00000001
00000000
00000100
00000000
00001000
00000000
00000000
00010000
00000000
00000000
00100000
00000000
00010000
00000000
00001000
00000000
,
00100000
00000000
01000000
00000000
10000000
00000000
00000000
00010000
00000000
00000000
01000000
00000000
00001000
00000000
00010000
00000000
,
00000100
00001000
00000000
00000100
00001000
00000000
00010000
00100000
00000000
00010000
00100000
00000000
01000000
00000000
10000000
00000000
,
10100000
01010000
00011000
10010000
,
10000000
00000000
01000000
00000000
00100000
00000000
00000000
01100000
00000000
00000000
01000000
00000000
00010000
00000000
00001000
00000000
,
00000100
00000000
00000010
00000000
00001000
00000000
00000000
00001001
00000000
00000000
00000001
00000000
00000010
00000000
00000001
00000000
,
00000100
00000001
00000000
00000100
00000001
00000000
00001000
00000010
00000000
00001000
00000010
00000000
00010000
00000000
00001000
00000000
,
00011000
00110000
10100000
10010000
;

//--------------- dance-double - forcednature ----------------
#NOTES:
     dance-double:
     forcednature:
     Challenge:
     16:
     0,0,0,0,0:
00000000
00000000
00000000
00000000
,
00000000
00000000
00000000
00000000
,
00000000
00000000
00000000
00000000
,
00011000
00000000
00000000
00000000
00001000
00000000
00000100
00000001
00000100
00000000
00000010
00000000
00001000
00000000
00000100
00000000
,
00000000
00000000
00100000
00010000
00100000
00000000
00001000
00000000
00000000
00000000
10000000
00100000
10000000
00000000
00000000
00000000
,
00010000
00000000
00100000
00000000
01000000
00000000
10000000
00010000
10000000
00000000
00100000
00000000
00010000
00000000
00001000
00010000
,
00001000
00000000
00000100
00000000
00000001
00000000
00000010
00000000
00000100
00000000
00001000
00000001
00001000
00000000
00000000
00000000
,
00001100
00000000
00001000
00000000
00010000
00000000
00000000
00100000
00000000
00000000
01000000
00000000
10000000
00000000
00100000
00000000
,
00010000
00000000
00001000
00000000
00000010
00000000
00000000
00000001
00000000
00000000
00000100
00000000
00000010
00000000
00001000
00000000
,
00000001
00000010
00000000
00000100
00001000
00000000
00000100
00000010
00000000
00001000
00010000
00000000
01000000
00000000
10000000
00000000
,
00010000
01000000
00010000
00001000
00000100
00001000
00000001
00000010
,
00001000
00000000
00010000
00000000
00001000
00000000
00000000
00000100
00000000
00000000
00010000
00000000
00001000
00000000
00100000
00000000
,
01000000
00000000
00010000
00000000
10000000
00000000
00000000
01000000
00000000
00000000
00100000
00000000
00010000
00000000
00001000
00000000
,
00000100
00010000
00000000
00001000
00000100
00000000
00000001
00001000
00000000
00000100
00000010
00000000
00000001
00000000
00000100
00000000
,
00001000
00010000
01000000
10000000
00010000
01000000
00001000
00000100
,
00010100
00000000
00101000
00000000
00010100
00000000
00000000
00000001
,
00001000
00010000
01000000
00100000
10000000
01000000
01100000
00100000
,
00010000
00000000
00001000
00000000
00000010
00000100
00000000
00000001
00001000
00000000
00000100
00010000
00000000
00001000
01000000
00000000
,
00010000
00000000
00100000
00000000
00001000
00010000
00000000
00000100
00001000
00000000
00000010
00000100
00000000
00000001
00001000
00000000
,
00010010
00000000
01001000
00000000
00010010
00000000
00000000
10000000
,
00100000
00010000
00000000
00001000
00000100
00000001
00000101
00000100
,
00000001
00000000
00000010
00000000
00000100
00001000
00000000
00010000
01000000
00000000
00100000
10000000
00000000
00010000
00100000
00000000
,
01000000
00000000
00010000
00000000
00001000
00000100
00000000
00000010
00001000
00000000
00000100
00010000
00001000
00100000
00001000
00010000
,
00000100
00000000
00110000
00000000
00001010
00000000
10000000
00100000
,
00010000
00000000
00001000
00000000
00100000
00010000
00000000
01000000
00100000
00000000
10000000
01000000
00000000
00100000
00010000
00000000
,
00001000
00000000
00000010
00000000
00000100
00001000
00000000
00000100
00000001
00000000
00001000
00000100
00000000
00010000
00001000
00000000
,
00100000
00000000
01000000
00000000
10000000
00010000
00000000
00100000
00001000
00000000
00010000
00000010
00000000
00001000
00000001
00000000
,
00000101
00000000
00001100
00000000
00011000
00000000
00010000
00001000
,
00100000
00000000
01000000
00000000
10000000
00010000
00000000
00100000
10000000
00000000
00100000
00010000
00000000
01000000
00001000
00000000
,
00011000
00000000
00010000
00000000
00000000
00000000
00000100
00001000
00000100
00000000
00000010
00000000
00000000
00000000
00000001
00000100
,
00000000
00000000
00000011
00000000
00000000
00001010
00000000
00000000
00011000
00000000
00000000
00110000
00000000
00000000
10000000
00100000
,
10000000
01000000
00010000
00001000
00000100
00000001
00001000
00000010
,
00001000
00000000
00000000
00010000
00000000
00000000
01000000
00000000
11000000
00000000
00000000
01100000
00000000
00000000
10010000
00000000
,
00000000
00001000
00011000
00010000
00100000
00001000
00000100
00000010
,
00000001
00000000
00001000
00000000
00000100
00000000
00010000
00000000
01000000
00000000
00100000
00010000
01000000
00100000
10000000
01000000
,
00100000
00010000
00001000
00000010
00000100
00000001
00001000
00000100
,
00010000
00000000
00000000
00100000
00000000
00000000
10000000
00000000
01100000
00000000
00000000
00011000
00000000
00000000
00001100
00000000
,
00000000
00000001
00001001
00001000
00000100
00010000
00001000
01000000
,
00010000
10000000
01000000
00100000
00010000
01000000
00010000
00100000
00001000
00010000
00000100
00001000
00000010
00000100
00000001
00000010
,
00000100
00000000
00001000
00000000
00010000
00000000
01000000
00000000
20000000
00000000
00000000
31000000
10000000
00000000
00000000
00000000
,
10010000
01100000
00011000
00001100
,
00000001
00000100
00001000
00010000
00000100
00001000
00001000
00010000
,
00100000
10000000
00100000
00010000
00001000
00000010
00000001
00000010
,
00001000
00000100
00010000
00000000
00001000
00100000
00010000
00000000
01000000
00010000
00100000
00000000
00001000
00010000
00000100
00000000
,
00010010
00001100
00000101
00011000
,
00010000
00001000
00000100
00010000
00001000
00100000
00010000
00001000
,
00100000
01000000
10000000
00010000
01000000
00001000
00100000
01000000
,
10000000
00000000
00000000
01000000
00000000
00000000
00010000
00000000
00001000
00000000
00000100
00000000
00000001
00000010
00000100
00001000
,
00000010
00011000
11000000
01010000
,
10000000
00100000
00010000
10000000
01000000
00010000
00010000
00100000
,
00001000
00000010
00000001
00000100
00000010
00010000
00001000
00100000
,
01000000
10000000
00100000
00000000
01000000
00001000
00010000
00000000
00000100
00001000
00000010
00000000
00000100
00000001
00000010
00000000
,
00000110
00000101
01010000
01100000
,
01000000
00010000
00001000
00000100
00000010
00001000
00001000
00010000
,
01000000
10000000
00100000
00010000
00001000
00000010
00000001
00000100
,
00000001
00000010
00000100
00001000
00000010
00010000
00001000
01000000
00010000
00100000
01000000
10000000
00100000
01000000
00010000
10000000
,
00010000
00000000
10000000
00000000
00100000
00000000
00000000
00010000
00000000
00000000
00001000
00000000
00010000
00000000
00000100
00000000
,
00001000
00000000
01000000
00000000
00100000
00000000
00000000
00010000
00000000
00000000
00000010
00000000
00000001
00000000
00000100
00000000
,
00000010
00010000
00000000
00000100
00001000
00000000
00000001
00000100
00000000
00001000
00010000
00000000
01000000
00000000
10000000
00000000
,
10100000
00000000
00010000
00100000
00010000
00000000
01000000
00001000
01000000
00000000
00001000
00010000
00001000
00000000
00000000
00000000
,
00000011
00000000
00000010
00000000
00000100
00001000
00000100
00001000
00000100
00000000
00000000
00011000
00000000
00000000
00110000
00000000
,
11000000
00000000
00100000
00000000
00010000
10000000
00010000
10000000
00010000
00000000
00000000
00110000
00000000
00000000
00011000
00000000
,
00010100
00000000
00000000
00000010
00000000
00000000
00000100
00000000
00001001
00000000
00000000
00000001
00000000
00000000
00000100
00000000
,
00000010
00010000
00001000
00100000
00010000
10000000
00100000
01000000
00001000
00010000
00000100
00001000
00000001
00000100
00000010
00001000
,
00000002
00000000
00000000
00000003
00001000
00000000
00000100
00010000
00000200
00000000
00000000
00000300
00020000
00000000
00000000
00030000
,
00001000
00100000
01000000
10000000
00010000
00100000
00001000
00000020
,
00000000
00000030
00000001
00000000
00000010
00000000
00000100
00001000
00000100
00000000
00010000
00000000
00001000
00000000
01000000
00100000
,
01000000
00020000
00030000
10000000
01000000
00020000
00030000
00000000
,
00001000
00000101
00010000
11000000
,
00010000
10100000
00001000
00000011
,
00010000
00001000
00100000
01000000
20000000
00000000
30000000
00000000
,
00020000
00000000
00000000
00030000
01000000
00000000
00001000
00000000
00020000
00000000
00000000
00000000
00030000
00000000
00000000
00000000
,
10100000
00110000
00001100
00000101
,
00000001
00000010
00000001
00000100
00001000
00010000
00010000
00100000
,
10000000
01000000
00010000
00001000
00000100
00000001
00000010
00000100
,
00010000
00001000
00100000
00000000
01000000
10000000
00100000
00000000
01000000
00001000
00010000
00000000
00000100
00001000
00000010
00000000
,
00000011
00000101
00011000
01010000
,
10000000
00010000
01000000
10000000
01000000
00010000
00010000
00100000
,
00001000
00000100
00000010
00001000
00000001
00000100
00001000
00010000
,
00100000
01000000
00010000
00100000
01000000
10000000
00010000
01000000
00001000
00010000
00000100
00001000
00000100
00000010
00000001
00001000
,
00000010
00000000
00010000
00000000
00001000
00000000
00000000
01000000
00000000
00000000
00010000
00000000
00100000
00000000
10000000
00000000
,
00100000
00000000
00010000
00000000
01000000
00000000
00000000
00001000
00000000
00000000
00000100
00000000
00000001
00000000
00001000
00000000
,
00000100
00010000
00000000
00001000
00100000
00000000
10000000
00010000
00000000
00100000
01000000
00000000
00001000
00000000
00010000
00000000
,
00010100
00000000
00010000
00001000
00010000
00000000
00000100
00001000
00000100
00000000
00000010
00000001
00000010
00000000
00000100
00001000
,
00000100
00000000
00010000
00000000
00011000
00000000
00000000
01010000
00000000
00000000
10000000
00000000
01000000
00000000
00010000
00000000
,
00001000
00000000
00000100
00000000
00000101
00000000
00000000
00000011
00000000
00000000
00000001
00000000
00000010
00000000
00001000
00000000
,
00000010
00000100
00000000
00000010
00000001
00000000
00001000
00000100
00000000
00010000
00001000
00000000
01000000
00000000
00010000
00000000
,
00100000
00000000
01000000
10000000
00100000
00000000
01000000
00001000
00010000
00000000
00000100
00001000
00000010
00000000
00000100
00000000
;
