#TITLE:Twilight Clown;
#SUBTITLE:;
#ARTIST:Crimsona;
#TITLETRANSLIT:;
#SUBTITLETRANSLIT:;
#ARTISTTRANSLIT:;
#GENRE:;
#CREDIT:Z-I-v Battle Royale 2020;
#MUSIC:Twilight Clown.ogg;
#BANNER:Twilight Clown.png;
#BACKGROUND:Twilight Clown-bg.png;
#CDTITLE:;
#SAMPLESTART:93.684;
#SAMPLELENGTH:11.294;
#SELECTABLE:YES;
#OFFSET:-0.508;
#BPMS:0.000=170.000;
#STOPS:197.875=0.706
,198.000=0.353
,213.000=0.353
,228.000=0.353
,243.000=0.353
;
#BGCHANGES:;
#FGCHANGES:;

//--------------- dance-single - DJSuperNOVA ----------------
#NOTES:
     dance-single:
     DJSuperNOVA:
     Beginner:
     5:
     0,0,0,0,0:
0000
0000
0000
0000
,
0000
0000
0000
0000
,
0000
0000
0000
0000
,
0000
0000
0000
0000
,
0000
0000
0000
0000
,
0000
0000
0000
0000
,
1000
0000
0000
0000
,
0001
0000
0000
0000
,
1000
0000
1000
0000
,
0001
0000
0001
0000
,
0100
0000
0000
0000
,
0010
0000
0000
0000
,
0100
0000
0000
0000
,
0010
0000
0010
0000
,
1000
0000
0000
0000
,
0010
0000
0000
0000
,
1000
0000
1000
0000
,
0001
0000
1000
0000
,
1001
0000
0001
0000
,
0000
0000
0001
0000
,
0100
0000
1000
0000
,
0000
0000
1000
0000
,
0100
0000
0010
0000
,
0000
0000
0010
0000
,
0100
0000
0100
0000
,
0001
0000
1000
0000
,
0001
0000
0001
0000
,
0001
0001
0001
0000
,
1000
0000
1000
0000
,
1000
1000
1000
0000
,
0010
0000
0010
0000
,
0010
0010
0010
0000
,
0100
0000
0100
0000
,
0100
0100
0100
0000
,
1001
0000
1000
0000
,
0001
1000
0001
0000
,
1000
0000
0001
0000
,
1000
0001
1000
0000
,
0010
0000
0100
0000
,
0010
0100
0010
0000
,
0100
0000
0010
0000
,
0100
0100
0010
0010
,
1000
0000
1000
0000
,
1000
1000
2000
3000
,
0001
0000
0001
0000
,
0001
0001
0002
0003
,
0100
0000
0010
0000
,
0100
0100
0020
0030
,
0010
0000
0100
0000
,
0010
0010
0000
1001
,
0000
1000
1000
0001
,
0000
1000
0000
0001
,
0000
0001
0001
1000
,
0000
0000
0100
0000
,
0100
0100
1000
0000
,
0001
0000
0100
0000
,
0100
0100
0001
0000
,
0000
0010
0000
1000
,
1000
0010
0000
0001
,
0000
0010
0000
0010
,
0010
0001
0000
0000
,
1000
0000
0001
0001
,
1000
0000
0001
0000
,
1000
0000
2002
0000
,
0000
3003
0001
0000
,
1000
0000
0001
0001
,
1000
0000
1000
0000
,
0001
0000
1000
1000
,
0001
0000
0010
0000
,
0100
0000
0010
0010
,
0100
0000
0100
0000
,
0010
0000
0100
0100
,
0010
0000
1000
0000
,
1000
0000
0001
0000
,
0001
0000
0100
0000
,
0100
0000
0001
0000
,
0001
0000
1000
0000
,
1000
0000
0100
0000
,
0100
0000
1000
0000
,
0001
0000
1000
0001
,
1000
0000
0001
1000
,
0000
0001
0000
1000
,
0000
0001
0000
1000
,
0000
0100
0000
0001
,
0000
0100
0000
1000
,
0000
0100
0000
0001
,
0000
1000
0000
0010
,
0000
0001
1000
0000
,
0001
0000
1001
0000
;

//--------------- dance-single - DJSuperNOVA ----------------
#NOTES:
     dance-single:
     DJSuperNOVA:
     Easy:
     7:
     0,0,0,0,0:
0000
0000
0000
0000
,
0000
0000
0000
0000
,
0000
0000
0000
0000
,
0000
0000
0000
0000
,
0000
0000
0000
0000
,
0000
0000
0000
0000
,
0100
0000
0100
0000
,
0001
0000
0001
0000
,
1000
0000
0001
0000
,
1000
0100
0001
1000
,
1001
0000
0001
0000
,
1000
0000
0010
0000
,
1000
0000
0001
0000
,
0100
0001
0100
0000
,
1000
0000
0100
0000
,
0001
0000
0010
0000
,
0001
1000
0010
0000
,
1000
0001
0010
0001
,
1000
0000
1000
0100
,
0001
0000
0001
0100
,
1000
0000
1000
1000
,
0001
1000
0100
0001
,
1000
0000
0001
0100
,
0000
0100
0001
0100
,
1000
1000
0001
0001
,
0010
0100
0010
0100
,
0101
0000
0100
0000
,
0101
0100
1100
0000
,
1100
0000
0100
0000
,
0110
0010
0110
0000
,
1001
0000
0010
0000
,
1100
0100
0101
0000
,
1001
0000
0100
0000
,
0001
0100
0001
0100
,
1001
0000
1000
0000
,
1001
0100
0101
0000
,
1001
0000
0001
0000
,
1010
1000
1010
0000
,
0101
0000
1000
0000
,
0011
0100
1100
0000
,
1001
0000
0110
0000
,
1000
0100
0010
0001
,
1001
1000
0001
1000
,
0001
1000
0002
1003
,
0010
0100
0010
0100
,
0010
0100
0020
0130
,
1000
0100
0001
0100
,
1000
0100
0002
1003
,
0001
0100
1000
0100
,
0010
0001
1001
0110
,
0000
0010
0100
1001
,
0000
0100
0000
0101
,
0000
1000
0100
0001
,
0001
0000
1001
0000
,
0010
0100
0110
0000
,
1000
0000
1010
0000
,
0001
0100
0010
0010
,
0000
1001
0000
0010
,
0010
0110
0000
0001
,
0000
1001
0000
0001
,
1000
0001
1000
0000
,
0110
0000
0001
0001
,
1001
0000
0010
0000
,
1001
0000
0200
0000
,
0020
0330
1001
0000
,
0100
0000
1001
0100
,
1001
0000
0110
0000
,
1000
0000
0110
0001
,
0110
0000
1001
0000
,
0010
0000
1010
1000
,
1010
0000
0011
0000
,
0001
0000
1000
1000
,
0001
0001
1001
0000
,
0100
0100
0001
0000
,
0001
0001
0100
0000
,
1000
1000
0010
0010
,
1000
1000
0001
0000
,
0100
0100
0010
0000
,
1000
0000
0001
0001
,
1000
1000
0001
0010
,
0100
1000
1000
0001
,
0000
0001
0000
1000
,
0000
1000
0000
0010
,
0000
0010
0000
0100
,
0000
0100
0000
0001
,
0000
1000
0000
0001
,
0000
1000
0000
0100
,
0000
0100
0010
0010
,
0010
0010
0110
0000
;

//--------------- dance-single - DJSuperNOVA ----------------
#NOTES:
     dance-single:
     DJSuperNOVA:
     Medium:
     11:
     0,0,0,0,0:
0000
0000
0000
0000
,
0000
0000
0000
0000
,
0000
0000
0000
0000
,
0000
0000
0000
0000
,
0000
0000
0000
0000
,
0000
0000
0000
0000
,
0010
1000
1010
0000
,
0010
0001
0011
0000
,
1000
0001
1001
1000
,
0010
0000
1000
0010
0000
0000
0100
0000
0000
0010
0000
0000
,
0110
0000
0000
0000
0000
0000
0101
0000
0000
0100
0000
0001
,
0100
0000
0000
0000
0000
0000
1100
0000
0000
0100
0000
1000
,
0100
0000
0000
0000
0000
0000
1001
0000
1000
0001
0000
0000
,
0001
0000
0000
0010
0000
0000
0100
0000
0000
1000
0000
1000
,
0100
0000
0000
0000
0000
0000
1100
0000
0000
0010
0000
0100
,
0010
0000
0000
0100
0000
0000
0110
0000
0000
0001
0000
0100
,
0001
0000
0000
0100
0000
0010
1000
0000
0000
1000
0000
1000
,
0010
0000
1000
0010
0000
0000
0100
0000
0000
0010
0000
0000
,
0110
0000
0000
0000
0000
0000
1001
0000
0001
1000
0000
1000
,
0001
0000
0000
1000
0000
0000
0101
0000
0001
0100
0000
0100
,
0001
0000
0000
0100
0000
0000
1100
0000
1000
0100
0000
0100
,
0010
0000
0000
0001
0000
0000
0010
0000
0001
0010
0000
0010
,
0100
0000
0000
0000
0000
0010
1000
0000
0010
1000
0000
0100
,
0000
0000
0010
0100
0000
0100
0010
0000
0010
0100
0000
0000
,
1001
0010
1001
0100
,
0001
0000
0001
0010
0000
0010
0100
0000
0100
1000
0000
0000
,
1001
1000
0001
1000
,
0001
1000
0001
1000
0000
0000
0001
0000
0000
1000
0000
0000
,
0100
0000
0000
0010
0000
0000
0100
0000
0000
0010
0000
0100
,
0010
0100
0010
0100
,
0001
0100
0001
0100
,
0001
0100
0001
0100
0000
0000
0001
0000
0000
0100
0000
0000
,
1000
0100
1000
0100
,
1000
0000
1000
0100
0000
0100
1000
0000
1000
0100
0000
0000
,
0011
1000
0011
1000
,
0001
0010
0001
0010
0000
0000
0101
0000
0000
1000
0000
0000
,
1010
0000
0000
0001
0000
0000
1010
0000
0000
0001
0000
1000
,
0010
0000
0010
1000
0000
1000
0010
0000
0000
0001
0000
0000
,
1100
0001
1100
0001
,
1000
0100
1000
0100
0000
0000
0001
0000
0000
1010
0000
0000
,
1000
0101
1000
0101
,
0001
0000
0001
0100
0000
0100
0001
0000
0001
1000
0000
1000
,
0001
0000
0000
0101
0000
0000
0001
0000
0100
0001
0000
1000
,
0001
0000
1000
0001
0000
0100
0001
0000
1000
0001
0000
0000
,
1001
0000
0000
1000
0000
0100
1000
0000
0001
1000
0000
0001
,
1000
0000
0100
1000
0000
0100
1000
0000
0001
1000
0000
0000
,
1001
0000
0100
0001
0000
0000
1001
0000
0100
1000
0000
0000
,
1001
0000
0100
0001
0000
0000
1001
0000
0100
1000
0000
0000
,
1001
0000
0010
0001
0000
0000
1001
0000
0010
1000
0000
0000
,
1001
0000
0010
0001
0000
0000
1001
0000
0000
1010
0000
0000
,
0001
0000
0000
0100
0000
0001
0100
0000
0000
0101
0000
0000
,
1000
0000
0000
0100
0000
0000
1000
0000
0000
1010
0000
1000
,
0100
0000
0000
0010
0000
0010
0100
0000
0000
0110
0000
0000
,
1001
0000
0110
0010
,
0001
0000
0001
0100
0000
0000
0101
0000
0000
0100
0000
0000
,
0010
0000
0000
1000
0000
0000
1010
0000
1000
0100
0000
0000
,
0010
0000
0100
0010
0000
0000
0110
0000
0000
0011
0000
0000
,
0000
0000
0000
1001
0000
0000
0100
0000
0000
0100
0010
0100
,
0000
0000
0000
0110
0000
0000
1000
0000
0000
0100
0000
1000
,
0100
0000
0000
0110
0000
0000
0001
0000
0001
0100
0000
0100
,
0010
1010
0101
1001
,
0100
0000
0000
0020
0000
0000
1030
0000
1000
0100
0000
0000
,
1100
0010
0001
0100
,
0110
0000
0010
0100
0000
0000
2000
0000
0000
0000
0000
0000
,
0002
3003
0001
0100
,
0001
0000
0000
0100
0000
0000
0010
0100
0010
0100
0000
0000
,
0001
0100
1000
0100
,
1000
0000
0000
0100
0000
0010
0100
0000
0100
0010
0000
0000
,
1000
0100
0001
1000
,
0001
0000
0000
1000
0000
0000
0100
0010
0100
0010
0000
0000
,
0001
1000
0010
0100
,
0010
0000
0000
0100
0000
0000
0001
1000
0001
1000
0000
1000
,
0010
0000
0010
0100
0000
0100
0001
0000
0000
1000
0000
0000
,
0010
0000
0010
0100
0000
0010
0100
0000
0000
1000
0000
0000
,
0001
0000
0100
0001
0000
0100
0001
0000
0000
1000
0000
0000
,
0100
0000
1000
0100
0000
1000
0100
0000
0000
1000
0000
0000
,
0001
0000
0100
0010
0000
0010
0100
0000
0000
0001
0000
1000
,
0100
0000
1000
0100
0000
1000
0000
0000
0001
0100
0000
0001
,
0100
0000
0001
0010
0000
0000
1010
0000
0000
0010
0000
0000
,
0011
0000
0000
0010
0000
0000
0110
0000
0010
0100
0000
0100
,
0010
0000
0010
1000
0000
1000
0001
0000
0000
1100
0000
0000
,
0010
0000
0010
1000
0000
0100
1000
0000
1000
0010
0000
0100
,
0000
0000
0100
0001
0000
0000
1000
0000
0000
0101
0000
0000
,
1000
0000
0100
1000
0000
0100
0000
0000
0010
0001
0000
0000
,
1000
0000
0010
0001
0000
1000
0000
0000
0000
1001
0000
0010
,
0001
0000
0000
1000
0000
0010
1000
0000
0000
0001
0000
0010
,
0001
0000
1000
0000
0000
0100
0001
0000
0001
0100
0000
0000
,
0010
0000
0010
0100
0000
0000
1000
0100
1000
0100
0000
0001
,
0100
0001
0100
0001
0000
1000
0001
0000
0000
0000
0000
0000
;

//--------------- dance-single - DJSuperNOVA ----------------
#NOTES:
     dance-single:
     DJSuperNOVA:
     Hard:
     15:
     0,0,0,0,0:
0000
0000
0000
0000
,
0000
0000
0000
0000
,
0000
0000
0000
0000
,
0000
0000
0000
0000
,
0000
0000
0000
0000
,
0000
0000
0000
0000
,
1000
0001
0101
0001
,
1000
0100
1100
1000
,
0100
0000
0000
0010
0000
1000
0010
0000
0010
0100
0000
0100
,
0001
0000
0001
0010
0000
0010
0100
0000
0100
1000
0000
0000
,
1001
0000
0000
0010
0000
0000
1010
0000
0000
0100
0000
0100
,
0001
0000
0000
0100
0000
0000
0110
0000
0000
1000
0000
0010
,
1000
0000
0000
0001
0000
0000
1001
0000
0000
0001
0000
0001
,
1000
0000
1000
0001
0000
0001
0010
0000
0010
0100
0000
0100
,
1000
0000
0000
0010
0000
0000
0110
0000
0000
0100
0000
0100
,
0001
0000
0000
1000
0000
0000
1001
0000
0000
0001
0000
1000
,
0100
0000
0010
0100
0000
0100
0010
0000
0000
0010
0000
0001
,
0010
0000
0010
0001
0000
0001
0100
0000
0100
0010
0100
0010
,
1000
0000
0000
1000
0000
0000
0011
0000
0001
0010
0000
0100
,
0010
0000
0000
1000
0000
0000
1001
0000
1000
0100
0000
0010
,
0100
0000
0000
0001
0000
0000
0101
0000
0010
0001
0000
0100
,
0001
0100
0001
1000
0000
1000
0010
0000
0010
1000
0000
0010
,
0100
0000
0000
0010
0000
1000
0001
0000
1000
0100
0000
1000
,
0000
0000
0100
1000
0000
0001
1000
0000
0001
0010
0000
0010
,
0001
0010
0100
1000
0000
0000
1000
0010
0100
0001
0000
0000
,
0010
0001
0010
0001
0010
0001
1000
0100
1000
0100
0000
0000
,
1001
0000
1000
0001
0000
0001
1000
0000
1000
0010
0000
0010
,
1000
0010
1000
0010
0000
1000
0001
0000
0001
0010
0000
0010
,
0100
0000
0100
0010
0000
0010
0100
0000
0100
0010
0001
0010
,
0001
0000
0100
0001
0000
0001
0100
0000
0100
1000
0000
1000
,
0010
0000
0010
0100
0000
0100
0010
0000
0010
1000
0000
1000
,
0010
0100
0010
1000
0000
1000
0100
0000
0100
0010
0000
0010
,
0001
0000
0001
0100
0000
0100
0010
0000
0010
0100
0000
0100
,
0010
0000
0010
0100
0010
0100
0010
0000
1000
0001
1000
0001
,
0010
0000
0010
0001
0000
0001
0010
0000
0010
0100
0000
0100
,
1000
0100
1000
0100
0000
0001
0100
0001
0100
0001
0000
1000
,
0001
0000
0001
1000
0000
1000
0001
0000
0001
1000
0000
0001
,
1000
0000
1000
0001
0000
1000
0001
0000
0100
0010
0000
0010
,
0100
0000
0100
0010
0000
0010
1000
0000
1000
0010
0000
0100
,
0010
0100
0010
0100
0000
0001
1000
0001
1000
0001
0000
0010
,
1000
0000
0001
1000
0000
0100
1000
0000
0100
0001
0000
1000
,
0001
0000
0100
0001
0000
0010
0001
0010
0001
1000
0100
0010
,
0001
0000
0000
1001
0000
1000
0001
0000
0001
1000
0000
1000
,
0010
0000
0010
1000
0000
1000
0010
0000
0010
0001
0000
0000
,
1001
0000
0000
0001
0000
0001
0100
0000
0100
0001
0000
0001
,
0100
0000
0100
0010
0000
0010
1000
0000
1000
0010
0000
0000
,
1000
0000
0100
0010
0000
0001
1000
0000
0010
0100
0000
0001
,
1000
0000
0100
0010
0000
0001
1000
0000
0010
0100
0000
0001
,
1000
0000
0001
0010
0000
0100
1000
0000
0001
0100
0000
0010
,
1000
0000
0001
0010
0000
0100
1000
0000
0000
1001
0000
0000
,
0001
0000
1000
0001
1000
0001
0100
0000
0100
0010
0000
0000
,
1010
0000
0000
0100
0000
0000
0110
0000
0000
0010
0000
0010
,
0001
0000
0001
0010
0000
0010
0100
0000
0100
1000
0000
0000
,
1001
0100
1001
0010
,
0001
0000
0001
0100
0001
0100
0010
0000
0000
0110
0000
0000
,
1000
0000
0000
0100
0000
0000
0110
0000
0100
0010
0000
0100
,
0000
0000
0001
0100
0000
0010
1000
0000
0000
1010
0000
0000
,
0100
0000
0000
0101
0000
0000
0001
0000
0000
1000
0100
1000
,
0100
0000
0010
0001
0000
0000
0011
0000
0000
1000
0000
0001
,
0010
0000
0000
0110
0000
1000
0010
0000
0010
0100
0000
0100
,
0010
0000
0010
0200
0000
0000
0301
0000
0000
0101
0000
0000
,
1001
0000
0000
2000
0000
0000
3001
0000
0001
1000
0000
1000
,
0001
1001
1000
0010
,
0110
0000
0100
0001
0000
0001
2000
0000
0000
3100
0000
0000
,
0002
0000
0000
0103
0000
0000
1000
0000
1000
0001
0000
0001
,
1000
0000
1000
0100
0000
0100
0010
0100
0010
0001
0000
0001
,
1000
0000
1000
0001
0000
0001
0100
0000
0100
0010
0000
0010
,
1000
0000
1000
0100
1000
0100
0010
0000
0010
0100
0000
0100
,
0010
0000
0010
1000
0000
0000
0001
0000
0001
0010
0000
0010
,
0001
0000
0001
0100
0000
0100
0010
0001
0010
0001
0000
0001
,
0100
0000
0100
0010
0000
0010
1000
0000
1000
0100
0000
0100
,
1000
0000
1000
0010
0000
0010
0100
0000
0100
0010
0100
0010
,
1000
0000
1000
0001
0000
0010
0100
0000
0000
0110
0000
0000
,
0010
0000
0010
0100
0000
0100
1000
0000
0000
1100
0000
0000
,
0010
0000
0010
0100
0000
0100
0001
0000
0000
0101
0000
0000
,
1000
0000
0001
1000
0000
1000
0100
1000
0100
1000
0000
0001
,
0100
0000
0100
0010
0000
0010
1000
0000
0000
0100
0000
0001
,
0010
0000
0010
0001
0000
1000
0000
0000
0010
0100
0000
0001
,
0100
0000
0100
0010
0000
0000
1000
0100
1000
0100
0000
0000
,
0001
0100
0001
0100
0000
0000
1000
0010
1000
0010
1000
0001
,
0100
0001
0100
0001
0000
0000
1001
0000
0000
0100
0000
0000
,
1000
0000
1000
0100
0000
0100
1000
0000
1000
0001
0000
0100
,
0000
0000
0100
0001
0000
0000
1000
0000
0000
0100
0000
0000
,
0001
0000
0001
0100
0000
0100
0000
0000
0100
0001
0000
0001
,
0100
0000
0100
0010
0000
1000
0000
0000
0000
0001
0000
1000
,
0100
0000
0010
0001
0000
1000
0100
0000
0010
0001
0000
1000
,
0100
0000
0010
0000
0000
0100
0001
0000
1000
0100
0000
0100
,
0010
0000
0001
0100
0000
0000
1000
0001
1000
0001
1000
0001
,
1000
0100
0010
0100
0010
0001
1000
0000
0000
0000
0000
0000
;

//--------------- dance-single - DJSuperNOVA ----------------
#NOTES:
     dance-single:
     DJSuperNOVA:
     Challenge:
     17:
     0,0,0,0,0:
0000
0000
0000
0000
,
0000
0000
0000
0000
,
0000
0000
0000
0000
,
0000
0000
0000
0000
,
0000
0000
0000
0000
,
0000
0000
0000
0000
,
1000
0001
0101
0100
,
1000
0100
1100
0001
,
0100
0000
0000
0010
0000
1000
0010
0000
0010
0100
0000
0100
,
0001
0000
0001
0010
0000
0010
0100
0000
0100
1000
0100
0010
,
0001
0000
0000
0010
0000
0000
1010
0000
0000
0100
0000
0010
,
0001
0000
0000
0100
0000
0000
0110
0000
0000
1000
0000
0100
,
0010
0000
0000
0001
0000
0000
1001
0000
0100
0001
0000
0100
,
0001
0100
0010
1000
0000
1000
0010
0000
0010
0100
0000
0100
,
0001
0000
0000
0100
0000
0000
0110
0000
0000
0010
0000
1000
,
0010
0000
0000
0100
0000
0100
0001
0000
0000
0001
0000
1000
,
0100
1000
0010
0100
0000
0100
0010
0000
0000
0010
0000
1000
,
0010
0000
0010
1000
0000
0010
0001
0100
1000
0100
0010
0001
,
1000
0000
0000
1000
0000
0000
0011
0000
0001
0010
0000
0100
,
0010
0000
1000
1000
0000
0000
1001
0000
1000
0100
0000
0010
,
0100
0000
0000
0001
0000
0000
0101
0000
0010
0001
0000
0100
,
0001
0010
0100
1000
0000
1000
0010
0000
0010
0001
0000
0001
,
0100
0000
0000
0010
0000
0010
1000
0000
1000
0100
0000
1000
,
0000
0000
0100
0100
0000
0010
0001
0000
0001
0100
0000
0100
,
0001
0010
0100
1000
0000
0100
1000
0010
0100
1000
0000
0100
,
0010
0001
0100
0010
0100
1000
0100
0001
0010
0100
0010
0001
,
1000
0000
1000
0001
0000
0001
1000
0000
1000
0010
0000
0010
,
1000
0100
0010
0001
0000
0001
1000
0000
1000
0010
0000
0010
,
0100
0000
0100
0010
0000
0010
0100
0000
0100
0010
1000
0001
,
0100
0000
0100
0001
0000
0001
0100
0000
0100
0001
0000
0001
,
0010
0000
0010
1000
0000
1000
0010
0000
0010
1000
0000
1000
,
0010
0100
0001
1000
0000
1000
0100
0000
0010
0100
0000
0100
,
0001
0000
0001
0100
0000
0100
0010
0000
0010
0100
0000
0100
,
1000
0000
1000
0010
0100
0001
1000
0000
0010
1000
0100
0010
,
0001
0000
0001
0100
0010
0100
0001
0000
1000
0100
0010
0100
,
1000
0000
0100
0010
0001
0010
1000
0100
1000
0001
0000
1000
,
0001
0000
0001
1000
0100
1000
0001
0000
1000
0001
0000
0001
,
1000
0000
1000
0001
0010
0100
1000
0010
0100
0001
0100
0010
,
0001
0000
0001
0100
0010
0100
0001
0000
0010
1000
0100
1000
,
0010
1000
0100
0010
0000
0010
0001
0100
0001
0010
0000
0010
,
1000
0100
1000
0001
0000
1000
0001
0100
1000
0001
0000
1000
,
0001
0100
1000
0001
0010
1000
0001
0100
1000
0001
0010
1000
,
0001
0000
0000
1000
0010
0100
0010
1000
0100
1000
0010
0100
,
0010
1000
0100
1000
0010
0100
0010
1000
0100
0001
0000
0000
,
1001
0000
0000
0001
0100
0010
0100
0001
0010
0001
0100
0010
,
0100
0001
0010
0001
0100
0010
0100
0001
0010
1000
0000
0000
,
1000
0100
1000
0001
0100
0001
1000
0100
1000
0001
0100
0001
,
1000
0010
1000
0001
0010
0001
1000
0010
1000
0001
0000
0001
,
1000
0010
1000
0001
0100
0001
1000
0100
1000
0001
0010
0001
,
1000
0010
0001
1000
0100
0001
1000
0000
0000
1001
0000
0000
,
0100
0000
0000
0000
0001
0000
1000
0100
1000
0000
0010
0000
1000
0000
0100
0000
0010
0000
0001
0000
0100
0000
0010
0000
,
1000
0010
0100
1000
0100
0001
2000
0000
0000
3001
0100
0010
,
0001
0000
0010
0000
0100
0000
0010
0000
1000
0000
0100
0000
1000
0000
0000
0000
0000
0000
1001
0000
0000
0000
0100
0010
,
0001
0000
0000
1000
0000
0000
1000
0100
0010
0001
0000
0001
,
0100
0000
1000
0000
0100
0000
0010
0000
1000
0100
1000
0000
0100
0000
0001
0000
0010
0000
0001
0000
0000
0000
0001
0000
,
0100
0010
0001
0010
0100
1000
0100
1000
0100
0010
1000
0010
,
0100
0001
0010
0100
1000
0100
0020
0000
0000
0200
0000
0000
,
0330
0000
0000
0100
0010
0100
0010
0000
0000
0000
0000
0000
1001
0000
0000
0000
0000
0000
0001
0100
0001
0000
0100
0000
,
0010
1000
0010
0010
0100
0001
1000
0000
1000
0001
0010
0100
,
0020
0000
0000
1030
0100
1000
0010
0001
0010
1000
0100
0010
,
0001
0000
0100
0000
0001
0000
0010
0000
0000
0000
0010
0100
0010
0000
0000
0000
0000
0000
1001
0000
0000
0000
0000
0000
,
1010
0000
0000
0020
0000
0000
1030
0000
0001
1000
0000
1000
,
0010
1000
0100
0010
0001
0100
0010
0100
0001
0010
0100
1000
,
0001
1000
0100
0010
0000
0010
2000
0000
0000
0000
0000
0000
,
0002
0000
0000
3003
0000
0000
1001
0000
1000
0010
0100
0010
,
0001
0000
0001
0010
0100
0010
1000
0100
0010
0001
1000
0010
,
1000
0010
0100
0001
0000
0000
1001
0000
0001
0010
0100
0010
,
1000
0000
1000
0010
0100
0010
0001
0000
0010
1000
0000
0010
,
0001
0010
0100
2000
0000
3100
0010
0000
0010
0100
0001
0100
,
0010
0000
0100
0010
1000
0010
0100
1000
0100
0010
0000
0100
,
0001
0100
0010
1000
0000
1000
0001
0100
0010
0001
0000
0001
,
1000
0100
0010
1000
0000
1000
0001
0100
0010
1000
0100
0010
,
0001
0100
0010
1000
0100
0010
0110
0000
0000
0001
0000
0000
,
0010
0000
0010
0100
0000
0100
1000
0000
0000
1100
0000
0000
,
0010
0000
0010
0100
0000
0100
0001
0000
0000
0101
0000
0000
,
1001
0000
1000
0010
0000
0100
0010
0001
0010
1000
0000
0100
,
0001
0000
0100
0010
0000
0010
1000
0000
0100
1000
0000
0001
,
1000
0000
1000
0010
0000
1000
0100
0000
0010
0001
0000
0100
,
0001
0000
0100
1000
0000
0010
0001
0100
1000
0001
0000
0100
,
1000
0010
0001
1000
0000
0100
0001
0100
1000
0100
0001
0010
,
0001
0100
1000
0100
0001
0010
1000
0000
0000
1001
0000
0000
,
0010
0000
0010
1000
0000
1000
0100
0000
0100
0010
0000
0001
,
0000
0000
0100
0000
0000
0000
1000
0000
0000
0001
0000
0000
,
0100
0000
0100
0010
0000
1000
0000
0000
0100
0010
0000
0010
,
0001
0000
0001
1000
0000
0010
0000
0000
0000
1000
0000
1000
,
0010
0000
0100
1000
0000
1000
0010
0000
0100
1000
0000
0010
,
1000
0000
0001
0000
0000
0100
0001
0000
1000
0100
0000
0100
,
0010
0000
0100
1000
0000
0000
1000
0100
0010
0100
0010
0001
,
1000
0100
0001
1000
0010
0001
1000
0000
0000
0000
0000
0000
;
