#TITLE:Try Again;
#SUBTITLE:;
#ARTIST:USAO;
#TITLETRANSLIT:;
#SUBTITLETRANSLIT:;
#ARTISTTRANSLIT:;
#GENRE:;
#CREDIT:;
#MUSIC:Again.ogg;
#BANNER:;
#BACKGROUND:BG.jpg;
#CDTITLE:;
#SAMPLESTART:0.000;
#SAMPLELENGTH:0.000;
#SELECTABLE:YES;
#OFFSET:-0.157;
#BPMS:0.000=170.000
,101.000=21.250
,103.000=42.500
,105.000=85.000
,109.000=170.000
;
#STOPS:;
#DISPLAYBPM:170.000;
#BGCHANGES:;
#FGCHANGES:;

//--------------- dance-single - Maractus (X-Scale) ----------------
#NOTES:
     dance-single:
     Maractus (X-Scale):
     Challenge:
     15:
     0,0,0,0,0:
0000
0000
0000
0000
,
0000
0000
1000
0001
2002
3003
0202
0303
,
2200
3300
2020
3030
0022
0033
2002
3003
,
2200
3300
0202
0303
0022
0033
2020
3030
,
2002
3003
0220
0330
2002
3003
0220
0330
,
2002
3003
1000
0010
0100
0001
1000
0100
,
0010
0001
0100
0010
1000
0001
0010
0100
,
1000
0000
0001
0000
1000
0100
0010
0100
1000
0001
0100
0010
0100
0001
0010
0100
,
1000
0010
0100
0001
2000
0000
0000
0000
3002
0000
0003
0000
0002
0000
0003
0000
,
0002
0003
2200
3300
2020
3030
2200
3300
,
2020
3030
0001
0100
0100
1000
0100
0100
,
0002
0003
0220
0330
1000
0010
0010
0001
,
0010
0010
2000
3000
0100
0001
0100
1000
,
0020
0030
0220
0330
0001
0010
0010
1000
,
0100
0100
0001
0010
1000
0010
0001
0010
,
2000
3000
0022
0033
0202
0303
0022
0033
,
0202
0303
0002
0000
1003
0100
0001
0100
,
1000
0010
0002
0000
0013
1000
0010
0100
,
0100
0001
2000
0000
3100
0001
0100
1000
,
0200
0300
0010
0001
0100
0010
1000
0010
,
0010
0001
2000
0000
3100
0100
0001
0010
,
0100
1000
0002
2003
3010
0100
0001
1000
,
0001
2000
0000
3001
0100
0010
1000
0100
,
0010
0001
2000
0000
3001
0010
1000
0010
,
0001
0020
0030
0100
0010
0100
0010
0100
,
0010
1001
MMMM
0000
MMMM
0000
MMMM
0000
,
MMMM
0000
MMMM
0000
0000
0000
2000
3002
,
0003
0000
2000
3000
0002
0000
0000
0000
0000
0000
0000
0000
0003
0000
0100
0000
,
0010
0100
0010
1000
0000
0100
0000
0010
,
0000
0002
0000
0000
0000
0000
0003
0100
,
0010
1000
0100
0020
0000
0130
0010
0001
,
0100
0020
0000
0000
0000
0000
0030
1000
,
0010
0100
0001
0010
0200
0300
1000
0100
,
0010
0001
2000
0000
0000
0000
0000
0000
3002
0000
0000
0000
2003
0000
0000
0000
,
0000
0000
3000
1001
1001
0000
0001
0100
,
0010
0100
0002
0000
1003
0100
0010
0100
,
1000
1000
0020
0000
0130
0001
1000
0100
,
0010
0001
2000
0000
3001
0100
0010
0100
,
0001
0001
0100
0010
1000
0100
0010
0001
,
1000
0001
2000
0000
3001
0010
0100
0010
,
0001
0001
0200
0000
0310
1000
0100
0010
,
0001
1000
0002
0000
1003
0010
0100
0010
,
1000
0000
1000
0000
0010
0000
0100
0010
0100
0000
0001
0000
0100
0000
1000
0000
,
0100
0000
0001
0000
2002
0000
3003
0000
0001
0000
0100
0000
0010
0000
1000
0001
,
1000
0000
0001
0000
2002
0000
3003
0000
0001
0000
0010
0000
0100
0000
1000
0001
,
1000
0000
0001
0000
2002
0000
3003
0000
1000
0000
0010
0000
0100
0000
0001
1000
,
0001
1000
2002
3003
0001
0010
0200
2300
,
3002
2003
3010
0010
0100
0100
0001
0001
,
0010
0010
0100
0100
1000
1000
0010
0010
,
0100
0000
0100
0000
0001
0100
0010
0100
0001
1000
0100
0010
0100
1000
0010
0100
,
0001
0010
0100
1000
0002
0000
0000
0000
2003
0000
3020
0000
0230
0000
0320
0000
,
0230
0302
2203
3300
0001
0010
0100
0010
,
0100
1000
0202
0303
1000
0010
0010
0001
,
0010
0010
2000
0000
3100
0100
0001
0100
,
0100
1000
0010
0100
0001
0010
0100
1000
,
0001
1000
2002
3003
0001
0010
0010
1000
,
0010
0010
0002
0000
0103
0100
1000
0100
,
0100
0000
0001
0000
1000
0010
0100
0001
0010
0100
0010
0001
0100
0010
1000
0010
,
0100
0010
1000
0100
0010
0001
0010
0100
0010
0100
1000
0010
0200
0000
0320
0000
,
0230
0302
2003
0000
3001
0010
1000
0010
,
0001
0100
2000
0000
3100
0001
0010
0100
,
1000
0010
0002
0000
0013
1000
0100
0010
,
0001
0100
0010
0100
0001
1000
0100
0010
,
0100
1000
0002
0000
1003
0100
0100
0001
,
0100
0100
2000
0000
3010
0010
0001
0010
,
0010
1000
0002
0000
0013
1000
0010
0001
,
0100
1000
0100
0001
0010
0100
1000
0010
,
0100
0001
2000
0000
0000
0000
3000
0010
,
0100
0010
0100
0001
0000
0010
0000
0100
,
0000
2000
0000
0000
0000
0000
3000
0010
,
0100
0001
0010
0200
0000
0310
0100
1000
,
0010
0200
0000
0000
0000
0000
0300
0001
,
0100
0010
1000
0100
0020
0030
0001
0010
,
0100
1000
0001
1000
0010
0100
0001
0010
0100
1000
0010
0100
0010
1000
0001
0010
,
0100
0010
0001
0100
0020
0000
2030
0000
3200
0000
0320
0000
0032
0000
0023
0000
,
2030
3020
0032
0000
1003
0010
0100
0010
,
2000
3002
0000
1003
0001
0010
0100
0020
,
0032
0203
2300
0000
3100
0001
0010
0010
,
1000
0100
0100
0002
0000
2003
0000
3002
,
0000
1003
1002
0000
0103
0100
1000
0010
,
0010
0002
0000
0013
0010
1000
0100
0100
,
0001
1000
0100
0001
0100
1000
0010
0001
,
0010
0000
1000
0100
0010
0001
0100
0010
1000
0001
1000
0001
2000
0000
0001
0000
,
0002
0000
0000
0000
,
0000
0000
0000
0000
,
0000
0000
0000
0000
,
0000
3003
0000
0000
0000
0000
0000
0000
;
