#VERSION:0.83;
#TITLE:Trinity Homerun;
#SUBTITLE:;
#ARTIST:KASAI HARCORES;
#TITLETRANSLIT:;
#SUBTITLETRANSLIT:;
#ARTISTTRANSLIT:;
#GENRE:;
#ORIGIN:;
#CREDIT:;
#BANNER:Trinity Homerun.png;
#BACKGROUND:Trinity Homerun-bg.png;
#PREVIEWVID:;
#JACKET:Trinity Homerun-jacket.png;
#CDIMAGE:;
#DISCIMAGE:;
#LYRICSPATH:;
#CDTITLE:;
#MUSIC:Trinity Homerun.ogg;
#OFFSET:0.000000;
#SAMPLESTART:89.142845;
#SAMPLELENGTH:15.000000;
#SELECTABLE:YES;
#BPMS:0.000=175.000,
164.000=87.500,
172.000=175.000,
220.000=87.500,
228.000=175.000;
#STOPS:;
#DELAYS:;
#WARPS:;
#TIMESIGNATURES:0.000=4=4;
#TICKCOUNTS:0.000=4;
#COMBOS:0.000=1;
#SPEEDS:0.000=1.000=0.000=0;
#SCROLLS:0.000=1.000;
#FAKES:;
#LABELS:0.000=Song Start;
#BGCHANGES:;
#KEYSOUNDS:;
#ATTACKS:
;

//---------------dance-single - ----------------
#NOTEDATA:;
#CHARTNAME:;
#STEPSTYPE:dance-single;
#DESCRIPTION:;
#CHARTSTYLE:;
#DIFFICULTY:Hard;
#METER:16;
#RADARVALUES:0.798488,1.252268,0.539254,0.239669,0.748964,653.000000,590.000000,63.000000,28.000000,0.000000,0.000000,0.000000,0.000000,0.000000,0.798488,1.252268,0.539254,0.239669,0.748964,653.000000,590.000000,63.000000,28.000000,0.000000,0.000000,0.000000,0.000000,0.000000;
#CREDIT:;
#NOTES:
0000
0000
0000
0000
,
0000
0000
0000
0000
,
0000
0000
0000
0000
,
0000
0000
0000
0000
,
0000
0000
0000
0000
,
0000
0000
0000
0000
,
0000
0000
0000
0000
,
0000
0000
0000
0000
,
0000
0000
0000
0000
,
1002
0000
1003
0020
0000
1030
0010
0100
,
0001
0011
1010
0011
,
2000
0000
3100
0020
0000
0130
0010
0001
,
0100
0110
0011
1010
,
2000
0000
3100
0002
0000
0103
1000
0010
,
0100
1010
0101
1001
,
0002
0000
0013
2000
0000
3010
0001
0100
,
0010
1000
0100
0001
0100
1000
1100
0000
,
1010
0000
0000
0000
0100
0000
0000
0000
0011
0000
0000
0000
2000
3000
0002
0003
,
0101
0000
0000
0000
0010
0000
0000
0000
1100
0000
1000
0100
1000
0100
0010
0000
,
0200
0000
0000
0000
0310
0000
0000
0000
1001
0000
0000
0000
0020
0030
0200
0300
,
0101
0000
1000
1100
0000
0010
0011
0000
,
0101
0000
0000
0000
0010
0000
0000
0000
1100
0000
1000
0100
0020
0000
0130
0000
,
0011
0000
0000
0000
0100
0000
0000
0000
1010
0000
0000
0000
1000
0010
0100
0001
,
0020
0000
0000
0000
0130
0000
0000
0000
1001
0000
1000
0001
0100
0000
0100
0000
,
0110
0000
1000
1010
0000
0001
0011
0000
,
1000
0000
0000
0001
0010
0000
1000
0000
0010
0000
0000
0100
1000
0000
1000
0000
,
0001
0000
0000
1000
0100
0000
0001
0000
0100
0000
0000
0010
0001
0000
0100
0000
,
1000
0000
0000
0100
0001
0000
0010
0000
1000
0000
0000
0010
0001
0000
0100
0000
,
0020
0030
0020
0030
0011
0000
1010
0000
,
1000
0100
1000
0000
0001
0100
0001
0000
1000
0100
1000
0000
1001
0000
0000
0000
,
0001
0010
0001
0000
1000
0010
1000
0000
0001
0010
0001
0000
0110
0000
0000
0000
,
1000
0100
1000
0000
0001
0010
0001
0000
1000
0010
1000
0010
0100
0001
0100
0001
,
0020
0000
0000
0000
0030
0000
0010
0100
0010
0000
0000
0000
0110
0000
0000
0000
,
1001
0000
0000
0000
1000
0100
0010
0000
0001
0100
0010
0000
1000
0100
0010
0000
,
0001
0000
0100
0000
1000
0000
0100
0010
1000
0100
0010
0000
0001
0100
0010
1000
,
0001
0000
1000
0000
0010
0100
0010
0100
0001
0010
0100
0000
1000
0010
0100
0000
,
0001
0000
0010
0000
0010
0000
1000
0100
1000
0010
0100
0000
0001
0010
0100
1000
,
0010
1000
0100
0001
0100
0010
0001
0100
,
1000
0001
0010
0100
0010
1000
0100
0001
,
1000
0010
0001
0100
1000
0001
0010
0100
,
0001
0010
0100
1000
1100
0000
0101
0000
,
1001
0000
0000
0000
0001
0010
0001
0010
0200
0000
0000
0000
1300
0000
1000
0000
1001
0000
0000
0000
1000
0010
1000
0010
0100
0000
0001
0010
0100
0010
0001
0000
,
1001
0000
0000
0000
1000
0100
1000
0100
0020
0000
0000
0000
0032
0000
0000
0000
0103
0000
0010
0000
1000
0000
0100
0000
0010
0000
0001
0000
0100
0000
0010
0000
,
1000
0000
0100
1000
0010
0000
0100
0001
0010
0000
0100
0000
0110
0000
0000
0000
,
1000
0000
0001
0010
0100
0000
1000
0010
0100
0000
0001
0000
1001
0000
0000
0000
,
1000
0001
0010
0100
0010
0001
1000
0010
0100
0010
0100
0001
1000
0100
0010
0100
,
0020
0000
0000
0000
0030
0000
0100
0010
0100
0000
0000
0000
0110
0000
0000
0000
,
1001
0000
0000
1000
0100
0010
0001
0100
0010
1000
0100
0010
,
0001
0000
0000
1000
0010
1000
0001
0010
0001
1000
0010
1000
,
0100
0000
0000
0001
0010
1000
0010
0001
0100
1000
0100
0001
,
0010
0100
0010
0100
1000
0010
0100
0010
0100
0001
0010
0100
,
1000
0000
0010
0001
0000
0010
0100
0000
0001
0010
0000
0100
,
0001
0000
0100
0010
0000
0001
0100
0000
1000
0001
0000
0010
,
1000
0000
0100
0010
0000
1000
0010
0000
0001
0100
0000
0010
,
1000
0000
0100
0010
0000
0001
0100
0000
0000
0110
0000
0000
,
1001
0000
0000
0000
0000
0000
0000
0000
0000
0000
0000
0000
0000
0000
0000
0000
0000
0000
0000
0000
0000
0000
0000
0000
1000
0000
0000
0000
0000
0000
0010
0000
0000
0000
0000
0000
1000
0000
0000
0000
0000
0000
0010
0000
0000
0000
0000
0000
0100
0000
0000
0000
0000
0000
0000
0000
0000
0000
0000
0000
0000
0000
0000
0000
0001
0000
0000
0000
0000
0000
0000
0000
0010
0000
0000
0000
0000
0000
0000
0000
0000
0000
0000
0000
0000
0000
0000
0000
0001
0000
0000
0000
0000
0000
0000
0000
1000
0000
0000
0000
0000
0000
0000
0000
0000
0000
0000
0000
0000
0000
0000
0000
0000
0000
0000
0000
0000
0000
0000
0000
0010
0000
0000
0000
0000
0000
0100
0000
0000
0000
0000
0000
0010
0000
0000
0000
0000
0000
0100
0000
0000
0000
0000
0000
0001
0000
0000
0000
0000
0000
0000
0000
0010
0000
0000
0000
0000
0000
0000
0000
0100
0000
0000
0000
0000
0000
0000
0000
1000
0000
0000
0000
0000
0000
0000
0000
0100
0000
0000
0000
0000
0000
0000
0000
0010
0000
0000
0000
0000
0000
0000
0000
,
0001
0000
0000
0000
0000
0000
0000
0000
0000
0000
0000
0000
0000
0000
0000
0000
0000
0000
0000
0000
0000
0000
0000
0000
1000
0000
0000
0000
0000
0000
0010
0000
0000
0000
0000
0000
1000
0000
0000
0000
0000
0000
0010
0000
0000
0000
0000
0000
0200
0000
0000
0000
0000
0000
0000
0000
0000
0000
0000
0000
0000
0000
0000
0000
0000
0000
0000
0000
0000
0000
0000
0000
0302
0000
0000
0000
0000
0000
0000
0000
0000
0000
0000
0000
0000
0000
0000
0000
0000
0000
0000
0000
0000
0000
0000
0000
1003
0000
0000
0000
0000
0000
0000
0000
0000
0000
0000
0000
0000
0000
0000
0000
0010
0000
0000
0000
0000
0000
0000
0000
0100
0000
0000
0000
0000
0000
0000
0000
0000
0000
0000
0000
0000
0000
0000
0000
0101
0000
0000
0000
0000
0000
0000
0000
0000
0000
0000
0000
0000
0000
0000
0000
0000
0000
0000
0000
0000
0000
0000
0000
1010
0000
0000
0000
0000
0000
0000
0000
0000
0000
0000
0000
0000
0000
0000
0000
0011
0000
0000
0000
0000
0000
0000
0000
0000
0000
0000
0000
0000
0000
0000
0000
,
0001
0000
0000
0110
0000
0000
1010
0000
1000
0000
0000
0110
0000
0000
0101
0000
,
0001
0000
0000
0011
0000
0000
1010
0000
1000
0000
0000
0101
0000
0000
1100
0000
,
0001
0010
0100
0010
0001
1000
0010
0100
0001
0100
0010
1000
0100
0010
0001
0100
,
0020
0000
0000
0000
0030
0000
0100
0010
0100
0000
0000
0000
0110
0000
0000
0000
,
1000
0100
0001
0100
1000
0010
0001
0010
,
2000
0001
0100
3010
,
0001
0010
1000
0001
0100
1000
0010
0100
,
0002
0100
0010
1003
,
1000
0010
0010
0001
0100
0100
1000
0010
,
0200
0001
0010
1300
,
0001
0010
1000
0010
0100
0001
0100
1000
,
0010
0000
0000
0000
0100
0000
0100
0000
0000
0000
0010
0000
0010
0000
1000
0100
,
0010
0000
0001
0000
0100
0010
0100
0000
0001
0000
1000
0000
0010
0100
0010
0000
,
1100
0010
0101
0000
0011
0100
1010
0000
,
0001
0000
0100
0000
0010
1000
0010
0000
0100
0000
0001
0000
0010
0001
0010
0000
,
0011
0000
0100
0000
1010
0000
0000
0000
1000
0100
0010
0001
1000
0000
0001
0000
,
1000
0010
1000
0010
0100
0001
0100
0001
0010
0001
0010
0001
0100
0000
0100
0000
,
0001
0010
0001
0010
0001
0100
0001
0100
0010
1000
0010
1000
0100
0000
0100
0000
,
1000
0010
0100
0001
0010
0001
0100
0000
0001
0010
0100
1000
0010
0100
0010
0000
,
1000
0001
0010
0100
0010
0001
0100
0010
1000
0010
0100
0001
0010
0100
1000
0000
,
1001
0000
0000
0000
;

//---------------dance-single - ----------------
#NOTEDATA:;
#CHARTNAME:;
#STEPSTYPE:dance-single;
#DESCRIPTION:;
#CHARTSTYLE:;
#DIFFICULTY:Medium;
#METER:12;
#RADARVALUES:0.549037,0.823861,0.299586,0.487897,0.179751,449.000000,414.000000,35.000000,57.000000,0.000000,0.000000,0.000000,0.000000,0.000000,0.549037,0.823861,0.299586,0.487897,0.179751,449.000000,414.000000,35.000000,57.000000,0.000000,0.000000,0.000000,0.000000,0.000000;
#CREDIT:;
#NOTES:
0000
0000
0000
0000
,
0000
0000
0000
0000
,
0000
0000
0000
0000
,
0000
0000
0000
0000
,
0000
0000
0000
0000
,
0000
0000
0000
0000
,
0000
0000
0000
0000
,
0000
0000
0000
0000
,
0000
0000
0000
0000
,
1002
0000
1003
0020
0000
1030
0010
0100
,
0002
0010
0010
0013
,
2000
0000
3100
0020
0000
0130
0010
0001
,
0200
0001
0001
0301
,
2000
0000
3100
0020
0000
0130
1000
0010
,
0200
0010
0010
0310
,
0002
0000
0013
0200
0000
0310
0001
0100
,
0020
1000
1000
0130
,
1010
0100
0022
0033
,
0101
0010
2200
3300
,
0200
0310
2002
3003
,
0101
0000
0000
1100
0000
0000
0011
0000
,
0101
0010
2200
3300
,
0011
0100
2020
3030
,
0020
0130
2002
3003
,
0110
0000
0000
1010
0000
0000
0011
0000
,
1000
0000
0000
1000
0000
0000
1000
0000
0100
0000
0000
0100
0000
0000
0100
0000
,
0010
0000
0000
0010
0000
0000
0010
0000
0001
0000
0000
0001
0000
0000
0001
0000
,
0100
0000
0000
0100
0000
0000
0100
0000
0010
0000
0000
0010
0000
0000
0010
0000
,
2000
3000
2000
3000
1001
0000
0110
0000
,
1000
0100
0010
0001
0010
0100
1000
0000
,
0001
0100
0010
1000
0010
0100
0001
0000
,
1000
0010
0100
0001
0010
0100
1000
0010
,
0200
0000
0000
0010
0310
0000
0110
0000
,
1001
0000
1000
0100
1000
0010
1000
0001
,
0010
0100
0010
0001
0100
0010
0100
0000
,
0001
0010
0001
0100
0010
1000
0100
1000
,
0010
0100
0010
1000
0100
0010
0001
0000
,
1000
0010
0000
0001
0010
0000
1000
0001
,
0000
1000
0000
0001
0010
0001
0100
0010
,
0000
1000
0000
0100
0010
0000
0100
1000
,
0002
0003
0002
0003
1001
0000
0110
0000
,
1001
0000
0200
0000
0310
0000
1000
1000
0100
0000
0002
0000
0013
0001
0100
0010
,
1000
0000
0020
0000
0130
0000
0002
0000
1003
0010
0100
0001
0010
0100
0010
0000
,
1010
0100
0022
0033
,
0101
0010
2200
3300
,
1000
0100
1000
0010
0100
0001
0010
0001
,
0200
0000
0000
0010
0310
0000
0110
0000
,
1001
0000
0000
1000
0000
1000
0100
0000
0100
0010
0000
0010
,
0001
0000
0000
1000
0000
1000
0010
0000
0010
0100
0000
0100
,
0001
0000
0000
1000
0000
1000
0010
0000
0010
0100
0000
0100
,
0001
0010
0001
0010
0000
0000
1000
0010
1000
0010
0000
0000
,
1000
0000
0001
0100
0000
0000
0010
0000
0000
1000
0000
0100
,
1000
0000
0010
0100
0000
0000
0001
0000
0010
0100
0000
1000
,
0010
0000
0100
0001
0000
0000
1000
0000
0000
0010
0000
0100
,
0002
0003
0002
0003
1001
0000
0110
0000
,
1001
0000
0000
2000
0000
0000
3010
0000
0000
0100
0000
0100
0001
0000
0000
0020
0000
0000
0130
0000
0000
1000
0100
0010
,
0001
0000
0000
2000
0000
0000
3010
0000
0000
0200
0000
0000
0301
0000
0000
0010
0000
0100
0000
0000
1000
0000
1000
0000
,
0001
0000
0000
0010
0000
0000
0001
0000
1000
0000
0000
0010
0000
0000
1000
0000
,
0001
0000
0000
0100
0000
0000
0001
0000
1000
0000
0000
0100
0000
0000
1000
0000
,
0001
0010
0100
1000
0010
0100
0001
0010
,
0200
0000
0000
0010
0310
0000
0110
0000
,
2000
0000
3010
0200
0000
0310
1000
0001
,
0010
0100
1000
0010
0100
0001
0010
0001
,
2000
0000
3001
0020
0000
0031
0100
0010
,
1000
0100
0010
0001
0100
0010
1000
0000
,
0002
0000
1003
0020
0000
1030
0001
0100
,
0010
1000
0100
0010
0100
1000
0001
0010
,
0200
0000
0310
0002
0000
1003
0010
0100
,
0001
0000
1000
1000
0000
0001
0001
1000
,
0010
1000
0100
2000
0000
3001
1000
0010
,
0100
0001
0010
1000
0010
0001
0100
0010
,
1000
0100
0010
0002
0000
0103
0010
1000
,
0001
0010
1000
0010
0001
0100
0010
1000
,
0100
0010
0100
0010
0100
0010
0100
0100
,
1000
0001
1000
0001
1000
0001
1000
1000
,
0001
0010
0100
1000
0001
0100
0010
1000
,
0001
1000
0100
0010
0100
1000
0001
1000
,
1001
0000
0000
0000
;

//---------------dance-single - ----------------
#NOTEDATA:;
#CHARTNAME:;
#STEPSTYPE:dance-single;
#DESCRIPTION:;
#CHARTSTYLE:;
#DIFFICULTY:Easy;
#METER:10;
#RADARVALUES:0.475669,0.659089,0.487897,0.607731,0.068477,389.000000,332.000000,57.000000,71.000000,0.000000,0.000000,0.000000,0.000000,0.000000,0.475669,0.659089,0.487897,0.607731,0.068477,389.000000,332.000000,57.000000,71.000000,0.000000,0.000000,0.000000,0.000000,0.000000;
#CREDIT:;
#NOTES:
0000
0000
0000
0000
,
0000
0000
0000
0000
,
0000
0000
0000
0000
,
0000
0000
0000
0000
,
0000
0000
0000
0000
,
0000
0000
0000
0000
,
0000
0000
0000
0000
,
0000
0000
0000
0000
,
0000
0000
0000
0000
,
0002
0000
1003
0020
0000
1030
0010
0100
,
0002
0000
0000
0003
,
2000
0000
3100
0020
0000
0130
0010
0001
,
0200
0000
0000
0300
,
2000
0000
3100
0020
0000
0130
1000
0010
,
0200
0000
0000
0300
,
0002
0000
0013
0200
0000
0310
0001
0100
,
0020
0000
0000
1030
,
1010
0100
0022
0033
,
0101
0010
2200
3300
,
0200
0310
2002
3003
,
0101
0000
0000
1100
0000
0000
0011
0000
,
0101
0010
2200
3300
,
0011
0100
2020
3030
,
0020
0130
2002
3003
,
0110
0000
0000
1010
0000
0000
0011
0000
,
1000
0000
0000
1000
0000
0000
1000
0000
0100
0000
0000
0000
0110
0000
0000
0000
,
0010
0000
0000
0010
0000
0000
0010
0000
0001
0000
0000
0000
1001
0000
0000
0000
,
0100
0000
0000
0100
0000
0000
0100
0000
0010
0000
0000
0000
0110
0000
0000
0000
,
2000
3000
2000
3000
1001
0000
0110
0000
,
1000
0100
0010
0000
0010
0100
1000
0000
,
0001
0100
0010
0000
0010
0100
0001
0000
,
1000
0100
1000
0000
0001
0100
0001
0000
,
0200
0000
0310
0110
,
1001
0000
1000
0001
1000
0001
1000
0000
,
0110
0000
0010
0100
0010
0100
0010
0000
,
1001
0000
1000
0100
1000
0100
1000
0000
,
0001
0000
0001
1000
0000
1000
0010
0000
,
1001
0110
1000
1100
,
0001
0101
1000
1010
,
0100
0110
0001
0011
,
2000
3000
2000
3000
1001
0000
0110
0000
,
1001
0000
0200
0000
0310
0000
1000
0100
1000
0000
0002
0000
0013
0000
0002
0000
,
1003
0020
0130
0002
1003
0100
0010
0100
,
1010
0100
0022
0033
,
0101
0010
2200
3300
,
0200
0310
2002
3003
,
0200
0000
0310
0110
,
1001
0000
0000
1000
0000
1000
0100
0000
0100
0010
0000
0000
,
1001
0000
0000
1000
0000
1000
0010
0000
0010
0100
0000
0000
,
1001
0000
0000
1000
0000
1000
0010
0000
0010
0100
0000
0000
,
0001
0000
0001
0010
0000
0000
1000
0000
1000
0010
0000
0000
,
1000
0000
0000
1010
0000
0000
1000
0000
0100
0010
0000
0000
,
0001
0000
0000
0011
0000
0000
0001
0000
0100
0010
0000
0000
,
1000
0000
0000
1001
0000
0000
1000
0000
0001
0010
0000
0000
,
0002
0003
0002
0003
1001
0000
0110
0000
,
1001
0000
0000
2000
0000
0000
3010
0000
0000
0100
0000
0100
0001
0000
0000
0020
0000
0000
0130
0000
0000
2000
0000
0000
,
3001
0200
0310
2000
3001
0010
0100
1000
,
0101
0010
2200
3300
,
1010
0100
0022
0033
,
0200
0310
2002
3003
,
0200
0000
0310
0110
,
2000
0000
3010
0200
0000
0310
1000
0001
,
0010
0100
1000
0000
0010
0100
0001
0000
,
2000
0000
3001
0020
0000
0031
0100
0010
,
1000
0001
0010
0000
0001
1000
0010
0000
,
0002
0000
1003
0020
0000
1030
0001
0100
,
0010
1000
0100
0000
0100
1000
0001
0000
,
2000
0000
3001
0020
0000
0031
0010
0100
,
1000
0000
0010
0010
0000
0100
0100
0000
,
0020
0000
1030
0200
0000
1300
0100
0010
,
0001
0010
0001
0000
0010
0100
0010
0000
,
0002
0000
0103
0020
0000
0130
0001
1000
,
0100
0010
0100
0000
1000
0001
1000
0000
,
0100
0010
0100
0010
0100
0010
0100
0000
,
1000
0001
1000
0001
1000
0001
1000
0000
,
0001
0010
0100
0000
1000
0100
0010
0000
,
0001
1000
0100
0010
0100
1000
0001
0000
,
1001
0000
0000
0000
;

//---------------dance-single - ----------------
#NOTEDATA:;
#CHARTNAME:;
#STEPSTYPE:dance-single;
#DESCRIPTION:;
#CHARTSTYLE:;
#DIFFICULTY:Beginner;
#METER:5;
#RADARVALUES:0.223772,0.329544,0.136953,0.119834,0.000000,183.000000,167.000000,16.000000,14.000000,0.000000,0.000000,0.000000,0.000000,0.000000,0.223772,0.329544,0.136953,0.119834,0.000000,183.000000,167.000000,16.000000,14.000000,0.000000,0.000000,0.000000,0.000000,0.000000;
#CREDIT:;
#NOTES:
// measure 0
0000
0000
0000
0000
,  // measure 1
0000
0000
0000
0000
,  // measure 2
0000
0000
0000
0000
,  // measure 3
0000
0000
0000
0000
,  // measure 4
0000
0000
0000
0000
,  // measure 5
0000
0000
0000
0000
,  // measure 6
0000
0000
0000
0000
,  // measure 7
0000
0000
0000
0000
,  // measure 8
0000
0000
0000
0000
,  // measure 9
2000
0000
3000
0000
,  // measure 10
0002
0000
0003
0000
,  // measure 11
0200
0000
0300
0000
,  // measure 12
0020
0000
0030
0000
,  // measure 13
2000
0000
3000
0000
,  // measure 14
0200
0000
0300
0000
,  // measure 15
0020
0000
0030
0000
,  // measure 16
0002
0000
0003
0000
,  // measure 17
1001
0000
0000
0000
,  // measure 18
0110
0000
0000
0000
,  // measure 19
1001
0000
0000
0000
,  // measure 20
0110
0000
0110
0000
,  // measure 21
1001
0000
0000
0000
,  // measure 22
0110
0000
0000
0000
,  // measure 23
1001
0000
0000
0000
,  // measure 24
0110
0000
0110
0000
,  // measure 25
1000
1000
1000
0000
,  // measure 26
0001
0001
0001
0000
,  // measure 27
0100
0100
0100
0000
,  // measure 28
0110
0000
0110
0000
,  // measure 29
0001
0001
0001
0000
,  // measure 30
1000
1000
1000
0000
,  // measure 31
0010
0010
0010
0000
,  // measure 32
0200
0300
0100
0100
,  // measure 33
0110
0000
1000
1000
,  // measure 34
1000
0000
0001
0001
,  // measure 35
0001
0000
0100
0100
,  // measure 36
0100
0000
0010
0000
,  // measure 37
1000
0000
0010
0000
,  // measure 38
1000
0000
0001
0000
,  // measure 39
0100
0000
0001
0000
,  // measure 40
0020
0030
0010
0010
,  // measure 41
0010
0100
0010
1000
,  // measure 42
0001
0010
0100
1000
,  // measure 43
0001
0001
0001
0000
,  // measure 44
1000
1000
1000
0000
,  // measure 45
0100
0100
0100
0000
,  // measure 46
0020
0030
0010
0010
,  // measure 47
0000
1000
1000
1000
,  // measure 48
0000
0001
0001
0001
,  // measure 49
0000
0100
0100
0100
,  // measure 50
0200
0300
0020
0030
,  // measure 51
1000
1000
0000
0100
,  // measure 52
0000
1000
0000
0010
,  // measure 53
0000
0100
0000
0001
,  // measure 54
0000
0010
0010
0010
,  // measure 55
0110
0100
0010
1000
,  // measure 56
0100
0010
0001
0100
,  // measure 57
0001
0001
0001
0000
,  // measure 58
1000
1000
1000
0000
,  // measure 59
0010
0010
0010
0000
,  // measure 60
0200
0300
0100
0100
,  // measure 61
0110
0000
1000
0000
,  // measure 62
0001
0001
0001
0000
,  // measure 63
1000
0000
0100
0000
,  // measure 64
0010
0010
0010
0000
,  // measure 65
0001
0000
0100
0000
,  // measure 66
0010
0010
0010
0000
,  // measure 67
1000
0000
0100
0000
,  // measure 68
0010
0010
0010
0010
,  // measure 69
0010
0000
0001
0000
,  // measure 70
1000
0001
1000
0000
,  // measure 71
0100
0000
0010
0000
,  // measure 72
0001
1000
0001
0000
,  // measure 73
0100
0100
0100
0000
,  // measure 74
0010
0010
0010
0000
,  // measure 75
1000
1000
0001
0001
,  // measure 76
1000
0001
1000
0000
,  // measure 77
1001
0000
0000
0000
;
