#VERSION:0.83;
#TITLE:Time;
#SUBTITLE:;
#ARTIST:Julian Calor & Aiobahn;
#TITLETRANSLIT:;
#SUBTITLETRANSLIT:;
#ARTISTTRANSLIT:;
#GENRE:;
#ORIGIN:;
#CREDIT:;
#BANNER:Time.png;
#BACKGROUND:Time-bg.png;
#PREVIEWVID:;
#JACKET:Time-jacket.png;
#CDIMAGE:;
#DISCIMAGE:;
#LYRICSPATH:;
#CDTITLE:;
#MUSIC:Time.ogg;
#OFFSET:-0.280000;
#SAMPLESTART:45.280018;
#SAMPLELENGTH:15.000000;
#SELECTABLE:YES;
#BPMS:0.000=128.000;
#STOPS:;
#DELAYS:;
#WARPS:;
#TIMESIGNATURES:0.000=4=4;
#TICKCOUNTS:0.000=4;
#COMBOS:0.000=1;
#SPEEDS:0.000=1.000=0.000=0;
#SCROLLS:0.000=1.000;
#FAKES:;
#LABELS:0.000=Song Start;
#BGCHANGES:;
#KEYSOUNDS:;
#ATTACKS:
;

//---------------dance-single - ----------------
#NOTEDATA:;
#CHARTNAME:;
#STEPSTYPE:dance-single;
#DESCRIPTION:;
#CHARTSTYLE:;
#DIFFICULTY:Hard;
#METER:12;
#RADARVALUES:0.544563,0.711563,0.272954,0.564732,0.418843,405.000000,376.000000,29.000000,60.000000,0.000000,0.000000,0.000000,0.000000,0.000000,0.544563,0.711563,0.272954,0.564732,0.418843,405.000000,376.000000,29.000000,60.000000,0.000000,0.000000,0.000000,0.000000,0.000000;
#CREDIT:;
#NOTES:
0000
0000
0000
0000
,
0000
0000
0000
0000
,
0000
0000
0000
0000
,
0000
0000
0000
0000
,
2000
0000
0000
3002
0000
0000
0203
0000
,
0010
0000
0000
0010
0000
0000
0010
0000
0000
0010
0000
0000
0310
0000
0000
0000
,
0002
0000
0000
2003
0000
0000
3020
0000
,
0200
0000
0000
0330
,
1000
0000
1000
0010
0100
0000
0100
0001
,
0010
0000
0001
0010
0000
0001
0010
0000
0010
0000
0000
0000
0001
0010
0100
1000
,
0001
0000
0001
0100
0010
0000
0010
1000
,
0100
0000
1000
0100
0000
1000
0100
0000
0100
0000
0000
0000
1000
0100
0010
0001
,
1000
0000
1000
0010
0001
0000
1000
0100
,
0001
0000
0001
0010
0000
0001
0010
0000
0010
0000
0000
0000
0001
0100
0010
1000
,
0200
0000
1300
0020
0000
0130
0002
0000
,
0010
0000
0000
0000
0100
0000
0000
0000
1000
0000
0000
0000
0013
0001
0010
0000
,
0011
0011
0101
0101
,
0011
0000
0001
0010
0000
0010
0001
0000
0101
0000
0000
0000
0101
0000
0000
0000
,
1010
1010
1100
1100
,
1010
0000
1000
0010
0000
0010
1000
0000
1100
0000
0000
0000
1100
0000
0000
0000
,
0001
0010
0100
0010
1000
0010
0100
0010
,
0001
0000
0010
0100
0000
0010
0100
0000
1000
0000
0010
0000
0100
0000
0001
0000
,
0010
0001
0010
0001
0010
0100
0010
0100
1000
0100
1000
0100
1000
0010
1000
0010
,
0200
0300
0200
0300
0200
0302
0023
0130
,
2001
0000
3100
1000
0020
0000
0130
0001
,
0010
0000
0001
0100
0000
1000
0100
0000
0002
0000
0000
0000
1003
0100
0010
0001
,
2000
0000
3010
1000
0200
0000
0310
0001
,
0100
0000
1000
0010
0000
0001
0010
0000
2000
0000
0000
0000
3001
0100
0010
1000
,
0002
0000
1003
0001
0020
0000
0031
1000
,
0010
0000
0100
0001
0000
0100
0010
0000
2000
0000
0000
0000
3100
0010
0100
1000
,
0002
0000
0103
0120
0000
1030
2200
0000
,
0000
0000
0000
0000
0000
0000
0000
0000
0000
0000
3300
0000
1000
0100
0010
0001
,
2000
3000
0101
0010
1100
0000
0011
0100
,
1010
0000
0001
0010
0000
0010
1000
0000
0102
0000
0000
0000
1003
0001
0100
0010
,
1000
0100
0100
1000
2010
0000
3001
0010
,
0001
0000
1000
0100
0000
0100
0001
0000
0201
0000
0000
0000
0301
0010
0001
0100
,
0010
1000
1000
0010
0210
0000
0301
0010
,
0001
0000
1000
0010
0000
0010
0001
0000
2001
0000
0000
0000
3001
0100
0010
0100
,
0002
0000
0013
2100
0000
3010
0202
0000
,
0000
0000
0000
0303
,
1001
0000
1000
0000
0100
0000
0010
0100
0000
0100
0010
0000
0001
1000
0001
0000
,
1000
0000
0010
0000
0100
0000
0001
0010
0000
0010
0001
0000
1000
0010
1000
0000
,
0001
0000
0010
0000
1000
0000
0010
0001
0000
0001
0100
0000
0010
1000
0010
0000
,
1000
0000
0100
0000
0001
0000
0100
1000
0000
1000
0010
0000
0100
0001
0100
0000
,
0010
0000
1000
0000
0100
0000
0010
0100
0000
0010
0100
0000
1000
0001
0010
0100
,
1000
0000
0001
0000
0010
0000
0100
0010
0000
0100
0010
0000
0001
0100
0010
1000
,
0100
0000
0010
0100
0010
0000
0001
0000
0100
0010
0100
0000
0001
0000
1000
0000
,
0001
0100
0001
0100
0010
1000
0010
1000
0100
0010
0100
0010
0200
0000
0000
0000
,
0320
0000
0031
2000
0000
3010
0200
0000
,
0301
0000
0010
0000
0100
0000
1000
0010
0000
0010
2000
0000
3200
0000
0320
0000
,
0032
0000
1003
0020
0000
1030
0200
0000
,
1300
0000
0010
0000
0100
0000
0001
0010
0000
0010
0002
0000
0203
0000
0320
0000
,
2030
0000
3010
0002
0000
0013
2000
0000
,
3001
0000
0100
0000
1000
0000
0100
0001
0000
0001
0020
0000
0230
0000
2300
0000
,
3002
0000
0103
0020
0000
1030
0200
0000
,
0000
0000
0000
0000
,
0300
0000
0000
0000
;

//---------------dance-single - ----------------
#NOTEDATA:;
#CHARTNAME:;
#STEPSTYPE:dance-single;
#DESCRIPTION:;
#CHARTSTYLE:;
#DIFFICULTY:Medium;
#METER:9;
#RADARVALUES:0.416826,0.553438,0.178832,0.545908,0.188244,310.000000,291.000000,19.000000,58.000000,0.000000,0.000000,0.000000,0.000000,0.000000,0.416826,0.553438,0.178832,0.545908,0.188244,310.000000,291.000000,19.000000,58.000000,0.000000,0.000000,0.000000,0.000000,0.000000;
#CREDIT:;
#NOTES:
0000
0000
0000
0000
,
0000
0000
0000
0000
,
0000
0000
0000
0000
,
0000
0000
0000
0000
,
2000
0000
0000
3002
0000
0000
0203
0000
,
0010
0000
0000
0010
0000
0000
0010
0000
0000
0010
0000
0000
0310
0000
0000
0000
,
0002
0000
0000
2003
0000
0000
3020
0000
,
0200
0000
0000
0330
,
1000
0000
1000
0010
0100
0000
0100
0001
,
0010
0000
0000
0010
0000
0000
0010
0000
0010
0000
0000
0000
0001
0000
1000
0000
,
0001
0000
0001
0100
0010
0000
0010
1000
,
0100
0000
0000
0100
0000
0000
0100
0000
0100
0000
0000
0000
1000
0000
0001
0000
,
1000
0000
0001
0010
0001
0000
1000
0100
,
0010
0000
0000
0010
0000
0000
0010
0000
0010
0000
0000
0000
0001
0000
1000
0000
,
2200
0000
3300
2020
0000
3030
2002
0000
,
0000
0000
0000
3003
,
0001
0011
0100
0101
,
0001
0000
0000
0010
0000
0000
0100
0000
1000
0000
0000
0000
0101
0000
0000
0000
,
1000
1010
0100
1100
,
1000
0000
0000
0100
0000
0000
0010
0000
0001
0000
0000
0000
1100
0000
0000
0000
,
0001
0100
0001
0100
0010
1000
0010
1000
,
0001
0000
0000
0010
0000
0000
0001
0000
1000
0000
0100
0000
1000
0000
0100
0000
,
0010
0001
0100
0010
1000
0100
0010
0001
,
0200
0300
0200
0300
0200
0302
0023
0130
,
2001
0000
3100
1000
0020
0000
0130
0001
,
0010
0000
0000
0010
0000
0000
0010
0000
0002
0000
0000
0000
1003
0001
1000
0000
,
0020
0000
0130
0001
0200
0000
0310
1000
,
0100
0000
0000
0100
0000
0000
0100
0000
2000
0000
0000
0000
3001
1000
0001
0000
,
0020
0000
0031
1000
0020
0000
1030
0001
,
0010
0000
0000
0100
0000
0000
0010
0000
0002
0000
0000
0000
0103
0010
0100
0000
,
0220
0000
0330
2200
0000
3300
2002
0000
,
0000
0000
0000
0000
0000
0000
0000
0000
0000
0000
3003
0000
0001
1000
0001
1000
,
0002
0003
0101
0000
1000
0000
0101
0000
,
1000
0000
0000
0001
0000
0001
1000
0000
0002
0000
0000
0000
1003
0001
1000
0000
,
0001
0010
0010
0001
0200
0000
0301
0010
,
0001
0000
0000
1000
0000
1000
0001
0000
0200
0000
0000
0000
0310
0100
0010
0000
,
1000
0100
0100
1000
0020
0000
0130
0001
,
0010
0000
0000
0100
0000
0100
0010
0000
0002
0000
0000
0000
1003
0001
1000
0000
,
2020
0000
3030
0202
0000
0303
2002
0000
,
0000
0000
0000
3003
,
1001
0000
1000
0000
0100
0000
0010
0001
0000
0000
0001
0000
0010
0100
0010
0000
,
0001
0000
0100
0000
0010
0000
1000
0100
0000
0000
1000
0000
0010
0100
0010
0000
,
1000
0000
0010
0000
0100
0000
0010
1000
0000
0000
0100
0000
0010
0001
0010
0000
,
0001
0000
0100
0000
0010
0000
0100
0001
0000
0000
0010
0000
0100
1000
0100
0000
,
1000
0000
0010
0000
0100
0000
0001
0010
0000
0000
0001
0000
0100
0010
1000
0000
,
0001
0000
0010
0000
0100
0000
1000
0010
0000
0000
1000
0000
0100
0010
0001
0000
,
1000
0010
0001
1000
0100
0001
1000
0010
,
0100
0010
0100
0000
0001
0100
0001
0000
1000
0010
1000
0000
0200
0000
0000
0000
,
0320
0000
0030
0002
0000
0003
2000
0000
,
0010
0000
0100
0000
3010
1000
0100
0010
,
0002
0000
0003
0200
0000
0300
0020
0000
,
1000
0000
0100
0000
1030
0010
0100
0001
,
0020
0000
0030
0002
0000
0003
0200
0000
,
0010
0000
0001
0000
0310
1000
0100
0010
,
0002
0000
0000
2003
0000
0000
3200
0000
,
0000
0000
0000
0000
,
0300
0000
0000
0000
;

//---------------dance-single - ----------------
#NOTEDATA:;
#CHARTNAME:;
#STEPSTYPE:dance-single;
#DESCRIPTION:;
#CHARTSTYLE:;
#DIFFICULTY:Easy;
#METER:6;
#RADARVALUES:0.367076,0.421667,0.216481,0.489435,0.042355,273.000000,250.000000,23.000000,52.000000,0.000000,0.000000,0.000000,0.000000,0.000000,0.367076,0.421667,0.216481,0.489435,0.042355,273.000000,250.000000,23.000000,52.000000,0.000000,0.000000,0.000000,0.000000,0.000000;
#CREDIT:;
#NOTES:
0000
0000
0000
0000
,
0000
0000
0000
0000
,
0000
0000
0000
0000
,
0000
0000
0000
0000
,
2000
0000
0000
3002
0000
0000
0203
0000
,
0010
0010
0010
0310
,
0002
0000
0000
2003
0000
0000
3020
0000
,
0200
0000
0000
0330
,
1000
0000
1000
0010
0100
0000
0100
0001
,
0010
0000
0001
0010
0001
0000
1001
0000
,
0001
0000
0001
0100
0010
0000
0010
1000
,
0100
0000
1000
0100
1000
0000
1001
0000
,
1000
0000
0001
0010
0001
0000
1000
0100
,
0010
0000
0001
0010
0001
0000
1001
0000
,
0220
0000
0330
2002
0000
3003
0220
0000
,
0000
0000
0000
0330
,
0001
0001
0100
0100
,
0001
0000
0000
1000
0000
0000
0001
0000
1000
0000
0000
0000
1001
0000
0000
0000
,
0010
0010
1000
1000
,
0010
0000
0000
0100
0000
0000
0010
0000
0100
0000
0000
0000
0110
0000
0000
0000
,
0001
0100
0001
0000
1000
0100
1000
0000
,
0001
0000
0000
0010
0000
0000
0001
0000
0010
0000
0000
0000
0011
0000
0000
0000
,
0001
0010
0100
1000
0001
0100
0010
1000
,
0200
0300
0200
0300
0100
0010
0100
0010
,
2001
0000
3100
1000
0020
0000
0130
0001
,
0010
0000
0000
0010
0000
0000
0010
0000
0002
0000
0000
0000
1003
0000
1000
0000
,
0020
0000
0130
0001
0200
0000
0310
1000
,
0100
0000
0000
0100
0000
0000
0100
0000
2000
0000
0000
0000
3001
0000
0001
0000
,
0020
0000
0031
1000
0020
0000
1030
0001
,
0010
0000
0000
0010
0000
0000
0010
0000
0002
0000
0000
0000
0103
0000
0010
0000
,
0220
0000
0330
2200
0000
3300
2002
0000
,
0000
0000
0000
0000
0000
3003
0001
0010
,
0200
0300
0011
0000
1000
0000
0101
0000
,
1000
0000
0000
0100
0000
0000
1000
0000
0200
0000
0000
0000
1300
0000
0100
0000
,
0010
0101
0010
1100
,
0001
0000
0000
0010
0000
0000
0001
0000
0020
0000
0000
0000
0130
0000
1000
0000
,
0100
1010
0100
0011
,
1000
0000
0000
0010
0000
0000
1000
0000
0020
0000
0000
0000
1030
0000
0010
0000
,
2020
0000
3030
0202
0000
0303
2002
0000
,
0000
0000
0000
3003
,
1001
1000
0100
0000
0001
0100
0001
0100
,
0010
1000
0010
0000
1000
0100
1000
0100
,
0010
0001
0010
0000
0001
0100
0010
1000
,
0100
0010
0100
0000
1000
0010
0100
0001
,
0010
0100
0010
0000
0001
0100
0010
0100
,
0001
0010
0100
0000
1000
0010
0100
0010
,
1000
0100
0010
0000
0001
0100
0010
0000
,
1000
0100
1000
0010
0100
0001
0010
0001
,
0200
0000
0300
0002
0000
0003
2000
0000
,
0010
0000
0100
0000
3010
1000
0100
0010
,
0002
0000
0003
0200
0000
0300
0020
0000
,
1000
0000
0100
0000
1030
0010
0100
0001
,
0020
0000
0030
0002
0000
0003
0200
0000
,
0010
0000
0001
0000
0310
1000
0100
0010
,
0002
0000
0000
2003
0000
0000
3200
0000
,
0000
0000
0000
0000
,
0300
0000
0000
0000
;

//---------------dance-single - ----------------
#NOTEDATA:;
#CHARTNAME:;
#STEPSTYPE:dance-single;
#DESCRIPTION:;
#CHARTSTYLE:;
#DIFFICULTY:Beginner;
#METER:2;
#RADARVALUES:0.160008,0.237188,0.075298,0.141183,0.000000,119.000000,111.000000,8.000000,15.000000,0.000000,0.000000,0.000000,0.000000,0.000000,0.160008,0.237188,0.075298,0.141183,0.000000,119.000000,111.000000,8.000000,15.000000,0.000000,0.000000,0.000000,0.000000,0.000000;
#CREDIT:;
#NOTES:
// measure 0
0000
0000
0000
0000
,  // measure 1
0000
0000
0000
0000
,  // measure 2
0000
0000
0000
0000
,  // measure 3
0000
0000
0000
0000
,  // measure 4
2000
3000
0002
0003
,  // measure 5
0200
0000
0000
0300
,  // measure 6
0002
0003
2000
3000
,  // measure 7
0020
0000
0000
0030
,  // measure 8
1000
0000
0100
0000
,  // measure 9
0010
0010
0010
0000
,  // measure 10
0001
0000
0100
0000
,  // measure 11
0010
0010
0010
0000
,  // measure 12
1000
0000
0001
0000
,  // measure 13
0100
0100
0100
0000
,  // measure 14
0001
0000
1000
0000
,  // measure 15
2002
0000
0000
3003
,  // measure 16
1000
1000
1000
0000
,  // measure 17
0001
0001
0001
0000
,  // measure 18
0100
0100
0100
0000
,  // measure 19
0010
0010
0010
0000
,  // measure 20
1000
0000
0100
0000
,  // measure 21
0010
0000
0001
0000
,  // measure 22
1000
1000
1000
1000
,  // measure 23
2000
0000
0000
3000
,  // measure 24
1001
0000
0010
0000
,  // measure 25
0100
0100
0100
0000
,  // measure 26
0001
0000
0100
0000
,  // measure 27
0010
0010
0010
0000
,  // measure 28
1000
0000
0100
0000
,  // measure 29
0010
0010
0010
0000
,  // measure 30
0001
0000
1000
0000
,  // measure 31
0220
0000
0000
0330
,  // measure 32
0110
0000
1001
0000
,  // measure 33
0010
0010
0010
0000
,  // measure 34
1001
0000
0110
0000
,  // measure 35
1000
1000
1000
0000
,  // measure 36
0001
0000
0010
0000
,  // measure 37
0100
0100
0100
0000
,  // measure 38
1000
0000
0010
0000
,  // measure 39
0220
0000
0000
0330
,  // measure 40
1000
0000
0100
0000
,  // measure 41
1000
0000
0010
0000
,  // measure 42
0100
0000
0001
0000
,  // measure 43
0010
0000
0001
0000
,  // measure 44
1000
0000
0010
0000
,  // measure 45
0100
0000
0001
0000
,  // measure 46
0010
0000
0100
0000
,  // measure 47
0020
0000
0000
0030
,  // measure 48
0010
0000
0001
0000
,  // measure 49
1000
0000
0000
0010
,  // measure 50
0010
0000
1000
0000
,  // measure 51
0100
0000
0000
0010
,  // measure 52
0010
0000
0001
0000
,  // measure 53
0100
0000
0000
0010
,  // measure 54
0010
0000
1000
0000
,  // measure 55
0200
0000
0000
0000
,  // measure 56
0300
0000
0000
0000
;
