#TITLE:That's How You Write a Song;
#SUBTITLE:;
#ARTIST:Alexander Rybak;
#TITLETRANSLIT:;
#SUBTITLETRANSLIT:;
#ARTISTTRANSLIT:;
#CREDIT:;
#BANNER:;
#BACKGROUND:;
#LYRICSPATH:;
#CDTITLE:;
#MUSIC:That's How You Write a Song.mp3;
#OFFSET:-4.340;
#SAMPLESTART:57.050;
#SAMPLELENGTH:9.230;
#SELECTABLE:YES;
#BPMS:0.000=104.000;
#STOPS:;
#BGCHANGES:;

//---------------dance-single - ----------------
#NOTES:
     dance-single:
     :
     Hard:
     12:
     0.485,0.476,0.370,0.121,0.358: // measure 1
0000
0000
0000
0000
0000
0000
0000
0000
0000
0000
0000
1000
0001
0000
0100
0000
,  // measure 2
0001
0000
0010
0000
0001
0000
0000
1000
0000
0100
0000
1000
0000
0000
0000
0000
,  // measure 3
0001
0000
0100
0000
0010
0000
1000
0001
0000
0000
0001
0100
0010
0000
1000
0000
,  // measure 4
0001
0000
0010
0000
0100
0000
0000
0010
0000
0001
0000
1000
0000
0000
0000
0000
,  // measure 5
0010
0000
1000
0000
0001
0000
0100
0001
0000
0000
1000
0001
1000
0000
0001
0000
,  // measure 6
1001
0000
1100
0000
0010
0001
0100
0000
,  // measure 7
0010
0000
1000
0000
0001
1000
0000
0200
0000
0000
1000
0000
0001
0000
1300
0000
,  // measure 8
0100
0000
1000
0000
0010
0000
0100
0002
0000
0000
0013
0000
0100
0000
0010
0000
,  // measure 9
0001
0000
1000
0100
0000
0010
0000
0002
0000
0000
0100
0000
0100
0000
0103
0000
,  // measure 10
0101
0000
0000
0000
0010
0000
1000
0000
0100
1000
0000
1000
0010
0000
0100
0000
,  // measure 11
1000
0000
0100
0000
0001
0000
0010
0000
0100
0000
0010
0000
0001
1000
0000
0000
,  // measure 12
1001
0000
0001
0000
0100
0000
0000
0010
1000
0100
0000
0000
0011
0000
0000
0000
,  // measure 13
0001
0000
1000
0100
0010
0000
0001
0010
0001
0000
0000
0000
1100
0000
0000
0000
,  // measure 14
1000
0000
0010
0000
1000
0000
0000
0001
0000
0010
0000
0001
0100
0000
0000
0000
,  // measure 15
0001
0000
1000
0000
0100
0000
1000
0002
0000
0000
0000
0000
0103
0000
0000
0000
,  // measure 16
1000
0101
0010
1100
,  // measure 17
1001
0000
0000
0000
0000
0000
0000
0000
0000
0000
1001
0000
0000
0110
0000
0000
,  // measure 18
1001
0000
0101
0000
0010
1000
0100
0000
,  // measure 19
0010
0001
0100
0001
0100
1000
0100
0001
,  // measure 20
0011
0000
0000
0000
1000
0000
0001
0100
0001
0000
0100
0000
0010
0000
1000
0100
,  // measure 21
0010
0000
0100
0000
1000
0000
0001
0200
0000
0000
0310
0100
0001
0000
1000
0000
,  // measure 22
0100
0000
0001
0000
1000
0000
0010
0000
0001
0020
0000
0000
0130
0000
0010
0000
,  // measure 23
0001
0000
0100
0010
0000
1000
0000
0010
1000
0000
0000
0000
0101
0000
0001
0000
,  // measure 24
1001
0000
0000
0000
1010
0000
0000
0000
0100
0000
0001
1000
0000
0011
0000
0000
,  // measure 25
1100
0000
1000
0001
0000
0100
0000
0001
0000
0000
0101
0000
0000
0000
0110
0000
,  // measure 26
1001
0000
0000
0000
0011
0000
0001
0000
1000
0000
0010
0100
0000
0101
0000
0000
,  // measure 27
0001
0000
0100
0010
1000
0001
0000
1001
0000
0000
1000
0100
0010
0100
1000
0000
,  // measure 28
0001
0000
0100
0000
0001
0000
1000
0100
0000
0010
0000
0100
1000
0000
0001
0000
,  // measure 29
0100
0000
0010
0000
1000
0000
0001
0100
0000
0000
0010
1000
0010
1000
0001
0000
,  // measure 30
1000
0000
0100
0000
0010
0000
0001
0010
0000
0100
0000
0010
0001
0000
1000
0000
,  // measure 31
0001
0000
0100
0000
0010
0000
1000
0001
0000
0000
0000
0000
0220
0000
0000
0000
,  // measure 32
0330
0000
0000
0000
0000
0000
0000
0000
0000
0000
0000
0000
1000
0000
0001
1000
0000
0001
1000
0000
0000
0010
0000
0000
,  // measure 33
0000
0000
0000
0000
0000
0000
0000
0000
0000
0000
0000
0000
0001
0000
0100
0010
0000
0100
0001
0000
0000
0000
0000
0000
,  // measure 34
0000
0000
0000
0000
1000
0001
1001
0000
,  // measure 35
0100
0000
0001
0000
1000
0100
0010
0001
,  // measure 36
1000
0000
0000
0000
0000
0000
0001
0000
0000
0000
0000
0000
1000
0000
0010
1000
0000
0010
1000
0000
0000
0010
0000
0000
,  // measure 37
1000
0000
0000
0000
0000
0000
0100
0000
0000
0000
0000
0000
0010
0000
0001
0010
0000
0001
0010
0000
0001
0000
0000
0000
,  // measure 38
1000
0001
0100
0000
1000
0001
0101
0000
,  // measure 39
0001
0000
1000
0001
1000
0100
0000
0010
0001
0000
0000
0000
1100
0000
0000
0000
,  // measure 40
1010
2002
3003
1001
,  // measure 41
0001
0000
0100
0010
0100
0000
0001
0000
1000
0000
0100
0010
0100
0000
0010
0000
,  // measure 42
0001
1000
0001
0100
1010
0000
1100
0100
,  // measure 43
0001
0000
0001
0100
1000
0000
0001
0000
0100
0000
0010
0100
0010
1000
0000
0001
,  // measure 44
0100
0010
1000
0100
0011
0000
0101
0000
,  // measure 45
1010
0000
0010
1000
0100
0000
0010
0000
0011
0000
0000
0000
0101
0000
0000
0000
,  // measure 46
0110
0010
1000
0001
1001
1000
1100
0100
,  // measure 47
0011
0000
1000
0100
1000
0000
0001
0000
0202
0000
0000
0000
0000
0000
0000
0000
,  // measure 48
0000
0000
0000
0000
0000
0000
0000
0000
0303
0000
0000
0000
1001
0000
0000
0001
,  // measure 49
0000
0100
0000
0010
1000
0000
0100
0000
0010
0000
0001
0000
0010
0000
0001
1000
,  // measure 50
0000
0000
0010
0100
0010
0100
0010
0100
0001
0000
1000
0000
0100
0000
0010
0001
,  // measure 51
0000
1000
0000
0100
1000
0000
0010
0000
0200
0000
0000
0000
0000
0000
0000
0000
,  // measure 52
0300
2002
3003
0000
;

//---------------dance-single - ----------------
#NOTES:
     dance-single:
     :
     Beginner:
     2:
     0.119,0.165,0.113,0.000,0.000:
0000
0000
0000
0000
,
0100
0000
0001
0000
,
1000
1000
1000
0000
,
0001
0000
1000
0000
,
0100
0100
0100
0000
,
1001
0000
0000
0000
,
0001
0000
1000
0000
,
0100
0000
0000
0000
,
0010
0000
0100
0000
,
0010
0000
0001
0000
,
1000
0000
1000
0000
,
0001
0000
1000
0000
,
0001
0000
1000
0000
,
1001
0000
0000
0000
,
0100
0100
0100
0000
,
0110
0000
0000
0000
,
0000
0000
0000
0000
,
1001
0000
0001
0000
,
0100
0000
0000
0000
,
0010
0000
1000
0000
,
0100
0000
0010
0000
,
0001
0000
1000
0000
,
0010
0010
0010
0000
,
1001
0000
0000
0000
,
0110
0000
0000
0000
,
1001
0000
0000
0000
,
1001
0000
0110
0000
,
1001
0000
0001
0000
,
1000
1000
1000
0000
,
0001
0000
1000
0000
,
0001
0001
0001
0000
,
1001
0000
0000
0000
,
1000
0000
0000
0000
,
0001
0000
0000
0000
,
0100
0000
0010
0000
,
0100
0000
0000
0000
,
0010
0000
0000
0000
,
1000
0000
0000
0000
,
0001
0000
1000
1000
,
1000
1000
1000
0000
,
0000
0000
0001
0000
,
1000
0000
0001
0000
,
0000
0000
0100
0000
,
0010
0000
0100
0000
,
0100
0000
0010
0000
,
0010
0000
1000
0000
,
0001
0000
1001
0000
,
0000
0000
0000
0000
,
0001
0000
0100
0100
,
0100
0000
0010
0000
,
1000
0000
1001
0000
,
0000
1001
0000
0000
;

//---------------dance-single - ----------------
#NOTES:
     dance-single:
     :
     Easy:
     4:
     0.201,0.207,0.129,0.080,0.000:
0000
0000
0000
0000
,
0001
0100
0001
0000
,
1000
0100
0010
0001
,
0100
0010
0100
0000
,
0010
1000
0001
1000
,
1001
0000
0001
0000
,
0100
0010
0100
0000
,
0001
0000
1000
0000
,
0100
0010
0100
0000
,
0010
0000
0001
1000
,
0100
1000
0001
0000
,
0100
0000
0010
0000
,
1000
0010
0100
0001
,
1001
0000
1000
0000
,
0001
0100
0001
0000
,
1000
0000
0100
0000
,
0220
0000
0330
0000
,
1001
0000
0001
0000
,
0100
0010
1000
0001
,
0010
0000
0001
1000
,
0100
1000
0001
0000
,
0100
0010
0100
0000
,
0010
1000
0001
1000
,
1001
0000
1001
0000
,
0001
0100
0010
0100
,
0110
0000
0110
0000
,
0010
1000
0001
0000
,
1000
0100
1000
0001
,
0100
0001
0010
0000
,
0001
0100
0010
1000
,
0100
0010
0001
0001
,
1001
0000
0100
0000
,
0110
0000
0001
0000
,
1001
0000
1000
0000
,
0001
1000
0001
1000
,
1001
0000
0100
0010
,
0100
0000
0010
1000
,
0001
0000
1000
0001
,
0010
0000
0100
0100
,
0010
0010
2002
3003
,
0001
0000
0100
0001
,
1000
0100
1000
0000
,
0001
0000
1000
0100
,
0010
0001
0100
0100
,
0010
0010
1000
0001
,
1000
0000
0001
0001
,
1000
1000
2002
0000
,
0000
0000
3003
1000
,
0001
0100
0010
0010
,
0010
0000
0100
0010
,
1000
0001
2002
0000
,
3003
2002
3003
0000
;

//---------------dance-single - ----------------
#NOTES:
     dance-single:
     :
     Medium:
     7:
     0.346,0.311,0.185,0.153,0.004:
0000
0000
0000
0000
0000
0000
1000
0100
,
0010
0000
0001
0000
0100
0010
0100
0000
,
0010
1000
0001
1000
0200
0000
0310
0000
,
0100
0010
0001
0000
1000
0001
0100
0000
,
0010
1000
0001
0100
0020
0000
1030
0000
,
0011
0000
1000
0000
0001
0100
0001
0000
,
1000
0010
0100
0010
1000
0000
0001
0000
,
0010
0000
0100
0000
0010
0001
1000
0000
,
0001
0100
0010
1000
0001
0000
0010
0001
,
0100
0000
1010
0000
0100
0010
1000
0000
,
0010
1000
0001
1000
0001
0000
0011
0000
,
0010
0001
0100
0010
1000
0000
0100
0000
,
1000
0100
0001
0200
1000
0000
0310
0000
,
0001
0100
0001
0000
1000
0010
1000
0000
,
0001
0100
0010
1000
0200
0000
0310
0000
,
0002
0010
0000
1000
,
2000
0000
0000
0000
0000
0000
0000
0000
3003
0000
0001
0000
0000
1000
0000
0000
,
1001
0000
0101
0000
0010
1000
0100
0000
,
0010
0001
1000
0001
0100
0000
0010
0100
,
0010
0000
1001
0000
1000
0100
0010
0000
,
0001
0000
0100
0010
0100
0000
0001
0000
,
1000
0100
1000
0001
0100
0000
0001
0000
,
0100
0001
1000
0010
1000
0000
0101
0000
,
2002
3003
0110
0100
,
0001
0000
0100
0000
0010
0000
1000
0001
,
2002
3003
1000
0100
,
0010
0001
0010
0001
1000
0000
0110
0000
,
0001
0100
1000
0000
0001
0100
1000
0000
,
0001
0010
0100
1000
0001
0000
0110
0000
,
1000
0010
0001
0000
1000
0010
0001
0000
,
1000
0010
0100
0001
0010
0000
2200
0000
,
3300
0000
0000
0000
1000
0001
1000
0001
,
0000
0000
0000
0000
0010
0100
0010
0000
,
0000
0000
0000
0000
1000
1000
1000
0000
,
0001
0100
0010
1000
,
0001
0000
0100
0000
0010
1000
0010
1000
,
0100
0000
0010
0000
0001
1000
0001
0000
,
0100
0000
0010
0000
0100
0100
0100
0000
,
0010
0100
0110
1001
,
0110
2002
3003
1001
,
0001
0010
0001
0000
1000
0000
0100
1000
,
0001
0000
0100
0010
1000
0000
0001
0100
,
0010
0100
0001
0000
1000
0100
0010
0100
,
1000
0101
1001
0001
,
0100
0010
1000
0000
0010
0100
0001
1000
,
0100
0000
0010
0001
0100
0000
0001
0000
,
1000
0100
0010
0000
2002
0000
0000
0000
,
0000
0000
3003
1001
,
1000
0100
1000
0000
0001
0100
0010
1000
,
0010
0000
0100
0000
0001
0010
0100
0000
,
0010
0001
1000
0001
0200
0000
0000
0000
,
0300
0220
0330
0000
;
