#VERSION:0.83;
#TITLE:Take Me to Pleasure Island;
#SUBTITLE:;
#ARTIST:Shirobon;
#TITLETRANSLIT:;
#SUBTITLETRANSLIT:;
#ARTISTTRANSLIT:;
#GENRE:CHIPTUNE NU-ELECTRO;
#ORIGIN:;
#CREDIT:;
#BANNER:banner.png;
#BACKGROUND:background.png;
#PREVIEWVID:;
#JACKET:jacket.png;
#CDIMAGE:;
#DISCIMAGE:;
#LYRICSPATH:;
#CDTITLE:;
#MUSIC:Take Me to Pleasure Island.ogg;
#OFFSET:0.113000;
#SAMPLESTART:29.473206;
#SAMPLELENGTH:13.448277;
#SELECTABLE:YES;
#BPMS:0.000=145.000;
#STOPS:135.500=0.414;
#DELAYS:;
#WARPS:;
#TIMESIGNATURES:0.000=4=4;
#TICKCOUNTS:0.000=4;
#COMBOS:0.000=1;
#SPEEDS:0.000=1.000=0.000=0;
#SCROLLS:0.000=1.000;
#FAKES:;
#LABELS:0.000=Song Start;
#BGCHANGES:;
#KEYSOUNDS:;
#ATTACKS:
;

//---------------dance-single - ----------------
#NOTEDATA:;
#CHARTNAME:;
#STEPSTYPE:dance-single;
#DESCRIPTION:;
#CHARTSTYLE:;
#DIFFICULTY:Hard;
#METER:12;
#RADARVALUES:0.452112,0.598984,0.232442,0.160921,0.393363,354.000000,328.000000,26.000000,18.000000,0.000000,0.000000,0.000000,0.000000,0.000000,0.452112,0.598984,0.232442,0.160921,0.393363,354.000000,328.000000,26.000000,18.000000,0.000000,0.000000,0.000000,0.000000,0.000000;
#CREDIT:Pandemonium X;
#NOTES:
0000
0000
0000
0000
,
0000
0000
0000
0000
,
0000
0000
0000
0000
,
0000
0000
0000
0000
,
0000
0000
0000
0000
,
0000
0000
0000
0000
,
0202
0000
0000
0000
,
0000
0000
0000
0000
,
0000
0000
0000
0303
,
0000
1000
0001
0200
0000
0000
0310
0000
,
2020
0000
0000
0000
,
0000
0000
0000
0000
,
0000
0000
0000
3030
,
0000
1000
0001
0020
0000
0000
0130
0000
,
1001
0000
0000
1000
0001
0000
0000
1000
,
0001
0000
0000
1000
0001
0000
0000
1000
,
0010
0010
0010
0010
,
0010
0000
0100
0000
0010
0000
0100
0000
0001
1000
0001
1000
0001
0000
1000
0000
,
1001
0000
0000
0000
0001
0000
0000
0000
0100
0000
0000
0010
0000
0000
1000
0000
,
0001
0000
0000
0000
0010
0000
0000
0000
0100
0000
0000
0010
0000
0000
0001
0000
,
1000
0000
0000
0000
0001
0000
0000
0000
0100
0000
0000
0010
0000
0000
1000
0000
,
0100
0000
1000
0000
0001
0000
0100
0010
,
1000
0000
0000
0000
0001
0000
0000
0000
0010
0000
0000
0001
0000
0000
1000
0000
,
0100
0000
0000
0000
1000
0000
0000
0000
0010
0000
0000
1000
0000
0000
0001
0000
,
2000
0000
3100
0002
0000
0000
0103
0020
,
0100
0000
0130
0000
0010
0001
1000
0000
,
0101
0000
0000
0000
1000
0000
0000
0000
0001
0000
0000
0010
0000
0000
0001
0000
,
0100
0000
0000
0000
0010
0000
0000
0000
0100
0000
0000
0001
0000
0000
1000
0000
,
0100
0000
0000
0000
1000
0000
0000
0000
0001
0000
0000
1000
0000
0000
0010
0000
,
1000
0000
0000
0000
0010
0000
0000
0000
0100
0000
0000
0001
0000
0000
0010
0000
,
0100
0000
0000
0000
0010
0000
0000
0000
0001
0000
0000
0100
0000
0000
0001
0000
,
1000
0000
0000
0000
0100
0000
0000
0000
0010
0000
0000
0100
0000
0000
1000
0000
,
0020
0000
1030
0020
0000
0000
0130
0002
,
0000
0000
0000
0000
1003
0100
0010
0001
,
0000
0000
0000
0000
1001
0000
0000
0000
0010
0000
0010
0000
0100
0001
0000
0100
,
0000
0001
0100
0000
0101
0000
0000
0000
0011
0000
0000
0000
0010
0100
0000
1000
,
0000
0001
1000
0000
1010
0000
0000
0000
0001
0000
0001
0000
1000
0100
0000
1000
,
0000
0100
1000
0000
1100
0000
0000
0100
0000
0000
0100
0000
0000
0000
1000
0000
,
0001
0000
0100
0000
0010
0000
0000
0000
1000
0000
1000
0000
0001
1000
0000
0001
,
0000
1000
0001
0000
0011
0000
0000
0000
1010
0000
0000
0000
1000
0001
0000
0010
,
0000
0100
0010
0000
0001
0000
0000
0000
0100
0000
0100
0000
0010
1000
0000
0010
,
0000
1000
0010
0000
0110
0000
0000
0100
0000
0000
0100
0000
0000
0000
0000
0000
,
0010
0000
0000
0000
1001
0000
0000
0000
0001
0000
0100
0000
0010
1000
0000
0010
,
0000
0100
0001
0000
0011
0000
0000
0000
1100
0000
0000
0000
0100
0010
0000
0001
,
0000
0100
0010
0000
1001
0000
0000
0000
1000
0000
1000
0000
0001
0100
0000
0010
,
0000
0100
0001
0000
1001
0000
0000
1000
0000
0000
1000
0000
0000
0000
0000
0000
,
0010
0000
0000
0000
1001
0000
0000
0000
0010
0000
0010
0000
0100
0001
0000
0010
,
0000
0100
0010
0000
0011
0000
0000
0000
0101
0000
0000
0000
0100
0010
0000
1000
,
0000
0001
0010
0000
0100
0000
0000
0000
0010
0000
0010
0000
0100
0010
0000
0001
,
0000
1000
0010
0000
0110
0000
0000
0100
0000
0000
0100
0000
0010
1000
0010
1000
,
0010
0000
0000
0000
1000
0000
0000
1000
0000
0000
1000
0000
0001
0100
0000
0001
,
0000
0010
0000
0100
0010
0000
0000
0010
0000
0000
0010
0000
0001
0010
0000
0100
,
0000
1000
0010
0000
0100
0000
0000
0100
0000
0000
0100
0000
0010
1000
0000
0001
,
0000
0010
0000
0100
0010
0000
0000
0010
0000
0000
0010
0000
0001
0010
0000
0100
,
0000
0010
0001
0000
1000
0000
0000
1000
0000
0000
1000
0000
0001
0100
0000
0010
,
0000
1000
0100
0000
0010
0000
0000
0010
0000
0000
0010
0000
0100
0010
0000
0100
,
0000
1000
0000
0001
1000
0000
0000
1000
0000
0000
1000
0000
0001
0100
0000
0001
,
0000
0010
0000
0100
0010
0000
0000
0010
0000
0000
0010
0000
0001
0000
0010
0000
,
0100
1000
0001
0000
0100
0000
0010
0000
,
1000
0100
0010
0000
0100
0000
1000
0000
,
0001
0100
0010
0000
1000
0000
0001
0000
,
0010
0100
1000
0000
0100
0010
0001
0010
,
0100
1000
0010
0000
1000
0000
0010
0000
,
0100
0001
1000
0100
0010
0001
0010
0100
,
1000
0202
0000
0000
0303
2002
0000
0000
,
3003
0202
0000
0000
0000
0000
0000
0000
,
0000
0000
0000
0000
0000
0303
1000
0001
,
0110
0000
0000
0000
;

//---------------dance-single - ----------------
#NOTEDATA:;
#CHARTNAME:;
#STEPSTYPE:dance-single;
#DESCRIPTION:;
#CHARTSTYLE:;
#DIFFICULTY:Medium;
#METER:9;
#RADARVALUES:0.376760,0.479188,0.330782,0.223502,0.084931,295.000000,258.000000,37.000000,25.000000,0.000000,0.000000,0.000000,0.000000,0.000000,0.376760,0.479188,0.330782,0.223502,0.084931,295.000000,258.000000,37.000000,25.000000,0.000000,0.000000,0.000000,0.000000,0.000000;
#CREDIT:Pandemonium X;
#NOTES:
0000
0000
0000
0000
,
0000
0000
0000
0000
,
0000
0000
0000
0000
,
0000
0000
0000
0000
,
0000
0000
0000
0000
,
0000
0000
0000
0000
,
2002
0000
0000
0000
,
0000
0000
0000
0000
,
0000
0000
0000
3003
,
0000
0001
0100
0020
0000
0000
1030
0000
,
2002
0000
0000
0000
,
0000
0000
0000
0000
,
0000
0000
0000
3003
,
0000
1000
0010
0200
0000
0000
0301
0000
,
1000
0000
0001
0000
,
1000
0000
0001
0000
,
1000
0001
1000
0001
,
1000
0001
1000
0001
0100
0010
0110
0000
,
1001
0000
0001
0000
1000
0000
0100
2000
,
0000
0000
3010
0000
1000
0020
0000
2030
,
0000
3001
0010
0000
0100
0000
0010
0000
,
0001
0000
0100
0010
1000
0000
0001
1000
,
0200
0300
1000
0001
0001
0000
0010
0002
,
0000
0000
0003
0000
0010
0000
0100
0000
1000
0000
0000
0010
0000
0000
0100
0000
,
0002
0000
0013
2000
0000
0000
3010
0002
,
0000
0000
0103
0000
0010
0100
0110
0000
,
1001
0000
1000
0000
0100
0000
1000
0020
,
0000
0000
0030
0000
0100
0002
0000
2003
,
0000
3010
1000
0010
,
0100
0000
0001
0010
1000
0000
0010
0100
,
1000
0000
0100
0010
0010
0000
0100
2000
,
0000
3000
0100
1000
0000
0010
0100
0001
,
1001
0000
0000
1010
0000
0000
0000
0000
,
0001
0100
1000
0100
0010
0010
1000
1000
,
0000
0000
0001
0000
1000
1000
0010
0000
,
1000
0000
0000
0000
1001
0000
0000
0000
0110
0000
0000
0000
0100
0000
0000
0010
,
0000
1000
0100
0000
0010
0010
0100
0000
,
0010
0000
0000
0000
0011
0000
0000
0001
0000
0000
1001
0000
0000
0100
0000
0000
,
1001
0000
1010
0000
0100
0100
0010
0000
,
1000
0000
0000
0000
1001
0000
0000
0000
1010
0000
0000
0000
1000
0000
0000
0001
,
0000
0010
0100
0000
0010
0010
0001
0000
,
1000
0000
0000
0000
1010
0000
0000
0010
0000
0000
1001
0000
0000
0000
0000
0000
,
0110
0000
1010
0000
0100
0100
0010
0000
,
1000
0000
0000
0000
1100
0000
0000
0000
0101
0000
0000
0000
0001
0000
0000
0010
,
0000
0001
1001
0000
1000
1000
0001
0000
,
0010
0000
0000
0000
0011
0000
0000
0100
0000
0000
1100
0000
0000
0000
0000
0000
,
1001
0000
0110
0000
0001
0001
0010
0000
,
0100
0000
0000
0000
0011
0000
0000
0000
0101
0000
0000
0000
0100
0000
0000
0010
,
0000
1000
1001
0000
0010
0010
0100
0000
,
0010
0000
0000
0000
1100
0000
0000
0011
0000
0000
1001
0000
0000
0000
0000
0000
,
0000
0000
0000
0000
0010
0000
0000
1000
0000
0000
0100
0000
0020
0000
0000
0000
,
0130
0000
0000
0000
0010
0000
0000
0001
0000
0000
1000
0000
0002
0000
0000
0000
,
0103
0000
0000
0000
0010
0000
0000
1000
0000
0000
0010
0000
0200
0000
0000
0000
,
0301
0000
0000
0000
0010
0000
0000
0100
0000
0000
0010
0000
0002
0000
0000
0000
,
1003
0000
0000
0000
0001
0000
0000
1000
0000
0000
0010
0000
2000
0000
0000
0000
,
3100
0000
0000
0000
0010
0000
0000
0001
0000
0000
0100
0000
0002
0000
0000
0000
,
1003
0000
0000
0000
0100
0000
0000
0010
0000
0000
0100
0000
2000
0000
0000
0000
,
3010
0000
0000
0000
0100
0000
0000
0001
0000
0000
0010
0000
0100
0000
1000
0000
,
0100
0010
0001
0000
1000
0000
0010
0000
,
0100
0010
0100
0000
0010
0000
1000
0000
,
0001
1000
0001
0000
1000
0000
0100
0000
,
0010
0000
0100
0100
0010
0001
0010
0001
,
0100
0010
1000
0000
0001
0000
1000
0000
,
0001
0000
0000
0000
0100
0000
0010
0000
1000
0000
0001
0000
0010
0000
0000
0100
,
0000
1001
0000
0000
0000
0110
0000
0000
,
0000
1001
0000
0000
0000
0000
0000
0000
,
0000
0000
0000
0000
0000
0000
0010
0100
,
1001
0000
0000
0000
;

//---------------dance-single - ----------------
#NOTEDATA:;
#CHARTNAME:;
#STEPSTYPE:dance-single;
#DESCRIPTION:;
#CHARTSTYLE:;
#DIFFICULTY:Easy;
#METER:6;
#RADARVALUES:0.236273,0.389340,0.223502,0.071521,0.000000,185.000000,160.000000,25.000000,8.000000,0.000000,0.000000,0.000000,0.000000,0.000000,0.236273,0.389340,0.223502,0.071521,0.000000,185.000000,160.000000,25.000000,8.000000,0.000000,0.000000,0.000000,0.000000,0.000000;
#CREDIT:Pandemonium X;
#NOTES:
0000
0000
0000
0000
,
0000
0000
0000
0000
,
0000
0000
0000
0000
,
0000
0000
0000
0000
,
0000
0000
0000
0000
,
0000
0000
0000
0000
,
2002
0000
0000
0000
,
0000
0000
0000
0000
,
0000
0000
0000
0000
,
3003
1000
0001
0100
,
2002
0000
0000
0000
,
0000
0000
0000
0000
,
0000
0000
0000
0000
,
3003
0001
0010
0100
,
1001
0000
0010
0000
,
0010
0000
0010
0000
,
0010
0100
0010
0100
,
0010
0000
0010
0000
1000
0001
1000
0010
,
0100
0000
0000
0000
0000
0000
0010
1000
,
0000
0000
0000
0000
0100
1000
0000
0002
,
0000
1003
0000
0000
,
0000
0000
0000
0000
0000
0000
0010
1000
,
0010
0000
0000
0000
0000
0000
0100
0001
,
0000
0000
0010
0100
1000
0000
0001
0000
,
0110
0000
0000
1001
0000
0000
0000
0110
,
0000
0000
0000
0000
0000
0000
0000
0010
,
0100
0000
0000
0000
0000
0000
0010
1000
,
0000
0000
0000
0000
0001
1000
0000
0002
,
0000
0103
0000
0000
,
0000
0000
0000
0000
0000
0000
0010
0100
,
0001
0000
0000
0000
0000
0000
1000
0100
,
0000
0000
0010
0001
0000
0001
0100
0000
,
0110
0000
0000
1001
0000
0000
0000
0000
,
1000
0000
0001
0000
0100
0010
0100
0010
,
0000
1000
0001
0010
,
0001
0101
0101
0001
,
1000
0100
1000
0010
,
0100
0101
0000
0000
,
0001
1000
0010
1000
,
0100
0110
0110
0100
,
0010
0001
1000
0010
,
1000
1001
0000
0010
,
0000
0100
0001
0010
,
0001
0011
1100
0100
,
1000
0010
0100
0001
,
1000
0101
0000
0000
,
1001
0010
1000
0001
,
0010
0110
1100
0100
,
1000
1010
0010
0100
,
0001
1001
0000
0010
,
0000
0100
0000
0001
,
0000
0010
0000
0100
,
1000
0001
0000
1000
,
0000
0010
0000
1000
,
0100
0010
0000
0100
,
0000
1000
0000
0001
,
1000
0010
0000
1000
,
0000
0100
1000
0010
,
0100
0001
0000
0000
,
1000
0010
0000
0000
0000
0000
0000
0000
,
0100
0001
0000
0000
0000
0000
0000
0000
,
0000
0010
0000
0100
,
0010
0001
0000
0000
,
1000
0001
0100
0010
,
1000
1001
0000
0000
0000
0110
0000
0000
,
0000
2002
0000
0000
0000
0000
0000
0000
,
0000
0000
0000
0000
,
3003
0000
0000
0000
;

//---------------dance-single - ----------------
#NOTEDATA:;
#CHARTNAME:;
#STEPSTYPE:dance-single;
#DESCRIPTION:;
#CHARTSTYLE:;
#DIFFICULTY:Challenge;
#METER:14;
#RADARVALUES:0.605370,0.781585,0.214562,0.295022,0.666035,474.000000,450.000000,24.000000,33.000000,0.000000,0.000000,0.000000,0.000000,0.000000,0.605370,0.781585,0.214562,0.295022,0.666035,474.000000,450.000000,24.000000,33.000000,0.000000,0.000000,0.000000,0.000000,0.000000;
#CREDIT:Pandemonium X;
#NOTES:
0000
0000
0000
0000
,
0000
0000
0000
0000
,
0000
0000
0000
0000
,
0000
0000
0000
0000
,
0000
0000
0000
0000
,
0000
0000
0000
0000
,
2000
0100
0000
0010
,
0000
0001
0000
0100
,
0000
0010
0000
3001
,
0000
0001
0100
2000
0000
0000
3100
0000
,
0002
0010
0000
0100
,
0000
1000
0000
0100
,
0000
0010
0000
0103
,
0000
0010
0100
2000
0000
0000
0002
3003
,
0110
0000
0000
0000
0000
0000
1000
0001
1000
0001
0000
0000
0000
0000
1000
0001
,
0000
0000
0000
0000
0000
0000
1000
0001
1000
0001
0000
0000
0000
0000
1000
0001
,
1000
0001
1000
0001
1000
0001
1000
0001
,
0100
0000
0010
0000
0100
0000
0010
0000
1000
0001
0100
0010
1000
0000
0001
0000
,
1100
0000
0000
0000
0100
0000
0000
0010
0001
0000
0000
0100
0000
0000
0010
0000
,
0100
0000
0000
0000
0001
0000
0000
0010
0002
0000
0000
0203
0000
0000
0320
0000
,
0000
0000
1030
0000
0100
0000
0010
0000
0100
0000
1000
0001
0000
0100
0001
0000
,
0010
0000
0100
0010
0001
1000
0010
0000
1000
0000
0100
0010
0000
0100
1000
0000
,
0001
0000
1000
0010
0010
0000
0100
0002
,
0000
0000
0003
0000
0010
0000
0001
0000
2000
0000
0000
3002
0000
0000
0203
0000
,
0310
0000
1000
0001
0010
0000
0100
0000
0010
0001
1000
0000
0010
0000
0100
0001
,
1000
0000
0100
0000
0001
0000
0100
1000
0100
0000
0010
0001
0010
0000
0001
0000
,
1001
0000
0000
0000
1000
0000
0000
0001
0100
0000
0000
0001
0000
0000
0010
0000
,
0100
0000
0000
0000
0010
0000
0000
0100
2000
0000
0000
3200
0000
0000
0320
0000
,
0000
0000
0130
0000
1000
0000
0001
0000
0100
0000
0001
0010
0000
0001
1000
0000
,
0000
0000
0001
0100
0001
0010
0100
0000
1000
0000
0100
1000
0000
0010
0100
0000
,
0001
0000
1000
0010
0010
0000
0100
0002
,
0000
0003
0000
0000
0010
0000
0100
0000
0000
0000
0010
0000
0001
0000
1000
0000
,
0001
0000
1000
0010
0100
0000
0001
0000
0010
0100
1000
0000
0100
0000
1000
0010
,
0100
0100
1000
0100
0001
0010
0100
2000
,
3000
0000
0000
0000
2001
0000
0000
0000
0010
0000
3010
0000
0100
0010
0000
1000
,
0000
0010
0100
0001
0010
0000
0000
0000
0101
0000
0000
0000
0001
0100
0000
0001
,
0000
0100
0010
1000
0002
0000
0000
0000
0100
0000
0103
0000
0010
1000
0000
0001
,
0000
0010
0100
1000
0001
0000
0000
1010
0000
0000
0101
0000
0000
1000
0000
0000
,
0110
0000
0000
0000
1020
0000
0000
0000
0100
0000
0130
0000
0010
1000
0000
0001
,
0000
0010
0001
1000
0010
0000
0000
0000
1001
0000
0000
0000
1000
0100
0000
1000
,
0000
0010
0100
0001
0020
0000
0000
0000
0100
0000
0130
0000
0010
0001
0000
0010
,
0000
0001
1000
0001
0100
0000
0000
0101
0000
0000
0001
0010
0100
0000
1000
0000
,
0110
0000
0000
0000
1002
0000
0000
0000
0100
0000
0103
0000
0001
0100
0000
0010
,
0000
1000
0010
0100
0001
0000
0000
0000
0011
0000
0000
0000
0010
0100
0000
0010
,
0000
0100
0010
0001
2000
0000
0000
0000
0010
0000
3010
0000
1000
0010
0000
0100
,
0000
0010
1000
0001
0010
0000
0000
1100
0000
0000
0011
0000
0001
1000
0000
0000
,
0110
0000
0000
0000
2001
0000
0000
0000
0100
0000
3100
0000
0010
0001
0000
0010
,
0000
0001
1000
0010
0100
0000
0000
0000
1001
0000
0000
0000
1000
0001
0000
0010
,
0000
0100
0010
0001
2000
0000
0000
0000
0001
0000
3001
0000
1000
0010
0000
0100
,
0000
0010
1000
0100
0010
0000
0000
0110
0000
0000
1001
0000
0010
0100
0010
0100
,
0010
0000
0000
0000
1000
0000
0010
1000
0000
0010
1000
0000
0010
0100
0000
0001
,
0000
0010
0000
0100
0010
0000
0001
0100
0000
0001
0100
0000
0001
1000
0000
0100
,
0000
1000
0010
0000
0100
0000
0001
0100
0000
0001
0100
0000
0001
0010
0001
1000
,
0000
0001
1000
0000
0100
0000
0010
0001
0000
0010
0001
0000
1000
0100
0010
0100
,
0000
1000
0001
0000
0100
0000
0010
1000
0000
0010
1000
0000
0001
1000
0000
0100
,
0000
0010
0000
0100
1000
0000
0010
0100
0000
0010
0100
0000
0010
1000
0000
0001
,
0000
0010
0000
0000
0100
0000
0010
0001
0000
0010
0001
1000
0010
0000
0100
0001
,
0000
0001
1000
0000
0100
0000
0100
0000
0010
0000
0001
0000
0200
0000
0320
0000
,
2030
3002
0013
0000
0100
0000
0010
0000
,
0001
0100
0010
0000
1000
0000
0000
0000
0001
0000
0000
0000
0100
0000
0000
0000
,
0010
1000
0001
0000
0100
0000
0000
0000
0010
0000
0000
0000
0100
0000
0001
0010
,
0000
0100
0010
0000
0001
0000
1000
0000
0001
0000
0010
0000
1000
0000
0010
0000
,
0001
0000
0100
0000
1001
0000
1000
0010
0000
1000
0010
0000
0100
0000
0001
0010
,
0001
1000
0000
0100
0000
0000
0010
0001
0100
0010
1000
0001
0010
0000
0100
0010
,
0000
0001
1000
0000
0001
0010
0100
0010
0001
0000
1000
0100
0010
0100
1000
0000
,
0001
0220
0000
0000
0000
0000
0000
0000
,
0000
0000
0000
0000
0000
0330
1000
0001
,
0220
0330
0000
0000
;

//---------------dance-single - ----------------
#NOTEDATA:;
#CHARTNAME:;
#STEPSTYPE:dance-single;
#DESCRIPTION:;
#CHARTSTYLE:;
#DIFFICULTY:Beginner;
#METER:2;
#RADARVALUES:0.117498,0.209645,0.080461,0.000000,0.000000,92.000000,83.000000,9.000000,0.000000,0.000000,0.000000,0.000000,0.000000,0.000000,0.117498,0.209645,0.080461,0.000000,0.000000,92.000000,83.000000,9.000000,0.000000,0.000000,0.000000,0.000000,0.000000,0.000000;
#CREDIT:Pandemonium X;
#NOTES:
// measure 0
0000
0000
0000
0000
,  // measure 1
0000
0000
0000
0000
,  // measure 2
0000
0000
0000
0000
,  // measure 3
0000
0000
0000
0000
,  // measure 4
0000
0000
0000
0000
,  // measure 5
0000
0000
0000
0000
,  // measure 6
1001
0000
0000
0000
,  // measure 7
0000
0000
0000
0000
,  // measure 8
0000
0000
0000
0000
,  // measure 9
0000
0000
0000
0000
,  // measure 10
1001
0000
0000
0000
,  // measure 11
0000
0000
0000
0000
,  // measure 12
0000
0000
0000
0000
,  // measure 13
0000
0000
0000
0000
,  // measure 14
0010
0000
0000
0000
,  // measure 15
0010
0000
0000
0000
,  // measure 16
0100
0000
0100
0000
,  // measure 17
0100
0000
0010
0000
,  // measure 18
1001
0000
0000
0000
,  // measure 19
1000
0000
0001
0000
,  // measure 20
0000
0000
0000
0000
,  // measure 21
0000
0000
0000
0100
,  // measure 22
0100
0000
0000
0010
,  // measure 23
0000
0000
1000
0000
,  // measure 24
1001
0000
0000
0000
,  // measure 25
0010
0000
0100
0000
,  // measure 26
0001
0000
0000
0000
,  // measure 27
1000
0000
0010
0000
,  // measure 28
0100
0000
0000
0000
,  // measure 29
0000
0000
0000
0010
,  // measure 30
0010
0000
0000
1000
,  // measure 31
0000
0001
0000
0000
,  // measure 32
1000
0000
0001
0000
,  // measure 33
0100
0000
0010
0000
,  // measure 34
0000
1000
0000
0000
,  // measure 35
0000
0001
0001
1000
,  // measure 36
0000
0010
0000
0000
,  // measure 37
0000
0110
0000
0000
,  // measure 38
0000
0010
0000
0000
,  // measure 39
0000
1000
1000
0100
,  // measure 40
0000
1000
0000
0000
,  // measure 41
0000
1001
0000
0000
,  // measure 42
0000
0001
0000
1000
,  // measure 43
0000
0010
0010
0100
,  // measure 44
0000
0010
0000
1000
,  // measure 45
0000
1001
0000
0000
,  // measure 46
0000
0001
0000
0010
,  // measure 47
0000
0100
0100
0010
,  // measure 48
0000
0100
0000
1000
,  // measure 49
0000
1001
0000
0010
,  // measure 50
0000
0100
0000
0000
,  // measure 51
0000
0010
0000
0000
,  // measure 52
0000
1000
0000
0000
,  // measure 53
0000
0001
0000
1000
,  // measure 54
0000
0010
0000
0000
,  // measure 55
0000
0100
0000
0000
,  // measure 56
0000
0001
0000
0000
,  // measure 57
0000
1000
0000
0001
,  // measure 58
0000
0100
0000
0000
,  // measure 59
0010
0000
0000
0000
,  // measure 60
1000
0000
0000
0001
,  // measure 61
0000
1000
0000
0010
,  // measure 62
1000
0000
0000
0000
,  // measure 63
0001
0000
0000
1000
,  // measure 64
0000
0001
0000
0000
0000
1000
0000
0000
,  // measure 65
0000
0010
0000
0000
0000
0000
0000
0000
,  // measure 66
0000
0000
0000
0100
,  // measure 67
1001
0000
0000
0000
;
