#TITLE:THE EARTH LIGHT;
#SUBTITLE:;
#ARTIST:L.E.D. LIGHT;
#TITLETRANSLIT:;
#SUBTITLETRANSLIT:;
#ARTISTTRANSLIT:;
#GENRE:;
#CREDIT:;
#MUSIC:THE EARTH LIGHT.ogg;
#BANNER:THE EARTH LIGHT.png;
#BACKGROUND:THE EARTH LIGHT-bg.png;
#CDTITLE:;
#SAMPLESTART:29.770;
#SAMPLELENGTH:15.006;
#SELECTABLE:YES;
#OFFSET:0.001;
#BPMS:0.000=145.026;
#STOPS:;
#DISPLAYBPM:145.000;
#BGCHANGES:;
#FGCHANGES:;

//--------------- dance-single - forcednature ----------------
#NOTES:
     dance-single:
     forcednature:
     Beginner:
     4:
     0,0,0,0,0:
0000
0000
0000
0000
,
0000
0000
0000
0000
,
0000
0000
0000
0000
,
0000
0000
0000
0000
,
0000
0000
0000
0000
,
0000
0000
0000
0000
,
1001
0000
0000
0000
,
1000
0000
0001
0000
,
0100
0000
0010
0000
,
1001
0000
0000
0000
,
0001
0000
0001
0000
,
1000
0000
1000
0000
,
0100
0000
0010
0000
,
0001
0000
0100
0100
,
0100
0000
0010
0000
,
1000
0000
0100
0000
,
0010
0000
0001
0000
,
1000
0000
1001
0000
,
0010
0000
0000
0000
,
0000
0000
0000
0100
,
0100
0000
0000
0000
,
0100
0100
0100
0000
,
0001
0000
0100
0000
,
0010
0000
1000
0000
,
0001
0000
1000
0000
,
0100
0000
0010
0000
,
1001
0000
0100
0000
,
0010
0000
0001
0000
,
0100
0000
1000
0000
,
0010
0000
1000
0000
,
0001
0001
0001
0000
,
1000
0000
0000
0000
,
0100
0100
0100
0000
,
0010
0000
0000
0000
,
1000
1000
1000
0000
,
0001
0000
0000
0000
,
0010
0010
0010
0000
,
0100
0000
0000
0000
,
1001
0000
0000
0000
,
0000
0000
0000
0000
,
0110
0000
0000
0000
,
0000
0000
0000
0000
,
1001
0000
0000
0000
,
0110
0000
0000
0000
,
1001
0000
0000
0000
,
0100
0000
0000
0000
,
1001
0000
0000
0000
,
0000
0000
0000
0000
,
1000
0000
0100
0000
,
1000
0000
0010
0000
,
1000
0000
0001
0000
,
0100
0000
0001
0000
,
0010
0000
0001
0000
,
0100
0000
0010
0000
,
0100
0000
0010
0000
,
1000
0000
0001
0000
,
0010
0000
0000
0000
;

//--------------- dance-single - forcednature ----------------
#NOTES:
     dance-single:
     forcednature:
     Easy:
     6:
     0,0,0,0,0:
0000
0000
0000
0000
,
0000
0000
0000
0000
,
0000
0000
0000
0000
,
0000
0000
0000
0000
,
0000
0000
0000
0000
,
0000
0000
0000
0000
,
1001
1000
0010
0100
,
0001
0010
0100
1000
,
0010
0100
0001
0100
,
2002
0000
0000
3003
,
1000
0100
1000
0000
0001
0000
1000
0000
,
0001
0100
0001
0000
1000
0000
0001
0000
,
0100
0010
0100
0000
0001
0000
1000
0000
,
0100
0010
0100
0000
1000
0000
0001
0000
,
1001
1000
0010
0100
,
0001
0010
0001
0000
0100
0000
0010
0000
,
1000
0100
1000
0000
0010
0000
0100
0000
,
0001
0100
0001
0000
2002
0000
3003
0000
,
0220
0000
0000
0000
,
0000
0000
0000
0000
0000
0330
0000
1000
,
0002
0000
0000
0003
,
1001
1001
1001
0000
,
1000
0000
0100
0000
1000
0001
1000
0000
,
0001
0000
0100
0000
0001
1000
0001
0000
,
1000
0000
0010
0000
1000
0001
1000
0000
,
0001
0000
0010
0000
0001
1000
0001
0000
,
0100
0000
0010
0000
0100
0001
0100
0000
,
0100
0000
0010
0000
0100
1000
0100
0000
,
0100
0000
0010
0000
0100
0001
0100
0000
,
0100
0000
0010
0000
0100
1000
0100
0000
,
1000
0000
0010
0000
1000
0010
1000
0000
,
0001
0000
0010
0000
0001
0010
0001
0000
,
0100
0000
0010
0000
1000
0001
0100
0000
,
0100
0000
0010
0000
1000
0001
0100
0000
,
0110
0000
0001
0000
1000
0100
0010
0000
,
0100
0000
1000
0000
0001
0100
0010
0000
,
0100
0000
0001
0000
1000
0001
0010
0000
,
0100
0000
1000
0000
0010
0100
0001
0000
,
0100
0000
0000
0100
0000
0000
0100
0000
0000
0000
0000
0000
0000
0000
0000
0000
,
0000
0000
0000
0000
,
0010
0000
0000
0010
0000
0000
0010
0000
0000
0000
0000
0000
0000
0000
0000
0000
,
0000
0000
0000
0000
,
1000
0000
0000
1000
0000
0000
1000
0000
0000
0000
0000
0000
0000
0000
0000
0000
,
0001
0000
0000
0001
0000
0000
0001
0000
0000
0000
0000
0000
0000
0000
0000
0000
,
0010
0000
0000
0010
0000
0000
0010
0000
0000
0000
0000
0000
0000
0000
0000
0000
,
0100
0100
0000
0000
,
1001
0000
0000
0000
,
0000
0000
0000
0000
,
1000
0001
1000
0000
0010
0000
0010
0000
,
0100
0001
0010
0000
0100
0000
1000
0000
,
0001
0100
1000
0000
0100
0000
0010
0000
,
1000
0100
0001
0000
0010
0000
1000
0000
,
0100
0010
0001
0000
0100
0000
1000
0000
,
0010
0001
0100
0000
1000
0000
0010
0000
,
0001
0100
1000
0000
0010
0000
0001
0000
,
0100
1000
0010
0000
0001
0000
0100
0000
,
1000
0000
0000
0000
;

//--------------- dance-single - forcednature ----------------
#NOTES:
     dance-single:
     forcednature:
     Medium:
     10:
     0,0,0,0,0:
0000
0000
0000
0000
,
0000
0000
0000
0000
,
0000
0000
0000
0000
,
0000
0000
0000
0000
,
0000
0000
0000
0000
,
0000
0000
0000
0000
,
1001
0001
0100
0010
,
1000
0000
0100
0000
0010
0000
0100
1000
,
0001
0010
0001
1000
,
1001
0000
0000
0000
0000
0000
0000
0000
1000
0000
0000
0001
0000
0000
1000
0000
,
0001
0000
0100
0001
1000
0010
0100
0001
,
1000
0010
0100
0001
1000
0010
1000
0000
,
0100
0000
0010
0100
1000
0001
0010
0100
,
1000
0001
0010
0100
1000
0001
0010
0000
,
0001
0000
1000
0001
0100
0010
1000
0001
,
0100
0010
1000
0001
0100
0010
1000
0000
,
0100
0000
1000
0001
0010
0100
1000
0001
,
0010
0100
1000
0001
0010
0100
1000
0000
,
0001
0000
1000
0000
0000
0001
0000
0000
0100
0000
0001
0000
1000
0000
0000
0010
,
0000
0000
1000
0000
0000
0100
0000
0000
0010
0000
0100
0000
1000
0000
0000
0001
,
0000
0000
0100
0000
0000
0001
0000
0000
1000
0000
0010
0000
1000
0000
0000
0001
,
0000
0000
0010
0000
0000
0100
0000
0000
1000
0000
0001
0000
0100
0000
0000
0001
,
0000
0000
1000
0000
0000
0010
0000
0000
1000
0000
0100
0000
1000
0000
0000
0001
,
0000
0000
0010
0000
0000
0001
0000
0000
0100
0000
0010
0000
1000
0000
0000
0100
,
0000
0000
1000
0000
0000
0001
0000
0000
0100
0000
0001
0000
1000
0000
0000
0010
,
0000
0000
1000
0000
0000
0001
0000
0000
0100
0000
0001
0000
0010
0000
0000
0100
,
0000
0000
1000
0000
0000
0001
0000
0000
0100
0000
0001
0000
1000
0000
0000
0010
,
0000
0000
1000
0000
0000
0100
0000
0000
0010
0000
0100
0000
1000
0000
0000
0001
,
0000
0000
0010
0000
0000
0100
0000
0000
0010
0000
0001
0000
1000
0000
0000
0001
,
0000
0000
0100
0000
0000
0001
0000
1000
0000
0000
0010
0000
1000
0000
0000
0001
,
0000
0100
0100
0000
0010
0010
1000
0001
,
0000
1000
1000
0000
0001
1000
0001
1000
,
0000
0010
0010
0000
0100
0001
0010
0100
,
0000
1000
1000
0000
0001
0100
0001
1000
,
0000
0010
0010
0000
1000
0100
0010
0001
,
0000
0100
0100
0000
0001
1000
0001
1000
,
0000
0100
0100
0000
0010
0001
1000
0010
,
0000
0100
0100
0000
0001
1000
0001
0000
,
1001
0000
0000
1001
0000
0000
1001
0000
0000
0000
0000
0000
0000
0000
0000
0000
,
0100
0000
1001
0000
0000
0010
0100
0000
,
1001
0000
0000
1001
0000
0000
1001
0000
0000
0000
0000
0000
0000
0000
0000
0000
,
1001
0000
1001
0000
0000
0100
0100
0000
,
0110
0000
0000
0110
0000
0000
0110
0000
0000
0000
0000
0000
0000
0000
0000
0000
,
1001
0000
1001
0000
0000
1000
0001
0000
,
1001
0000
0000
1001
0000
0000
1001
0000
0000
0000
0000
0000
0000
0000
0000
0000
,
0110
0000
0110
0000
0000
0001
1000
0000
,
2002
0000
0000
0000
,
0000
0000
0000
3003
,
1000
0100
1000
0001
0010
0001
1000
0001
,
0100
0001
1000
0010
1000
0001
0100
0000
,
0010
1000
0001
1000
0100
0010
0001
0100
,
0010
1000
0100
0010
0001
0100
0010
0000
,
1000
0001
0100
0001
1000
0100
1000
0001
,
0010
0001
1000
0010
1000
0001
1000
0000
,
0001
0010
0100
1000
0001
0100
0010
1000
,
0001
0010
0100
1000
0001
0100
0010
1000
,
0001
0000
0000
0000
;

//--------------- dance-single - forcednature ----------------
#NOTES:
     dance-single:
     forcednature:
     Hard:
     12:
     0,0,0,0,0:
0000
0000
0000
0000
,
0000
0000
0000
0000
,
0000
0000
0000
0000
,
0000
0000
0000
0000
,
0000
0000
0000
0000
,
0000
0000
0000
0000
,
1001
1000
0100
0010
,
0001
0000
0100
0000
0010
0000
1000
1000
,
1000
0001
0010
0100
,
0220
0000
0000
0000
0000
0330
0000
0000
1000
0001
0000
1000
0001
0000
1000
0001
,
1000
0000
0000
0000
0010
0000
0000
0100
0000
0001
0000
0000
1000
0000
0100
0010
,
0000
0000
0100
0000
1000
0000
0000
0001
0000
0100
0000
0000
0010
0000
1000
0001
,
0000
0000
0000
0000
0010
0000
0000
0100
0000
1000
0000
0000
0001
0000
0010
0001
,
0000
0000
0000
0000
0100
0000
0010
0000
0000
1000
0000
0000
0001
0000
0100
0010
,
0100
0000
0000
0000
0001
0000
0000
1000
0000
0100
0000
0000
0010
0000
0001
1000
,
0000
0000
0001
0000
0100
0000
0000
1000
0000
0100
0000
0000
0001
0000
1000
0100
,
0000
0000
0000
0000
0010
0000
0000
1000
0000
0010
0000
0000
0001
0000
1000
0001
,
0000
0100
0010
0000
2002
0000
0000
3003
,
1000
0000
0001
0100
0000
0001
0100
0000
0010
1000
0010
0000
1000
0001
0000
0000
,
1000
0000
0100
0010
0000
0100
0010
0000
0100
1000
0100
0000
1000
0001
0000
0000
,
0100
0000
0010
1000
0000
0010
1000
0000
0001
0010
0001
0000
1000
0100
0000
0000
,
0010
0000
0001
0100
0000
0001
0100
0000
0010
1000
0010
0000
1000
0100
0000
0000
,
1000
0000
0001
0100
0000
0010
1000
0000
0010
0100
0010
0000
1000
0001
0000
0000
,
1000
0000
0100
0010
0000
0001
1000
0000
0100
1000
0100
0000
0010
0001
0000
0000
,
1000
0000
0010
0100
0000
0001
1000
0000
0001
0010
0001
0000
1000
0010
0000
0000
,
0100
0000
0001
0100
0000
0010
1000
0000
0001
0010
0001
0000
1000
0100
0000
0000
,
0010
0000
0100
1000
0000
0001
0010
0000
0001
1000
0001
0000
1000
0010
0000
0000
,
1000
0000
0100
1000
0000
0001
0100
0000
0010
1000
0010
0000
0100
0001
0000
0000
,
1000
0000
0100
0010
0000
0100
1000
0000
0001
0010
0001
0000
1000
0010
0000
0000
,
0100
0000
0001
1000
0000
0010
1000
0000
0001
0100
0001
0000
0100
0010
0000
0010
,
0100
0001
0100
1000
0100
0010
1000
0100
,
0001
0000
0100
0000
0010
0000
0001
0000
1000
0001
1000
0001
1000
0000
0010
0000
,
0100
0001
0100
1000
0100
0010
1000
0100
,
0001
0000
0100
0000
0010
0000
0001
0000
1000
0010
0000
1000
0000
0001
0100
0000
,
0010
1000
0001
0010
1000
0001
0100
1000
,
0010
0000
0100
0000
0001
0000
1000
0000
0010
1000
0010
1000
0010
0000
0100
0000
,
0001
1000
0100
0010
0001
1000
0010
0001
,
0010
0000
1000
0000
0100
0000
0010
0000
0001
1000
0000
0100
0000
1000
0001
0000
,
0110
0000
0000
1001
0000
0000
0110
0000
0000
0000
0000
0000
0000
0000
0000
0000
,
1000
0000
0000
1000
0001
0000
1000
0000
0000
0000
0110
0000
0110
0000
0000
0000
,
1001
0000
0000
0110
0000
0000
1001
0000
0000
0000
0000
0000
0000
0000
0000
0000
,
0110
0000
0000
0100
0010
0000
0100
0000
0000
0000
1001
0000
1001
0000
0000
0000
,
1100
0000
0000
0101
0000
0000
1001
0000
0000
0000
0000
0000
0000
0000
0000
0000
,
1001
0000
0000
1000
0001
0000
0100
0000
0000
0100
0010
0000
0010
1000
0000
0000
,
1001
0000
0000
0110
0000
0000
1001
0000
0000
0000
0000
0000
0000
0000
0000
0000
,
0110
0000
0000
1000
0010
0000
0100
0000
0000
0001
1000
0000
1000
0001
0000
0100
,
0010
0000
0000
0010
0000
0000
0200
0000
0000
0000
0000
0000
0000
0000
0000
0000
,
0000
0000
0000
0300
,
0001
0000
0100
0000
1000
0000
0100
0000
0010
0100
0000
0010
0000
0100
0010
0000
,
1000
0000
0100
0000
0010
0000
0001
0000
0010
0100
0010
0100
0000
1000
0001
0000
,
1000
0000
0010
0000
1000
0000
0100
0000
0010
0001
0000
1000
0000
0100
1000
0000
,
0001
0000
0100
0000
0010
0000
1000
0000
0001
1000
0001
1000
0000
0001
0100
0000
,
0010
0000
1000
0000
0001
0000
0010
0000
0100
1000
0000
0001
0000
0100
0010
0000
,
1000
0000
0100
0000
0010
0000
0001
0000
0100
0001
0100
0001
0000
1000
0010
0000
,
1000
0000
0100
0000
1000
0000
0001
0000
0010
0100
0000
1000
0000
0001
0100
0000
,
0010
0000
1000
0000
0001
0000
0010
0000
0100
1000
0100
1000
0000
0001
0010
0001
,
0010
0000
0000
0000
;

//--------------- dance-single - forcednature ----------------
#NOTES:
     dance-single:
     forcednature:
     Challenge:
     14:
     0,0,0,0,0:
0000
0000
0000
0000
,
0000
0000
0000
0000
,
0000
0000
0000
0000
,
0000
0000
0000
0000
,
0000
0000
0000
0000
,
0000
0000
0000
0000
,
2001
0000
0000
0001
3000
0000
1000
0000
0001
0000
0000
0000
0010
0000
0000
0000
,
1000
0000
0010
0000
0100
0000
1000
0001
,
0100
0010
1000
0001
,
2002
0000
0000
0000
0000
0000
3003
0000
0001
0100
0000
0001
0100
0000
0001
0100
,
0020
0000
0000
0000
0000
0000
0000
0000
0000
0000
0000
0000
0000
0000
0000
0000
0000
0000
0000
0030
0000
0000
0000
0000
0000
0000
0000
0000
0000
0000
0000
0000
0000
0000
0000
0000
0000
0000
0000
0000
0000
0000
0000
0000
0000
0000
0000
0000
0100
0000
0000
0000
0000
0000
0000
0000
0000
0000
0000
0000
0000
0000
0000
0000
0000
0000
0000
0000
0000
0000
0000
0000
0000
0000
0000
0000
0000
0000
0000
0000
0000
0000
0000
0000
0001
0000
0000
0000
0000
0000
0000
0000
0000
0000
0000
0000
0000
0000
0000
0000
0000
0000
0000
0000
0000
0000
0000
0000
1000
0000
0000
0000
0000
0000
0000
0000
0000
0000
0000
0000
0000
0000
0000
0000
0000
0000
0000
0000
0000
0000
0000
0000
0000
0000
0000
0000
0000
0000
0000
0000
0000
0000
0000
0000
0010
0000
0000
0000
0000
0000
0000
0000
0000
0000
0000
0000
0000
0000
0000
0000
0000
0000
0000
0000
0000
0000
0000
0000
1000
0000
0000
0000
0000
0000
0000
0000
0000
0000
0000
0000
0001
0000
0000
0000
0000
0000
0000
0000
0000
0000
0000
0000
,
0000
0000
1000
0000
0100
0000
0000
0010
0000
0100
0000
0000
1000
0000
0001
0100
,
0000
0000
0000
0000
1000
0000
0000
0100
0000
0010
0000
0000
1000
0000
0100
0001
,
0000
0000
0000
0000
0100
0000
0010
0000
0001
1000
0000
0001
1000
0000
0010
0100
,
0002
0000
0000
0000
0000
0000
0000
0000
0000
0000
0000
0000
0000
0000
0000
0000
0000
0000
0000
0003
0000
0000
0000
0000
0000
0000
0000
0000
0000
0000
0000
0000
0000
0000
0000
0000
0000
0000
0000
0000
0000
0000
0000
0000
0000
0000
0000
0000
0100
0000
0000
0000
0000
0000
0000
0000
0000
0000
0000
0000
0000
0000
0000
0000
0000
0000
0000
0000
0000
0000
0000
0000
0000
0000
0000
0000
0000
0000
0000
0000
0000
0000
0000
0000
1000
0000
0000
0000
0000
0000
0000
0000
0000
0000
0000
0000
0000
0000
0000
0000
0000
0000
0000
0000
0000
0000
0000
0000
0100
0000
0000
0000
0000
0000
0000
0000
0000
0000
0000
0000
0000
0000
0000
0000
0000
0000
0000
0000
0000
0000
0000
0000
0000
0000
0000
0000
0000
0000
0000
0000
0000
0000
0000
0000
0010
0000
0000
0000
0000
0000
0000
0000
0000
0000
0000
0000
0000
0000
0000
0000
0000
0000
0000
0000
0000
0000
0000
0000
1000
0000
0000
0000
0000
0000
0000
0000
0000
0000
0000
0000
0100
0000
0000
0000
0000
0000
0000
0000
0000
0000
0000
0000
,
0000
0000
0010
0000
1000
0000
0000
0010
0000
0001
0000
0000
1000
0000
0010
0100
,
0000
0000
0000
0000
0001
0000
0000
0100
0000
1000
0000
0000
0100
0000
0010
1000
,
0100
0010
0001
0000
2002
0000
0000
3003
,
0001
0000
0010
0001
0000
0010
0001
0000
1000
0100
1000
0000
0001
0100
0000
0001
,
0100
0000
0010
1000
0000
0010
1000
0000
0001
1000
0001
0000
1000
0100
0000
1000
,
0100
0000
0010
0001
0000
0010
0001
0000
0100
0001
0100
0000
0010
1000
0000
0010
,
1000
0000
0001
0010
0000
0001
0010
0000
0100
1000
0100
0000
1000
0001
0000
0100
,
0010
0000
1000
0001
0000
1000
0100
0000
0010
0001
0010
0000
0001
0100
0000
0010
,
1000
0000
0001
0010
0000
0100
1000
0000
0001
0100
0001
0000
1000
0100
0000
0010
,
0100
0000
1000
0001
0000
0010
0001
0000
1000
0010
0100
0000
0001
0100
0000
0010
,
1000
0000
0100
1000
0000
0001
0100
0000
0010
1000
0001
0000
1000
0100
0000
0010
,
0100
0000
1000
0010
0000
0001
0010
0000
1000
0100
0010
0000
0100
1000
0000
0001
,
0100
0000
0010
1000
0000
0001
0010
0000
1000
0010
0001
0000
1000
0010
0000
0100
,
0001
0000
1000
0100
0000
0001
0100
0000
1000
0001
0100
0000
0010
1000
0000
0001
,
0010
0000
1000
0010
0000
0100
1000
0000
0001
0100
0010
0000
1000
0001
0000
0100
,
0001
0000
0100
0000
0010
1000
0010
0000
1000
0100
1000
0100
0000
1000
0100
0000
,
0010
0000
0001
0000
1000
0001
1000
0000
0010
0100
0010
0100
0010
0000
1000
0000
,
0001
0000
0010
0000
0100
1000
0100
0000
1000
0010
1000
0010
0000
0100
0001
0000
,
1000
0000
0100
0000
0010
0001
0010
0000
0001
1000
0001
1000
0000
0010
0100
0010
,
0100
0000
0001
0000
1000
0100
1000
0000
0001
0010
0001
0010
0000
0001
1000
0000
,
0010
0000
0100
0000
0001
0100
0001
0000
1000
0010
1000
0010
1000
0000
0100
0000
,
0010
0000
0001
0000
1000
0100
1000
0000
0001
0010
0100
1000
0000
0001
0100
0000
,
0010
0000
1000
0000
0001
1000
0100
0000
1000
0010
1000
0010
0000
0100
0001
0100
,
0002
0000
0000
0000
0000
0000
0000
0000
0000
0000
0000
0000
0000
0000
0000
0000
0000
0000
0000
0003
0000
0000
0000
0000
0000
0000
0000
0000
0000
0000
0000
0000
0000
0000
0000
0000
2200
0000
0000
0000
0000
0000
0000
0000
0000
0000
0000
0000
0000
0000
0000
0000
0000
0000
0000
3300
0000
0000
0000
0000
0000
0000
0000
0000
0000
0000
0000
0000
0000
0000
0000
0000
0022
0000
0000
0000
0000
0000
0000
0000
0000
0000
0000
0000
0000
0000
0000
0000
0000
0000
0000
0033
0000
0000
0000
0000
0000
0000
0000
0000
0000
0000
0000
0000
0000
0000
0000
0000
0000
0000
0000
0000
0000
0000
0000
0000
0000
0000
0000
0000
0000
0000
0000
0000
0000
0000
0000
0000
0000
0000
0000
0000
0000
0000
0000
0000
0000
0000
0000
0000
0000
0000
0000
0000
0000
0000
0000
0000
0000
0000
0000
0000
0000
0000
0000
0000
0000
0000
0000
0000
0000
0000
0000
0000
0000
0000
0000
0000
0000
0000
0000
0000
0000
0000
0000
0000
0000
0000
0000
0000
0000
0000
0000
0000
0000
0000
0000
0000
0000
0000
0000
0000
,
0001
0000
0000
0001
0001
0000
1000
0000
0000
0010
0010
0000
0100
0100
0000
0001
,
0002
0000
0000
0000
0000
0000
0000
0000
0000
0000
0000
0000
0000
0000
0000
0000
0000
0000
0000
0003
0000
0000
0000
0000
0000
0000
0000
0000
0000
0000
0000
0000
0000
0000
0000
0000
2002
0000
0000
0000
0000
0000
0000
0000
0000
0000
0000
0000
0000
0000
0000
0000
0000
0000
0000
3003
0000
0000
0000
0000
0000
0000
0000
0000
0000
0000
0000
0000
0000
0000
0000
0000
0220
0000
0000
0000
0000
0000
0000
0000
0000
0000
0000
0000
0000
0000
0000
0000
0000
0000
0000
0330
0000
0000
0000
0000
0000
0000
0000
0000
0000
0000
0000
0000
0000
0000
0000
0000
0000
0000
0000
0000
0000
0000
0000
0000
0000
0000
0000
0000
0000
0000
0000
0000
0000
0000
0000
0000
0000
0000
0000
0000
0000
0000
0000
0000
0000
0000
0000
0000
0000
0000
0000
0000
0000
0000
0000
0000
0000
0000
0000
0000
0000
0000
0000
0000
0000
0000
0000
0000
0000
0000
0000
0000
0000
0000
0000
0000
0000
0000
0000
0000
0000
0000
0000
0000
0000
0000
0000
0000
0000
0000
0000
0000
0000
0000
0000
0000
0000
0000
0000
0000
,
1000
0000
0000
0100
0100
0000
0010
0000
0000
0001
0001
0000
0100
0100
0000
0010
,
0020
0000
0000
0000
0000
0000
0000
0000
0000
0000
0000
0000
0000
0000
0000
0000
0000
0000
0000
0030
0000
0000
0000
0000
0000
0000
0000
0000
0000
0000
0000
0000
0000
0000
0000
0000
0220
0000
0000
0000
0000
0000
0000
0000
0000
0000
0000
0000
0000
0000
0000
0000
0000
0000
0000
0330
0000
0000
0000
0000
0000
0000
0000
0000
0000
0000
0000
0000
0000
0000
0000
0000
2002
0000
0000
0000
0000
0000
0000
0000
0000
0000
0000
0000
0000
0000
0000
0000
0000
0000
0000
3003
0000
0000
0000
0000
0000
0000
0000
0000
0000
0000
0000
0000
0000
0000
0000
0000
0000
0000
0000
0000
0000
0000
0000
0000
0000
0000
0000
0000
0000
0000
0000
0000
0000
0000
0000
0000
0000
0000
0000
0000
0000
0000
0000
0000
0000
0000
0000
0000
0000
0000
0000
0000
0000
0000
0000
0000
0000
0000
0000
0000
0000
0000
0000
0000
0000
0000
0000
0000
0000
0000
0000
0000
0000
0000
0000
0000
0000
0000
0000
0000
0000
0000
0000
0000
0000
0000
0000
0000
0000
0000
0000
0000
0000
0000
0000
0000
0000
0000
0000
0000
,
2000
0000
3000
0000
0000
0000
0000
0000
0000
0002
0000
0003
0001
0000
0000
0000
0000
0000
0200
0000
0300
0000
0000
0000
0000
0000
0000
0010
0000
0000
0010
0000
0000
0000
0000
0000
1000
0000
0000
1000
0000
0000
0000
0000
0000
0100
0000
0000
,
0200
0000
0000
0000
0000
0000
0000
0000
0000
0000
0000
0000
0000
0000
0000
0000
0000
0000
0000
0300
0000
0000
0000
0000
0000
0000
0000
0000
0000
0000
0000
0000
0000
0000
0000
0000
2002
0000
0000
0000
0000
0000
0000
0000
0000
0000
0000
0000
0000
0000
0000
0000
0000
0000
0000
3003
0000
0000
0000
0000
0000
0000
0000
0000
0000
0000
0000
0000
0000
0000
0000
0000
0220
0000
0000
0000
0000
0000
0000
0000
0000
0000
0000
0000
0000
0000
0000
0000
0000
0000
0000
0330
0000
0000
0000
0000
0000
0000
0000
0000
0000
0000
0000
0000
0000
0000
0000
0000
0000
0000
0000
0000
0000
0000
0000
0000
0000
0000
0000
0000
0000
0000
0000
0000
0000
0000
0000
0000
0000
0000
0000
0000
0000
0000
0000
0000
0000
0000
0000
0000
0000
0000
0000
0000
0000
0000
0000
0000
0000
0000
0000
0000
0000
0000
0000
0000
0000
0000
0000
0000
0000
0000
0000
0000
0000
0000
0000
0000
0000
0000
0000
0000
0000
0000
0000
0000
0000
0000
0000
0000
0000
0000
0000
0000
0000
0000
0000
0000
0000
0000
0000
0000
,
0002
0000
0003
0000
0000
0000
0000
0000
0000
2000
0000
3000
1000
0000
0000
0000
0000
0000
0100
0000
0000
0100
0000
0000
0000
0000
0000
0010
0000
0000
0010
0000
0000
0000
0000
0000
0001
0000
0000
0001
0000
0000
0000
0000
0000
0100
0000
0000
,
0002
0000
0000
0000
,
0000
0000
0000
0000
0000
0000
0000
0003
,
1000
0000
0100
0000
0010
0001
0010
0000
0001
1000
0001
0100
0000
1000
0100
0000
,
0010
0000
1000
0000
0100
0010
1000
0000
0010
0001
1000
0010
0000
0100
1000
0100
,
0001
0000
1000
0000
0100
0010
1000
0000
0010
0100
1000
0010
0000
0001
0010
0000
,
0100
0000
0010
0000
0001
0010
1000
0000
0100
0010
1000
0010
0000
0100
1000
0001
,
0100
0000
0010
0000
1000
0001
0010
0000
1000
0010
0001
1000
0000
0010
1000
0000
,
0001
0000
0100
0000
1000
0100
0010
0000
1000
0100
0010
1000
0000
0010
0001
1000
,
0010
0000
0100
0000
1000
0100
0001
0000
1000
0100
0010
1000
0000
0010
0001
0000
,
0100
0000
0001
0000
1000
0010
0100
0000
0001
0100
1000
0100
0000
0010
1000
0100
,
0010
0000
0000
0000
;

//--------------- dance-double - forcednature ----------------
#NOTES:
     dance-double:
     forcednature:
     Easy:
     6:
     0,0,0,0,0:
00000000
00000000
00000000
00000000
,
00000000
00000000
00000000
00000000
,
00000000
00000000
00000000
00000000
,
00000000
00000000
00000000
00000000
,
00000000
00000000
00000000
00000000
,
00000000
00000000
00000000
00000000
,
01000000
01000000
00010000
00010000
,
10000000
10000000
00100000
00100000
,
00010000
00010000
00001000
00001000
,
00001001
00000000
00000010
00000010
,
00000110
00000010
00000001
00000100
,
00001000
00000100
00000010
00001000
,
00000100
00000110
00000001
00000100
,
00001000
00001001
00001000
00000100
,
00000010
00000110
00001000
00010000
,
01000000
10000000
00010000
01000000
,
00100000
10010000
01000000
00100000
,
10000000
00010000
01100000
00000000
,
20020000
00000000
00000000
00000000
,
00000000
00000000
00000000
00000000
00000000
30030000
00000000
01000000
,
02000000
00000000
00000000
03000000
,
00100000
00100000
00100000
00100000
,
10000000
01000000
10000000
00000000
10000000
00000000
00010000
00000000
,
00010000
01000000
00010000
00000000
10000000
00000000
00100000
00000000
,
10000000
00100000
10000000
00000000
00010000
00000000
00100000
00000000
,
00010000
00100000
00010000
00000000
01000000
00000000
00001000
00000000
,
00010000
00000100
00010000
00000000
00000010
00000000
00001000
00000000
,
00000001
00000010
00000001
00000000
00000100
00000000
00000010
00000000
,
00001000
00000100
00001000
00000000
00000010
00000000
00000100
00000000
,
00000001
00000010
00000001
00000000
00000100
00000000
00000010
00000000
,
00001000
00000100
00001000
00000000
00000001
00000000
00000001
00000000
,
00000001
00000100
00000001
00000000
00001000
00000000
00001000
00000000
,
00000010
00000100
00000010
00000000
00000001
00000000
00000001
00000000
,
00000010
00000100
00000010
00000000
00001000
00000000
00001000
00000000
,
00000010
00000100
00000010
00000000
00001000
00000000
00001000
00000000
,
00010000
01000000
00010000
00000000
01000000
00000000
00100000
00000000
,
10000000
01000000
10000000
00000000
00100000
00000000
01000000
00000000
,
00010000
10000000
00010000
00000000
00100000
00000000
00000000
00000000
,
00100000
00000000
00000000
00100000
00000000
00000000
00100000
00000000
00000000
00000000
00000000
00000000
00000000
00000000
00000000
00000000
,
00000000
00000000
00000000
00000000
,
00010000
00000000
00000000
00010000
00000000
00000000
00010000
00000000
00000000
00000000
00000000
00000000
00000000
00000000
00000000
00000000
,
00000000
00000000
00000000
00000000
,
00001000
00000000
00000000
00001000
00000000
00000000
00001000
00000000
00000000
00000000
00000000
00000000
00000000
00000000
00000000
00000000
,
00000001
00000000
00000000
00000001
00000000
00000000
00000001
00000000
00000000
00000000
00000000
00000000
00000000
00000000
00000000
00000000
,
00000100
00000000
00000000
00000100
00000000
00000000
00000100
00000000
00000000
00000000
00000000
00000000
00000000
00000000
00000000
00000000
,
00000110
00000000
00000000
00000000
,
00000010
00000000
00000000
00000010
00000000
00000000
00000010
00000000
00000000
00000000
00000000
00000000
00000000
00000000
00000000
00000000
,
00000000
00000000
00000000
00000000
,
00001000
00000100
00001000
00000000
00000001
00000000
00001000
00000000
,
00000001
00000100
00000001
00000000
00001000
00000000
00000001
00000000
,
00001000
00000100
00001000
00000000
00000001
00000000
00001000
00000000
,
00000001
00000100
00000001
00000000
00001000
00000000
00000001
00000000
,
00001000
00000100
00010000
00000000
00001000
00000000
01000000
00000000
,
00010000
01000000
00010000
00000000
10000000
00000000
01000000
00000000
,
10000000
00100000
10000000
00000000
00010000
00000000
00100000
00000000
,
00010000
00100000
00010000
00000000
10000000
00000000
00100000
00000000
,
01000000
00000000
00000000
00000000
;

//--------------- dance-double - forcednature ----------------
#NOTES:
     dance-double:
     forcednature:
     Medium:
     10:
     0,0,0,0,0:
00000000
00000000
00000000
00000000
,
00000000
00000000
00000000
00000000
,
00000000
00000000
00000000
00000000
,
00000000
00000000
00000000
00000000
,
00000000
00000000
00000000
00000000
,
00000000
00000000
00000000
00000000
,
00011000
00000100
00000010
00000001
,
00000100
00000000
00001000
00000000
00010000
00000000
01000000
10000000
,
00100000
10000000
01000000
00010000
,
00022000
00000000
00000000
00000000
00000000
00000000
00033000
00000000
00001000
00000000
00000000
00010000
00000000
00000000
00001000
00000000
,
00010000
00000000
00000100
00001000
00000001
00001000
00000100
00001000
,
00000001
00000010
00000001
00001000
00000100
00001000
00000001
00000000
,
00001000
00000000
00000100
00010000
00001000
00100000
00001000
00010000
,
00000010
00010000
00001000
01000000
00010000
10000000
00100000
00000000
,
01100000
00000000
10000000
01000000
00100000
00010000
01000000
00100000
,
10000000
01000000
00100000
00010000
01000000
00100000
10000000
00000000
,
10010000
00000000
00010000
01000000
00001000
00010000
00000100
00010000
,
00001000
00100000
00001000
00010000
00000010
00010000
00001000
00000000
,
00010000
00000000
00000100
00000000
00000000
00001000
00000000
00000000
00000010
00000000
00000100
00000000
00000001
00000000
00000000
00000010
,
00000000
00000000
00000100
00000000
00000000
00010000
00000000
00000000
00001000
00000000
00100000
00000000
00010000
00000000
00000000
10000000
,
00000000
00000000
00100000
00000000
00000000
10000000
00000000
00000000
00010000
00000000
01000000
00000000
00001000
00000000
00000000
00100000
,
00000000
00000000
00010000
00000000
00000000
01000000
00000000
00000000
00001000
00000000
00010000
00000000
00000100
00000000
00000000
00001000
,
00000000
00000000
00000001
00000000
00000000
00001000
00000000
00000000
00000010
00000000
00000100
00000000
00000001
00000000
00000000
00000010
,
00000000
00000000
00000100
00000000
00000000
00001000
00000000
00000000
00000001
00000000
00000100
00000000
00000001
00000000
00000000
00001000
,
00000000
00000000
00000010
00000000
00000000
00010000
00000000
00000000
00001000
00000000
00100000
00000000
00010000
00000000
00000000
10000000
,
00000000
00000000
01000000
00000000
00000000
10000000
00000000
00000000
00100000
00000000
10000000
00000000
01000000
00000000
00000000
00100000
,
00000000
00000000
00010000
00000000
00000000
01000000
00000000
00000000
00001000
00000000
00010000
00000000
00000010
00000000
00000000
00001000
,
00000000
00000000
00000001
00000000
00000000
00000010
00000000
00000000
00000001
00000000
00000100
00000000
00000001
00000000
00000000
00000010
,
00000000
00000000
00000100
00000000
00000000
00010000
00000000
00000000
00001000
00000000
00100000
00000000
01000000
00000000
00000000
10000000
,
00000000
00000000
00010000
00000000
00000000
01000000
00000000
00000000
00100000
00000000
10000000
00000000
00010000
00000000
00000000
10000000
,
00000000
01000000
10000000
00010000
00100000
01000000
10000000
00010000
,
00000000
01000000
00001000
00100000
00010000
01000000
00001000
00010000
,
00000000
00000100
00001000
00000010
00000100
00000001
00001000
00000100
,
00000000
00000010
00000001
00000100
00000010
00001000
00000100
00000010
,
00000000
00000100
00001000
00000001
00000100
00000001
00001000
00000100
,
00000000
00010000
00001000
00100000
00001000
00010000
00000100
00010000
,
00000000
00001000
01000000
00010000
10000000
00100000
10000000
00010000
,
00000000
01000000
00100000
10000000
01000000
00100000
00010000
00000000
,
10010000
00000000
00000000
10010000
00000000
00000000
10010000
00000000
00000000
00000000
00000000
00000000
00000000
00000000
00000000
00000000
,
10010000
00000000
01010000
00000000
00000000
00001000
00010000
00000000
,
00001001
00000000
00000000
00001001
00000000
00000000
00001001
00000000
00000000
00000000
00000000
00000000
00000000
00000000
00000000
00000000
,
00000110
00000000
00000110
00000000
00000000
00001000
00010000
00000000
,
00011000
00000000
00000000
00011000
00000000
00000000
00011000
00000000
00000000
00000000
00000000
00000000
00000000
00000000
00000000
00000000
,
01100000
00000000
10010000
00000000
00000000
10000000
00010000
00000000
,
01010000
00000000
00000000
01010000
00000000
00000000
01010000
00000000
00000000
00000000
00000000
00000000
00000000
00000000
00000000
00000000
,
00011000
00000000
00011000
00000000
00000000
00000100
00000010
00000000
,
00002002
00000000
00000000
00000000
,
00000000
00000000
00000000
00003003
,
00000001
00000100
00000010
00001000
00000001
00000010
00000100
00001000
,
00000001
00000100
00000010
00001000
00000100
00010000
00001000
00000000
,
00100000
00010000
10000000
00010000
01000000
00001000
00100000
00010000
,
01000000
00001000
00010000
00000100
00010000
00001000
00100000
00000000
,
00001000
00010000
00000010
00001000
00000001
00000100
00000010
00001000
,
00000100
00000010
00000100
00001000
00000010
00010000
00001000
00000000
,
01000000
00010000
10000000
00100000
10000000
00010000
00100000
00010000
,
01000000
00001000
00010000
00001000
00100000
00010000
01000000
00000000
,
00001000
00000000
00000000
00000000
;

//--------------- dance-double - forcednature ----------------
#NOTES:
     dance-double:
     forcednature:
     Hard:
     12:
     0,0,0,0,0:
00000000
00000000
00000000
00000000
,
00000000
00000000
00000000
00000000
,
00000000
00000000
00000000
00000000
,
00000000
00000000
00000000
00000000
,
00000000
00000000
00000000
00000000
,
00000000
00000000
00000000
00000000
,
00021000
00001000
01030000
00010000
,
00001000
00000000
00100000
00000000
00010000
00000000
01000000
10000000
,
01000000
00100000
00010000
00001000
,
20020000
00000000
00000000
00000000
00000000
00000000
30030000
00000000
10000000
00010000
00000000
10000000
00010000
00000000
10000000
00010000
,
10000000
00000000
00000000
00000000
00100000
00000000
00000000
01000000
00000000
00010000
00000000
00000000
00100000
00000000
01000000
10000000
,
00000000
00000000
00010000
00000000
01000000
00000000
00000000
00100000
00000000
10000000
00000000
00000000
00010000
00000000
01000000
00100000
,
00000000
00000000
00000000
00000000
01000000
00000000
00000000
00010000
00000000
00100000
00000000
00000000
00001000
00000000
00010000
00001000
,
00000000
00000000
00000000
00000000
00010000
00000000
00000010
00000000
00000000
00001000
00000000
00000000
00000001
00000000
00000010
00000100
,
00000000
00000000
00000000
00000000
00001000
00000000
00000000
00000001
00000000
00000100
00000000
00000000
00000010
00000000
00001000
00000001
,
00000000
00000000
00000100
00000000
00000010
00000000
00000000
00001000
00000000
00000100
00000000
00000000
00000010
00000000
00000001
00001000
,
00000000
00000000
00000000
00000000
00000010
00000000
00000000
00001000
00000000
00000001
00000000
00000000
00000100
00000000
00000010
00001000
,
00000000
00000100
00000010
00000000
00002002
00000000
00000000
00003003
,
00001001
00000000
00001000
00000001
00000000
00000001
00000100
00000000
00000010
00000000
00001000
00000000
00000100
00000000
00000000
00000000
,
00010000
00000000
00010000
00001000
00000000
00001000
01000000
00000000
00010000
00000000
10000000
00000000
00100000
00000000
00000000
00000000
,
10000000
00000000
10000000
00010000
00000000
00010000
00100000
00000000
01000000
00000000
10000000
00000000
00010000
00000000
00000000
00000000
,
01100000
00000000
00000000
00000000
01100000
00000000
00000000
00000000
00010000
10000000
00000000
00010000
10000000
00000000
00010000
10000000
,
00010000
00000000
10000000
00100000
00000000
00100000
10000000
00000000
00010000
00000000
01000000
00000000
00100000
00000000
01000000
00000000
,
00010000
00000000
00100000
00001000
00000000
00001000
00010000
00000000
00000010
00000000
00001000
00000000
00000010
00000000
00000100
00000000
,
00000001
00000000
00000010
00000100
00000000
00000100
00001000
00000000
00000001
00000000
00001000
00000000
00000010
00000000
00001000
00000000
,
00000100
00000000
00010000
00001000
00000000
00001000
01000000
00000000
00010000
00000000
00100000
00000000
01000000
00000000
10000000
00000000
,
01000000
00000000
10000000
00010000
00000000
00010000
01000000
00000000
00100000
00000000
01000000
00000000
00001000
00000000
00100000
00000000
,
00001000
00000000
00010000
00000100
00000000
00000100
00001000
00000000
00000010
00000000
00000100
00000000
00000001
00000000
00001000
00000000
,
00000100
00000000
00000010
00000001
00000000
00000001
00000100
00000000
00000001
00000000
00000010
00000000
00000100
00000000
00001000
00000000
,
00000010
00000000
00000100
00000001
00000000
00000001
00001000
00000000
00000100
00000000
00000010
00000000
00000001
00000000
00000010
00000000
,
00000100
00000000
00001000
00000000
00000001
00000000
00000100
00000000
00000010
00001000
00000000
00000100
00000000
00001000
00000010
00000000
,
00001000
00000000
00000100
00000000
00010000
00000000
00001000
00000000
01000000
00010000
01000000
00010000
01000000
00000000
00100000
00000000
,
10000000
00000000
01000000
00000000
00100000
00000000
00010000
00000000
10000000
01000000
00000000
00100000
00000000
01000000
10000000
00000000
,
00010000
00000000
01000000
00000000
00100000
00000000
01000000
00000000
00010000
00100000
00000000
00001000
00000000
00100000
00010000
00000000
,
01000000
00000000
00001000
00000000
00010000
00000000
00000010
00000000
00001000
00000001
00000000
00000100
00000000
00000001
00001000
00000000
,
00000100
00000000
00001000
00000000
00000001
00000000
00000010
00000000
00000100
00010000
00000100
00010000
00000100
00000000
00010000
00000000
,
00001000
00000000
01000000
00000000
00010000
00000000
10000000
00000000
00100000
01000000
00000000
00010000
00000000
01000000
00100000
00000000
,
10000000
00000000
01000000
00000000
00100000
00000000
00010000
00000000
10000000
00010000
00000000
01000000
00000000
00010000
10000000
00000000
,
01100000
00000000
00000000
10010000
00000000
00000000
01100000
00000000
00000000
00000000
00000000
00000000
00000000
00000000
00000000
00000000
,
01000000
00000000
00000000
01000000
00100000
00000000
00000000
00000000
00000000
00000000
10010000
00000000
10010000
00000000
00000000
00000000
,
01010000
00000000
00000000
11000000
00000000
00000000
10010000
00000000
00000000
00000000
00000000
00000000
00000000
00000000
00000000
00000000
,
01100000
00000000
01100000
00000000
00000000
01010000
01010000
00000000
,
00011000
00000000
00000000
00010100
00000000
00000000
00011000
00000000
00000000
00000000
00000000
00000000
00000000
00000000
00000000
00000000
,
00000110
00000000
00000000
00000100
00000010
00000000
00001001
00000000
00000000
00000100
00000010
00000000
00000010
00000100
00000000
00000000
,
00001001
00000000
00000000
00000110
00000000
00000000
00001001
00000000
00000000
00000000
00000000
00000000
00000000
00000000
00000000
00000000
,
00001001
00000000
00000000
00000100
00000010
00000000
00000000
00000000
00000000
00000000
00001001
00000000
00000100
00000010
00000000
00000010
,
00000200
00000000
00000000
00000010
00000000
00000000
00000010
00000000
00000000
00000000
00000000
00000000
00000000
00000000
00000000
00000000
,
00000000
00000000
00000000
00000300
,
00000001
00000000
00000100
00000000
00001000
00000000
00010000
00000000
00000010
00001000
00000000
00000001
00000000
00000100
00000010
00000000
,
00001000
00000000
00000100
00000000
00010000
00000000
00001000
00000000
00100000
00010000
00000000
10000000
00000000
01000000
10000000
00000000
,
00010000
00000000
01000000
00000000
10000000
00000000
01000000
00000000
00100000
10000000
00000000
00010000
00000000
01000000
00100000
00000000
,
01000000
00000000
00010000
00000000
10000000
00000000
01000000
00000000
00100000
00010000
00000000
10000000
00000000
00010000
01000000
00000000
,
00001000
00000000
00010000
00000000
00000100
00000000
00001000
00000000
00000001
00001000
00000000
00000010
00000000
00000100
00000001
00000000
,
00001000
00000000
00000100
00000000
00000010
00000000
00000001
00000000
00001000
00000010
00000000
00000100
00000000
00000001
00001000
00000000
,
00000100
00000000
00001000
00000000
00000001
00000000
00000010
00000000
00000100
00010000
00000000
00001000
00000000
00100000
00010000
00000000
,
10000000
00000000
01000000
00000000
10000000
00000000
00100000
00000000
01000000
00010000
00000000
00100000
00000000
00001000
00010000
00000000
,
01000000
00000000
00000000
00000000
;

//--------------- dance-double - forcednature ----------------
#NOTES:
     dance-double:
     forcednature:
     Challenge:
     14:
     0,0,0,0,0:
00000000
00000000
00000000
00000000
,
00000000
00000000
00000000
00000000
,
00000000
00000000
00000000
00000000
,
00000000
00000000
00000000
00000000
,
00000000
00000000
00000000
00000000
,
00000000
00000000
00000000
00000000
,
00011000
00000100
00000001
00001000
,
00000100
00000000
00010000
00000000
00100000
00000000
10000000
00010000
,
01000000
00001000
00010000
00000100
,
00022000
00000000
00000000
00000000
00000000
00000000
00033000
00000000
00001000
00001000
00000000
00010000
00010000
00000000
00001000
00001000
,
00010000
00000000
00000000
00000000
01000000
00000000
00000000
10000000
00000000
00010000
00000000
00000000
01000000
00000000
00100000
10000000
,
00000000
00000000
00010000
00000000
00100000
00000000
00000000
00001000
00000000
01000000
00000000
00000000
00010000
00000000
00100000
00001000
,
00000000
00000000
00000000
00000000
00010000
00000000
00000000
00000010
00000000
00001000
00000000
00000000
00000001
00000000
00000100
00000010
,
00000000
00000000
00000000
00000000
00001000
00000000
00000100
00000000
00000000
00000010
00000000
00000000
00000001
00000000
00001000
00000001
,
00000000
00000000
00000000
00000000
00000100
00000000
00000000
00000001
00000000
00001000
00000000
00000000
00000010
00000000
00010000
00000100
,
00000000
00000000
00100000
00000000
00010000
00000000
00000000
01000000
00000000
00100000
00000000
00000000
10000000
00000000
00010000
01000000
,
00000000
00000000
00000000
00000000
00001000
00000000
00000000
00010000
00000000
00000100
00000000
00000000
00001000
00000000
00000001
00000100
,
00000000
00000010
00001000
00000000
00002002
00000000
00000000
00003003
,
00000001
00000000
00001000
00000100
00000000
00001000
00000010
00000000
00010000
00001000
00010000
00000000
00001000
01000000
00000000
00010000
,
10000000
00000000
01000000
00100000
00000000
01000000
10000000
00000000
00010000
00100000
00010000
00000000
01000000
00001000
00000000
00010000
,
00000010
00000000
00001000
00000100
00000000
00000010
00000001
00000000
00000100
00000010
00000100
00000000
00000001
00001000
00000000
00000100
,
00001000
00000000
00000010
00010000
00000000
00001000
00100000
00000000
00010000
10000000
00010000
00000000
01000000
00001000
00000000
00100000
,
01000000
00000000
10000000
00010000
00000000
01000000
00001000
00000000
00010000
00000100
00010000
00000000
00000010
00001000
00000000
00000001
,
00000010
00000000
00000100
00010000
00000000
00001000
00100000
00000000
00010000
10000000
00010000
00000000
01000000
00001000
00000000
00010000
,
00000010
00000000
00001000
00000100
00000000
00000010
00000001
00000000
00000100
00000010
00000100
00000000
00000001
00000010
00000000
00000100
,
00001000
00000000
00000001
00001000
00000000
00000010
00010000
00000000
00001000
00100000
00001000
00000000
10000000
00100000
00000000
10000000
,
00010000
00000000
10000000
01000000
00000000
00100000
01000000
00000000
10000000
00010000
10000000
00000000
00010000
01000000
00000000
00001000
,
00010000
00000000
00000100
00010000
00000000
00001000
00100000
00000000
00001000
00010000
00001000
00000000
00010000
00000010
00000000
00001000
,
00000001
00000000
00000100
00000010
00000000
00001000
00000100
00000000
00000010
00000001
00000010
00000000
00000001
00000100
00000000
00000010
,
00001000
00000000
00000100
00010000
00000000
00001000
00100000
00000000
00010000
10000000
00010000
00000000
10000000
01000000
00000000
00100000
,
00010000
00000000
01000000
00000000
00001000
00010000
00001000
00000000
00010000
00000100
00010000
00000100
00000000
00000010
00000001
00000000
,
00000100
00000000
00000010
00000000
00001000
00000001
00001000
00000000
00000100
00010000
00001000
00100000
00001000
00000000
00010000
00000000
,
00001000
00000000
00010000
00000000
00000100
00001000
00000100
00000000
00000010
00000001
00000010
00000001
00000000
00001000
00000001
00000000
,
00001000
00000000
00000010
00000000
00000100
00000001
00000100
00000000
00000010
00001000
00000010
00001000
00000000
00000100
00010000
00001000
,
01000000
00000000
00010000
00000000
10000000
00010000
10000000
00000000
00010000
01000000
00010000
01000000
00000000
00010000
10000000
00000000
,
01000000
00000000
10000000
00000000
00010000
01000000
00010000
00000000
00100000
00001000
00010000
00000100
00010000
00000000
00001000
00000000
,
00010000
00000000
00001000
00000000
00100000
00010000
00100000
00000000
00001000
01000000
00001000
01000000
00000000
00010000
10000000
00000000
,
01000000
00000000
00100000
00000000
01000000
10000000
01000000
00000000
00100000
00010000
00100000
00010000
00000000
01000000
00001000
01000000
,
00002000
00000000
00000000
00000000
00000000
00003000
00000000
00000000
00000000
00000000
00000000
00000000
00022000
00000000
00000000
00000000
00000000
00033000
00000000
00000000
00000000
00000000
00000000
00000000
00020200
00000000
00000000
00000000
00000000
00030300
00000000
00000000
00000000
00000000
00000000
00000000
00000000
00000000
00000000
00000000
00000000
00000000
00000000
00000000
00000000
00000000
00000000
00000000
00000000
00000000
00000000
00000000
00000000
00000000
00000000
00000000
00000000
00000000
00000000
00000000
00000000
00000000
00000000
00000000
,
00001000
00000000
00000000
00001000
00001000
00000000
00000001
00000000
00000000
00000010
00000010
00000000
00000100
00000100
00000000
00001000
,
00002000
00000000
00000000
00000000
00000000
00003000
00000000
00000000
00000000
00000000
00000000
00000000
00002002
00000000
00000000
00000000
00000000
00003003
00000000
00000000
00000000
00000000
00000000
00000000
00002200
00000000
00000000
00000000
00000000
00003300
00000000
00000000
00000000
00000000
00000000
00000000
00000000
00000000
00000000
00000000
00000000
00000000
00000000
00000000
00000000
00000000
00000000
00000000
00000000
00000000
00000000
00000000
00000000
00000000
00000000
00000000
00000000
00000000
00000000
00000000
00000000
00000000
00000000
00000000
,
00001000
00000000
00000000
00001000
00001000
00000000
00100000
00000000
00000000
00010000
00010000
00000000
10000000
10000000
00000000
00100000
,
00200000
00000000
00000000
00000000
00000000
00300000
00000000
00000000
00000000
00000000
00000000
00000000
02020000
00000000
00000000
00000000
00000000
03030000
00000000
00000000
00000000
00000000
00000000
00000000
20020000
00000000
00000000
00000000
00000000
30030000
00000000
00000000
00000000
00000000
00000000
00000000
00000000
00000000
00000000
00000000
00000000
00000000
00000000
00000000
00000000
00000000
00000000
00000000
00000000
00000000
00000000
00000000
00000000
00000000
00000000
00000000
00000000
00000000
00000000
00000000
00000000
00000000
00000000
00000000
,
00020000
00000000
00030000
00000000
00000000
00000000
00000000
00000000
00000000
00020000
00000000
00030000
00010000
00000000
00000000
00000000
00000000
00000000
00200000
00000000
00300000
00000000
00000000
00000000
00000000
00000000
00000000
00001000
00000000
00000000
00001000
00000000
00000000
00000000
00000000
00000000
00000010
00000000
00000000
00000010
00000000
00000000
00000000
00000000
00000000
00000001
00000000
00000000
,
00000002
00000000
00000000
00000000
00000000
00000003
00000000
00000000
00000000
00000000
00000000
00000000
00000220
00000000
00000000
00000000
00000000
00000330
00000000
00000000
00000000
00000000
00000000
00000000
00002002
00000000
00000000
00000000
00000000
00003003
00000000
00000000
00000000
00000000
00000000
00000000
00000000
00000000
00000000
00000000
00000000
00000000
00000000
00000000
00000000
00000000
00000000
00000000
00000000
00000000
00000000
00000000
00000000
00000000
00000000
00000000
00000000
00000000
00000000
00000000
00000000
00000000
00000000
00000000
,
00000002
00000000
00000003
00000000
00000000
00000000
00000000
00000000
00000000
00000002
00000000
00000003
00000001
00000000
00000000
00000000
00000000
00000000
00001000
00000000
00000000
00001000
00000000
00000000
00000000
00000000
00000000
00000100
00000000
00000000
00000100
00000000
00000000
00000000
00000000
00000000
00010000
00000000
00000000
00010000
00000000
00000000
00000000
00000000
00000000
00100000
00000000
00000000
,
00200000
00000000
00000000
00000000
00000000
00300000
00000000
00000000
00000000
00000000
00000000
00000000
00200000
00000000
00000000
00000000
00000000
00300000
00000000
00000000
00000000
00000000
00000000
00000000
02000000
00000000
00000000
00000000
00000000
00000000
00000000
00000000
00000000
00000000
00000000
00000000
00000000
00000000
00000000
00000000
00000000
00000000
00000000
00000000
00000000
00000000
00000000
00000000
00000000
00000000
00000000
00000000
00000000
00000000
00000000
00000000
00000000
00000000
00000000
00000000
00000000
00000000
00000000
00000000
,
00000000
00000000
00000000
00000000
00000000
00000000
00000000
03000000
,
00001000
00000000
00010000
00000000
00000100
00001000
00000100
00000000
00001000
00000001
00001000
00000001
00000000
00000100
00000010
00000000
,
00001000
00000000
00000001
00000000
00000100
00000001
00000100
00000000
00000010
00001000
00000010
00001000
00000000
00000100
00010000
00000100
,
00010000
00000000
00001000
00000000
01000000
00010000
01000000
00000000
00010000
10000000
00010000
10000000
00000000
01000000
00100000
00000000
,
01000000
00000000
10000000
00000000
00010000
00100000
00010000
00000000
01000000
00001000
01000000
00001000
00000000
00010000
00000010
00010000
,
00000010
00000000
00001000
00000000
00000001
00000010
00000001
00000000
00000100
00000010
00000100
00000010
00000000
00001000
00000001
00000000
,
00001000
00000000
00000100
00000000
00010000
00001000
00010000
00000000
00001000
00100000
00001000
00100000
00000000
00010000
10000000
00010000
,
10000000
00000000
00100000
00000000
01000000
00010000
01000000
00000000
00100000
10000000
00100000
10000000
00000000
00010000
00100000
00000000
,
01000000
00000000
10000000
00000000
00010000
00100000
00010000
00000000
01000000
00001000
01000000
00001000
00000000
00010000
00000010
00010000
,
00000010
00000000
00000000
00000000
;
