#TITLE:TECHNO Style Essentials;
#SUBTITLE:;
#ARTIST:SETUP from Berlin;
#TITLETRANSLIT:;
#SUBTITLETRANSLIT:;
#ARTISTTRANSLIT:;
#GENRE:;
#CREDIT:;
#BANNER:banner.png;
#BACKGROUND:background.png;
#LYRICSPATH:;
#CDTITLE:;
#MUSIC:TECHNO Style Essentials.ogg;
#OFFSET:-1.200000;
#SAMPLESTART:19.701464;
#SAMPLELENGTH:12.467535;
#SELECTABLE:YES;
#BPMS:0.000000=154.000000
;
#STOPS:43.500000=1.169000
;
#BGCHANGES:;
#KEYSOUNDS:;
#ATTACKS:;

//---------------dance-single - ----------------
#NOTES:
     dance-single:
     :
     Hard:
     12:
     0.445723,0.569602,0.246544,0.110520,0.208287,367.000000,338.000000,29.000000,13.000000,0.000000,0.000000,0.445723,0.569602,0.246544,0.110520,0.208287,367.000000,338.000000,29.000000,13.000000,0.000000,0.000000:
0000
0000
0000
0000
,
0000
0000
0000
0000
,
0000
0000
0000
0000
,
0000
0000
0000
0000
,
0100
0001
0010
0010
,
0001
1000
0001
0001
,
1000
0010
0100
0100
,
0010
1000
0010
1001
,
0001
0100
0010
0010
,
1000
0100
0010
0010
,
0100
1000
0001
0001
,
0000
0000
0010
0000
0000
0100
0000
0000
1000
0000
0001
0000
0000
0000
0100
0000
,
0010
0000
1000
0000
0000
0100
0000
0000
0010
0000
0100
0000
0000
0000
1000
0000
,
0001
0000
0100
0000
0000
0001
0000
0000
0010
0000
0100
0000
0000
0000
0010
0000
,
0001
0000
1000
0000
0000
0001
0000
0000
0100
0000
0001
0000
0000
0000
1000
0000
,
0001
0000
0100
0000
0000
0001
0000
0000
0010
0000
0100
0000
0000
0000
0010
0000
,
0001
0000
1000
0000
0000
0100
0000
0000
1000
0000
0001
0000
0000
0000
0100
0000
,
0001
0000
0010
0000
0000
0001
0000
0000
1000
0000
0010
0000
0000
0000
0100
0000
,
0010
0000
1000
0000
0100
0010
0000
0000
0010
0001
0000
0000
0001
0010
0000
0000
,
0010
0100
0000
0000
1001
0000
0000
0000
1000
0000
0000
0000
0101
0000
0000
0000
,
0010
1100
0001
0110
,
1000
1100
0010
0101
,
0010
1001
1000
0011
,
0001
1000
0000
0100
1000
0010
0000
0100
,
0001
0010
0000
0100
1000
0010
0000
0100
,
0001
0000
0010
0000
0000
0100
0000
0000
1000
0000
0001
0000
0000
0000
0100
0000
,
0010
0000
1000
0000
0000
0001
0000
0000
0220
0000
0000
0000
0000
0000
0000
0000
,
0000
0330
1001
0000
0001
0000
1000
0100
,
1000
0000
1001
0000
1000
0000
0001
0010
,
0001
1001
0010
1001
,
0010
0000
1001
0000
0010
0000
0100
0001
,
0100
1000
0000
0100
0010
1000
0000
0010
,
1000
0001
0000
0010
0100
1000
0000
0100
,
1000
0001
0000
0001
0000
0001
0000
0001
,
0001
1000
0001
0000
0000
0000
0000
0000
0000
0000
0100
0010
0100
0000
0010
0000
,
0000
2000
0000
0000
,
0000
3200
0000
0000
,
1300
0002
0000
0000
0000
0000
0000
0000
,
0000
0000
0000
0000
0000
0100
0100
0000
,
0100
0103
0021
0000
0000
0000
0000
0000
,
0000
0230
0000
0000
,
0310
0002
0000
0000
0000
0000
0000
0000
,
0000
0000
1000
0000
0100
0100
0100
0000
,
1003
0000
0100
0000
0010
0000
0100
0000
1000
0000
0000
0001
0000
0001
0000
0001
,
0000
0000
0100
0000
0010
0000
1000
0000
0001
0000
0000
0010
0000
0010
0000
0010
,
0000
0000
0100
0000
0010
0000
0001
0000
1000
0000
0000
0010
0000
0010
0000
0010
,
0000
0000
0100
0000
0001
0000
1000
0000
0100
0000
0000
1000
0000
1000
0000
1000
,
0000
0000
0001
0000
0100
0000
0010
0000
1000
0000
0000
0001
0000
0001
0000
0001
,
0000
0000
0010
0000
0001
0000
0100
0000
0010
0000
0000
1000
0000
1000
0000
1000
,
0000
0000
0100
0000
0010
0000
0100
0000
1000
0000
0000
0001
0000
0001
0000
0001
,
0000
0000
1000
0000
0020
0000
0000
0000
0130
0010
0100
0010
1000
0000
1000
0000
,
0001
0100
0001
0000
1000
0000
1000
0000
0001
0000
1000
0000
1000
0000
0001
0000
,
1000
1000
1001
0000
0001
0100
0010
1000
,
0100
0010
0100
0100
1000
0100
0100
1000
,
0100
0000
0010
0000
0011
0000
0000
0000
0010
0000
0100
0000
1000
0000
0001
1000
,
0001
1000
0010
0000
0100
0000
0100
0000
0001
0000
0100
0000
0100
0000
0001
0000
,
0100
0001
0011
0000
0010
0001
1000
0010
,
1000
0001
1000
1000
0010
1000
1000
0010
,
0100
0001
0022
0000
0000
0000
0000
0000
,
0033
0000
1001
0000
0000
1000
0000
0000
1000
0000
1010
0000
0000
0000
0001
0000
,
0010
0000
0110
0000
0000
0100
0000
0000
0100
0000
0110
0000
0000
0000
0100
0000
,
1000
0000
1001
0000
0000
0001
0000
0000
0001
0000
1001
0000
0000
0000
0010
0000
,
0100
0000
0101
0000
0000
0001
0000
0000
0001
0000
0011
0000
0000
0010
0000
0000
,
0100
1000
0000
0001
0100
1000
0000
0100
,
0010
1000
0000
1000
0010
0001
0000
0001
,
0010
0000
0100
0000
0000
0000
0010
0000
1000
0000
0001
0000
0000
0000
1000
0001
,
1000
0001
1000
0000
0000
0010
0000
0000
2002
0000
0000
0000
0000
0000
0000
0000
,
3003
0000
0000
0000
;

//---------------dance-single - ----------------
#NOTES:
     dance-single:
     :
     Medium:
     8:
     0.363136,0.424013,0.306055,0.306055,0.025505,299.000000,263.000000,36.000000,36.000000,0.000000,0.000000,0.363136,0.424013,0.306055,0.306055,0.025505,299.000000,263.000000,36.000000,36.000000,0.000000,0.000000:
0000
0000
0000
0000
,
0000
0000
0000
0000
,
0000
0000
0000
0000
,
0000
0000
0000
0000
,
1000
0001
0010
0010
,
0001
1000
0100
0100
,
1000
0010
0100
0100
,
0010
0100
0001
1001
,
1000
0001
0010
0100
,
0010
0001
1000
0100
,
1000
0000
0010
0000
0100
0000
0010
1000
,
0000
0000
0001
1000
0010
0000
1000
0000
,
1001
0000
0001
0010
0100
0000
1000
0000
,
1100
0000
0100
1000
0010
0000
0100
0000
,
0101
0000
0001
0010
0100
0000
0010
0000
,
0011
0000
0001
1000
0100
0000
1000
0000
,
1010
0000
1000
0010
0100
0000
0001
0000
,
0011
0000
0010
0100
1000
0000
0100
0000
,
1100
2000
3100
0020
,
0031
1001
0010
1001
,
0010
1001
0010
1001
,
0010
1001
0100
1001
,
0100
1001
0100
1001
,
0100
0010
0000
1000
0001
1000
0000
0001
,
0100
0010
0000
1000
0010
1000
0000
0010
,
0100
0000
0001
0000
0000
0010
0000
0000
0100
0000
0010
0000
0000
0000
0100
0000
,
1000
0002
0000
0000
0000
0000
0000
0000
,
0003
0000
1020
0000
0130
0000
0001
0010
,
0100
0000
1200
0000
0310
0000
0100
1000
,
0001
2001
3010
1002
,
0013
0000
0102
0000
0013
0000
0100
1000
,
0001
0100
0000
0010
1000
0010
0000
0100
,
0001
0010
0000
0100
0010
0100
0000
0010
,
0001
0100
0000
0010
0000
0010
0000
0010
,
0010
0010
0000
0000
0000
0100
0010
1000
,
0000
0102
0000
0000
,
0000
0010
0000
0000
,
1000
2000
0000
0000
0000
0000
0000
0000
,
0000
0000
0000
0003
,
0000
3000
1020
0000
0000
0000
0000
0000
,
0000
1000
0000
0000
,
0100
0200
0000
0000
0000
0000
0000
0000
,
0000
0000
0330
0000
0100
0010
1000
1000
,
0001
0000
2000
0000
0000
3200
0000
1300
,
0010
0200
0000
0000
0000
0000
0000
0000
,
0310
0100
0002
0000
2003
0000
0000
3100
,
1000
0001
0100
0002
0000
0000
0000
0000
,
0003
0000
0100
0010
2000
0000
3200
0000
,
0320
0000
0130
2000
0000
0000
0000
0000
,
3001
0100
0002
0000
1003
0200
0000
0310
,
0200
0000
0000
0020
0000
0000
0000
0000
,
0330
0012
0103
1020
,
0130
0000
1001
0000
0001
1000
0010
0000
,
1000
1200
0310
0021
,
0130
0000
1001
0000
0001
0100
1000
0100
,
0001
1020
0130
0021
,
0130
0000
1001
0000
1000
0010
0001
0010
,
1000
1020
0031
0201
,
1300
2002
0000
0000
,
3003
0000
1000
0000
0000
0001
0000
0000
0100
0000
0001
0000
0000
0000
1000
0000
,
0001
0000
0100
0000
0000
0001
0000
0000
0010
0000
0100
0000
0000
0000
0010
0000
,
0001
0000
1000
0000
0000
0100
0000
0000
1000
0000
0010
0000
0000
0000
0100
0000
,
0001
0000
1000
0000
0000
0100
0000
0000
1000
0000
0001
0000
0000
0000
0100
0000
,
0001
0010
0000
0100
1000
0010
0000
0100
,
0001
1000
0000
0010
1000
0100
0000
1000
,
0001
0100
0000
0010
0000
0100
0000
0010
,
1000
0000
0001
0000
0000
1000
0000
0000
0110
0000
0000
0000
0000
0000
0000
0000
;

//---------------dance-single - ----------------
#NOTES:
     dance-single:
     :
     Easy:
     5:
     0.171245,0.282676,0.127523,0.102018,0.000000,141.000000,126.000000,15.000000,12.000000,0.000000,0.000000,0.171245,0.282676,0.127523,0.102018,0.000000,141.000000,126.000000,15.000000,12.000000,0.000000,0.000000:
0000
0000
0000
0000
,
0000
0000
0000
0000
,
0000
0000
0000
0000
,
0000
0000
0000
0000
,
1000
0000
0000
0000
,
0001
0000
0000
0000
,
1000
0000
0000
0000
,
0001
0000
0000
0110
,
1000
0000
0000
0000
,
0001
0000
0000
0000
,
1000
0000
0000
0000
,
0000
0000
0010
0000
,
1000
0000
0100
0000
,
1000
0000
0010
0000
,
0100
0000
0001
0000
,
0010
0000
0100
0000
,
0010
0000
0001
0000
,
1000
0000
0010
0000
,
1000
0002
0000
0000
,
0003
0100
0000
0010
,
0000
1000
0000
0100
,
0000
0001
0000
0100
,
0000
0010
0000
0001
,
0000
1000
0000
0000
0000
0010
0000
0000
,
0000
0100
0000
0000
0000
0001
0000
0000
,
0000
1000
0000
0000
0000
0010
0000
0000
,
0000
0200
0000
0000
0000
0000
0000
0000
,
0300
1001
0000
0010
,
0000
1001
0000
0010
,
0000
1001
0000
1001
,
0000
1001
0000
0010
,
0000
1001
0000
0000
0000
1001
0000
0000
,
0000
1001
0000
0000
0000
1001
0000
0000
,
0000
0001
0000
1000
0000
0001
0000
1000
,
0001
1000
0000
0000
0000
0000
0010
0000
,
0000
0200
0000
0000
,
0300
0020
0000
0030
,
1000
0002
0000
0000
0000
0000
0000
0000
,
0000
0000
0000
1003
,
0000
2000
0000
0000
,
3000
0020
0000
0030
,
0100
0002
0000
0000
0000
0000
0000
0000
,
0000
0000
0013
0000
0001
1000
0001
0000
,
0000
0000
1000
0000
0000
0001
0000
0000
,
0100
0020
0000
0000
,
0000
0000
0130
0000
0000
0001
0000
0000
,
0010
0200
0000
0000
,
0000
1300
0001
0100
,
0010
2000
0000
0000
,
3001
0000
1000
0000
0000
0100
0000
0000
,
0010
0000
0000
0200
0000
0000
0000
0000
,
0300
1000
1000
1000
,
1000
1001
0000
0001
,
0000
0100
0100
0100
,
0100
0110
0000
0000
,
0000
1000
1000
1000
,
1000
1001
0000
0100
,
0000
0001
0001
0001
,
0001
0110
0000
0000
,
0000
0010
0000
0100
,
0000
0001
0000
0010
,
0000
0001
0000
1000
,
0000
0010
0000
0100
,
0000
0001
0000
0000
0000
1000
0000
0000
,
0000
0010
0000
0000
0000
0100
0000
0000
,
0000
0001
0000
0000
0000
0100
0000
0000
,
0000
0010
0000
0000
1001
0000
0000
0000
;

//---------------dance-single - ----------------
#NOTES:
     dance-single:
     :
     Beginner:
     3:
     0.095946,0.195641,0.034006,0.051009,0.000000,79.000000,75.000000,4.000000,6.000000,0.000000,0.000000,0.095946,0.195641,0.034006,0.051009,0.000000,79.000000,75.000000,4.000000,6.000000,0.000000,0.000000:
// measure 0
0000
0000
0000
0000
,  // measure 1
0000
0000
0000
0000
,  // measure 2
0000
0000
0000
0000
,  // measure 3
0000
0000
0000
0000
,  // measure 4
1000
0000
0000
0000
,  // measure 5
0001
0000
0000
0000
,  // measure 6
1000
0000
0000
0000
,  // measure 7
0010
0000
0000
0000
,  // measure 8
0100
0000
0000
0000
,  // measure 9
0010
0000
0000
0000
,  // measure 10
1000
0000
0000
0000
,  // measure 11
0000
0001
0000
0000
,  // measure 12
0000
1000
0000
0000
,  // measure 13
0000
0010
0000
0000
,  // measure 14
0000
0100
0000
0000
,  // measure 15
0000
0001
0000
0000
,  // measure 16
0000
0010
0000
0000
,  // measure 17
0000
0100
0000
0000
,  // measure 18
0000
1000
0000
0000
,  // measure 19
0000
0001
0000
0001
,  // measure 20
0000
0001
0000
0001
,  // measure 21
0000
1000
0000
1000
,  // measure 22
0000
1000
0000
1000
,  // measure 23
0000
0010
0000
0010
,  // measure 24
0000
0010
0000
0010
,  // measure 25
0000
0100
0000
0100
,  // measure 26
0000
0010
0000
0000
,  // measure 27
0000
1000
0000
0000
,  // measure 28
0000
0001
0000
0000
,  // measure 29
0000
0100
0000
0100
,  // measure 30
0000
0100
0000
0000
,  // measure 31
0000
0001
0000
0000
0000
0001
0000
0000
,  // measure 32
0000
1000
0000
0000
0000
1000
0000
0000
,  // measure 33
0000
0010
0000
0010
0000
0100
0000
0010
,  // measure 34
0000
1000
0000
0000
0000
0000
0001
0000
,  // measure 35
0000
0200
0000
0000
,  // measure 36
0000
0000
0000
0000
,  // measure 37
0000
0000
0000
0000
,  // measure 38
0000
0000
0000
0000
,  // measure 39
0300
0020
0000
0000
,  // measure 40
0000
0000
0000
0000
,  // measure 41
0000
0000
0000
0000
,  // measure 42
0000
0000
0000
0000
,  // measure 43
0030
2000
0000
0000
,  // measure 44
0000
0000
0000
0000
,  // measure 45
3000
0002
0000
0000
,  // measure 46
0000
0000
0000
0000
,  // measure 47
0003
0200
0000
0000
,  // measure 48
0000
0000
0000
0000
,  // measure 49
0300
0020
0000
0000
,  // measure 50
0000
0000
0000
0000
,  // measure 51
0030
1000
0000
1000
,  // measure 52
0000
1001
0000
0000
,  // measure 53
0000
0001
0000
0001
,  // measure 54
0000
1001
0000
0000
,  // measure 55
0010
1000
0000
1000
,  // measure 56
0000
1001
0000
0010
,  // measure 57
0000
0001
0000
0001
,  // measure 58
0000
1001
0000
0000
,  // measure 59
0000
0010
0000
0000
,  // measure 60
0000
1000
0000
0000
,  // measure 61
0000
0001
0000
0000
,  // measure 62
0000
0010
0000
0000
,  // measure 63
0000
0100
0000
0010
,  // measure 64
0000
0001
0000
1000
,  // measure 65
0000
0010
0000
0100
;
