#TITLE:Shiva;
#SUBTITLE:;
#ARTIST:Relect;
#TITLETRANSLIT:;
#SUBTITLETRANSLIT:;
#ARTISTTRANSLIT:;
#GENRE:;
#CREDIT:;
#BANNER:Shiva.png;
#BACKGROUND:Shiva-bg.png;
#LYRICSPATH:;
#CDTITLE:;
#MUSIC:Shiva.ogg;
#OFFSET:-0.204000;
#SAMPLESTART:65.804001;
#SAMPLELENGTH:15.000000;
#SELECTABLE:YES;
#BPMS:0.000000=150.000000
,132.000000=75.000000
,148.000000=150.000000
;
#STOPS:
;
#BGCHANGES:;
#KEYSOUNDS:;
#ATTACKS:;

//---------------dance-single - ----------------
#NOTES:
     dance-single:
     :
     Hard:
     18:
     0.834413,0.962215,0.252384,0.405617,1.126715,648.000000,620.000000,28.000000,45.000000,0.000000,0.000000,0.834413,0.962215,0.252384,0.405617,1.126715,648.000000,620.000000,28.000000,45.000000,0.000000,0.000000:
// measure 0
0000
0000
0000
0000
,  // measure 1
0000
0000
0000
0000
,  // measure 2
0000
0000
0000
0000
,  // measure 3
0000
0000
0000
0000
,  // measure 4
0000
0000
0000
0000
,  // measure 5
2000
0100
3200
0010
0320
0001
0032
0100
,  // measure 6
0203
0010
0320
1000
2030
0010
3020
0130
,  // measure 7
0001
0010
0100
1000
0010
0100
0001
0100
0010
1000
0100
0010
0001
0010
0100
1000
,  // measure 8
0100
0000
0010
0001
1000
0000
0010
1000
0001
0000
0010
0000
0110
0000
0000
0000
,  // measure 9
2002
0000
3003
0000
1000
0100
1000
0100
0010
0001
1000
0010
0100
0001
0100
0001
,  // measure 10
0010
0100
1000
0001
0010
0100
0010
0100
1000
0010
0100
0001
0010
0100
0010
0001
,  // measure 11
1000
0010
0100
0001
1000
0010
1000
0010
0100
0001
1000
0100
0010
0001
0010
0001
,  // measure 12
0100
0010
1000
0001
0010
0100
0010
0100
1000
0001
0100
0010
1000
0000
0000
0000
,  // measure 13
2002
0000
3003
0000
0001
0100
0001
0100
0010
1000
0001
1000
0100
0010
0100
0010
,  // measure 14
0001
1000
0010
0100
0001
0010
0001
0010
0100
1000
0010
0100
0001
1000
0001
0100
,  // measure 15
0010
1000
0001
0010
0100
1000
0100
1000
0001
0100
0010
1000
0100
0010
0100
0010
,  // measure 16
0001
0000
0000
1000
0001
1000
0000
0001
0000
1000
0001
0000
1000
0000
0000
0000
,  // measure 17
2002
0000
3003
0000
1000
0010
1000
0010
0100
0001
1000
0001
0010
0100
0010
0100
,  // measure 18
1000
0001
0100
0010
1000
0100
1000
0100
0010
0001
0000
0001
0100
0001
1000
0010
,  // measure 19
0100
0001
1000
0100
0010
0001
0010
0001
1000
0010
0100
0001
0010
0100
0010
0100
,  // measure 20
1000
0001
0100
0010
1000
0100
1000
0100
0010
0001
0100
0010
1000
0000
0000
0000
,  // measure 21
2002
0000
3003
0000
0001
0010
0001
0010
0100
1000
0001
0100
0010
1000
0010
1000
,  // measure 22
0100
0010
0001
1000
0100
0010
0100
0010
0001
1000
0000
1000
0100
1000
0100
1000
,  // measure 23
0001
0100
0010
1000
0001
0100
0001
0100
0010
1000
0001
0010
0100
1000
0100
1000
,  // measure 24
0002
0000
0000
1003
,  // measure 25
2002
0000
0000
0000
,  // measure 26
0000
0000
0000
3000
,  // measure 27
0200
0000
0000
0003
,  // measure 28
0020
0000
0000
0300
,  // measure 29
2000
0000
0000
0000
,  // measure 30
0000
0000
0000
0030
,  // measure 31
3001
0000
0000
0000
,  // measure 32
0001
1000
0100
0010
0001
1000
0020
0030
,  // measure 33
0110
0000
0010
1000
1020
0000
1030
0100
1100
0010
0011
0000
0101
0000
0110
1000
,  // measure 34
1002
0000
1003
0100
0210
0000
0010
0000
0001
0000
1000
1000
1300
0100
0010
0000
,  // measure 35
0110
0000
0010
0001
0021
0000
0031
0100
0101
0010
1010
0000
1100
0000
0110
0001
,  // measure 36
2001
0000
3001
0100
0210
0000
0010
0000
1000
0000
0001
0001
0301
0100
0010
0000
,  // measure 37
1000
0000
0010
1000
0010
0000
0100
0000
0001
0000
0010
0001
0010
0000
0100
0000
,  // measure 38
1000
0000
0100
1000
0100
0000
0010
0000
0001
0000
0100
0001
0100
0000
0010
0000
,  // measure 39
1000
0000
0001
1000
0001
0000
0010
0000
0100
0000
1000
0001
1000
0000
0010
0000
,  // measure 40
0100
0000
0010
0100
0010
0000
0100
0000
0001
0000
0010
0100
0010
0000
0100
0000
,  // measure 41
0020
0001
0032
0100
0203
0010
0320
1000
,  // measure 42
2030
0001
3002
0010
0023
0100
0230
1300
,  // measure 43
0001
0100
0010
1000
0010
0100
0001
0010
0100
1000
0100
0010
0001
1000
0010
0100
,  // measure 44
0001
0000
0010
0001
0100
0000
0010
1000
0100
0000
0010
0000
0110
0000
0000
0000
,  // measure 45
2002
0000
0000
0000
0000
0000
3003
0000
0000
0000
0000
0000
1000
0000
0000
0100
0000
0000
1000
0000
0000
0100
0000
0000
0010
0000
0000
0001
0000
0000
1000
0000
0010
0000
0100
0000
0001
0000
0000
0010
0000
0000
0001
0000
0000
0100
0000
0000
,  // measure 46
0010
0000
0000
1000
0000
0000
0010
0000
0000
1000
0000
0000
0100
0000
0000
0010
0000
0000
0001
0000
0000
0100
0000
0000
0010
0000
0000
1000
0000
0000
0001
0000
0010
0000
0100
0000
1000
0000
0000
0010
0000
0000
1000
0000
0000
0100
0000
0000
,  // measure 47
0010
0000
0000
0001
0000
0000
0010
0000
0000
0001
0000
0000
1000
0000
0000
0010
0000
0000
0100
0000
0000
0001
0000
0000
1000
0000
0000
0010
0000
0000
0100
0000
0010
0000
1000
0000
0010
0000
0000
0100
0000
0000
0001
0000
0000
1000
0000
0000
,  // measure 48
0100
0000
0000
1000
0000
0000
0100
0000
0000
0010
0000
0000
0001
0000
0000
0100
0000
0000
1000
0000
0000
0100
0000
0000
0001
0000
0000
0010
0000
0000
0100
0000
1000
0000
0001
0000
1000
0000
0000
0000
0000
0000
0000
0000
0000
0000
0000
0000
,  // measure 49
2002
0000
0000
0000
0000
0000
3003
0000
0000
0000
0000
0000
0001
0000
0000
0100
0000
0000
0001
0000
0000
0100
0000
0000
0010
0000
0000
1000
0000
0000
0001
0000
0010
0000
0100
0000
1000
0000
0000
0010
0000
0000
1000
0000
0000
0100
0000
0000
,  // measure 50
0010
0000
0000
0001
0000
0000
0010
0000
0000
0001
0000
0000
0100
0000
0000
0010
0000
0000
1000
0000
0000
0100
0000
0000
0010
0000
0000
0001
0000
0000
1000
0000
0010
0000
0100
0000
0001
0000
0000
0010
0000
0000
0001
0000
0000
0100
0000
0000
,  // measure 51
0010
0000
0000
1000
0000
0000
0010
0000
0000
1000
0000
0000
0001
0000
0000
0010
0000
0000
0100
0000
0000
1000
0000
0000
0001
0000
0000
0010
0000
0000
0100
0000
0010
0000
0001
0000
0010
0000
0000
0100
0000
0000
1000
0000
0000
0001
0000
0000
,  // measure 52
0100
0000
0010
0100
0001
1000
0010
0000
0100
0001
1000
0100
0010
0001
1000
0000
,  // measure 53
2002
0000
0000
0000
0000
0000
3003
0000
0000
0000
0000
0000
0001
0000
0000
0010
0000
0000
0001
0000
0000
0010
0000
0000
0100
0000
0000
1000
0000
0000
0001
0000
0100
0000
0010
0000
1000
0000
0000
0100
0000
0000
1000
0000
0000
0010
0000
0000
,  // measure 54
0100
0000
0000
0001
0000
0000
0100
0000
0000
0001
0000
0000
0010
0000
0000
0100
0000
0000
1000
0000
0000
0010
0000
0000
0100
0000
0000
0001
0000
0000
1000
0000
0100
0000
0010
0000
0001
0000
0000
0100
0000
0000
0001
0000
0000
0010
0000
0000
,  // measure 55
0100
0000
0000
1000
0000
0000
0100
0000
0000
1000
0000
0000
0001
0000
0000
0100
0000
0000
0010
0000
0000
1000
0000
0000
0001
0000
0000
0100
0000
0000
0010
0000
0100
0000
0001
0000
0100
0000
0000
0010
0000
0000
1000
0000
0000
0001
0000
0000
,  // measure 56
0010
0000
0000
0001
0000
0000
0010
0000
0000
0100
0000
0000
1000
0000
0000
0010
0000
0000
0001
0000
0000
0010
0000
0000
1000
0000
0000
0100
0000
0000
0010
0000
0001
0000
1000
0000
0001
0000
0000
0000
0000
0000
0000
0000
0000
0000
0000
0000
,  // measure 57
1001
1000
0100
0100
1000
1000
0010
0010
,  // measure 58
0100
0100
0001
0001
1000
1000
0100
0100
,  // measure 59
0010
0001
0010
0001
1000
0010
1000
0010
0100
0001
0100
0001
1000
0100
1000
0100
,  // measure 60
0010
0000
0100
1000
0001
0000
0100
0001
1000
0000
0100
0000
0220
0000
0000
0000
,  // measure 61
0330
0000
0000
0000
;

//---------------dance-single - ----------------
#NOTES:
     dance-single:
     :
     Medium:
     13:
     0.459700,0.577329,0.135206,0.396604,0.108165,357.000000,342.000000,15.000000,44.000000,0.000000,0.000000,0.459700,0.577329,0.135206,0.396604,0.108165,357.000000,342.000000,15.000000,44.000000,0.000000,0.000000:
// measure 0
0000
0000
0000
0000
,  // measure 1
0000
0000
0000
0000
,  // measure 2
0000
0000
0000
0000
,  // measure 3
0000
0000
0000
0000
,  // measure 4
0000
0000
0000
0000
,  // measure 5
0002
0100
2003
0100
,  // measure 6
3002
0010
2003
0010
,  // measure 7
3001
0010
0100
1000
0001
0100
0010
1000
,  // measure 8
2002
0000
0000
3003
,  // measure 9
2002
3003
0001
0100
0001
0010
0001
0100
,  // measure 10
0001
0010
0100
0010
0001
0010
0100
0010
,  // measure 11
0001
1000
0010
1000
0001
1000
0010
1000
,  // measure 12
0100
0010
0100
1000
0100
0010
0100
0000
,  // measure 13
2002
3003
1000
0100
1000
0010
1000
0100
,  // measure 14
1000
0010
0100
0010
1000
0010
0100
0010
,  // measure 15
0100
0001
0010
0001
0100
0001
0010
0001
,  // measure 16
0100
0000
0000
0010
1000
0000
0000
0100
0000
0010
0001
0000
1001
0000
0000
0000
,  // measure 17
2002
3003
1000
0100
0001
0100
1000
0100
,  // measure 18
0010
0001
0100
1000
0100
0001
0100
1000
,  // measure 19
0100
0010
1000
0010
0001
0010
1000
0010
,  // measure 20
0100
0001
0010
1000
0010
0001
1000
0000
,  // measure 21
2002
3003
0001
0100
1000
0100
0001
0100
,  // measure 22
0010
1000
0100
0001
0100
1000
0100
0001
,  // measure 23
0100
0010
0001
0010
1000
0010
0001
0010
,  // measure 24
0200
0000
0000
0310
,  // measure 25
2002
0000
0000
0000
,  // measure 26
0000
0000
0000
0003
,  // measure 27
0200
0000
0000
3000
,  // measure 28
0020
0000
0000
0300
,  // measure 29
0002
0000
0000
0000
,  // measure 30
0000
0000
0000
0030
,  // measure 31
1003
0000
0000
0000
,  // measure 32
0002
0000
2003
0000
3010
0100
0010
0000
,  // measure 33
1001
0000
1000
0001
0200
0000
0310
1000
0001
0000
0001
0000
1000
0000
1000
0000
,  // measure 34
0200
0000
0310
0001
2000
0000
0000
0000
0000
0000
3001
1000
0001
0000
1000
0000
,  // measure 35
1001
0000
0001
1000
0200
0000
0310
0001
1000
0000
1000
0000
0001
0000
0001
0000
,  // measure 36
0200
0000
0310
1000
0002
0000
0000
0000
0000
0000
1000
1000
1003
0000
0001
0000
,  // measure 37
1001
0000
0001
0100
0001
0000
1000
0100
,  // measure 38
1000
0000
0001
0010
0001
0000
1000
0010
,  // measure 39
1000
0000
0010
0100
0001
0000
0010
0100
,  // measure 40
1000
0000
0001
0100
1000
0000
0001
0010
,  // measure 41
2000
0100
3002
0100
,  // measure 42
2003
0010
3002
0010
,  // measure 43
1003
0100
0010
0001
1000
0010
0100
0001
,  // measure 44
2002
0000
0000
3003
,  // measure 45
2002
0000
3003
0000
0001
0000
0001
0000
0010
0000
0100
0000
1000
0100
1000
0000
,  // measure 46
0100
0000
0000
0000
0010
0000
0001
0000
1000
0000
0001
0000
0100
0001
0100
0000
,  // measure 47
0010
0000
0000
0000
1000
0000
0010
0000
0100
0000
0001
0000
0010
0001
0010
0000
,  // measure 48
0100
0000
0000
0000
1000
0000
0001
0000
0100
0010
0100
0000
0020
0000
0030
0000
,  // measure 49
2002
0000
3003
0000
1000
0000
1000
0000
0010
0000
0100
0000
0001
0100
0001
0000
,  // measure 50
0100
0000
0000
0000
0010
0000
1000
0000
0001
0000
0010
0000
0100
1000
0100
0000
,  // measure 51
0010
0000
0000
0000
0001
0000
1000
0000
0010
0000
0100
0000
0001
0100
0001
0000
,  // measure 52
0100
0000
0100
0000
0010
0100
0010
0000
1000
0001
1000
0000
0001
0000
0000
0000
,  // measure 53
2002
0000
3003
0000
0001
0000
1000
0000
0100
0000
0010
0000
0001
0100
0001
0000
,  // measure 54
0100
0000
0010
0000
1000
0000
0001
0000
0010
0000
0100
0000
1000
0100
1000
0000
,  // measure 55
0100
0000
0010
0000
0001
0000
1000
0000
0010
0000
0100
0000
0001
0100
0001
0000
,  // measure 56
0100
0000
0010
0000
1000
0000
0001
0000
0010
0100
0010
0000
0200
0000
0000
0000
,  // measure 57
1300
0100
0010
0001
1000
0010
0100
0001
,  // measure 58
0010
0100
1000
0001
0100
0010
1000
0001
,  // measure 59
1000
0100
0001
0100
1000
0010
0001
0010
,  // measure 60
0220
0000
0000
0000
,  // measure 61
0330
0000
0000
0000
;

//---------------dance-single - ----------------
#NOTES:
     dance-single:
     :
     Easy:
     10:
     0.333508,0.439869,0.117178,0.288439,0.000000,259.000000,246.000000,13.000000,32.000000,0.000000,0.000000,0.333508,0.439869,0.117178,0.288439,0.000000,259.000000,246.000000,13.000000,32.000000,0.000000,0.000000:
// measure 0
0000
0000
0000
0000
,  // measure 1
0000
0000
0000
0000
,  // measure 2
0000
0000
0000
0000
,  // measure 3
0000
0000
0000
0000
,  // measure 4
0000
0000
0000
0000
,  // measure 5
2000
3000
1000
0000
2000
3000
1000
0000
,  // measure 6
0002
0003
0001
0000
0002
0003
0001
0000
,  // measure 7
0200
0300
0100
0000
0020
0030
0010
0000
,  // measure 8
2002
0000
0000
3003
,  // measure 9
1001
0000
0001
0100
0001
0000
0100
0000
,  // measure 10
0010
0000
1000
0010
1000
0000
0100
0000
,  // measure 11
0010
0000
0001
0010
0001
0000
0010
0000
,  // measure 12
0100
0000
1000
0100
1000
0000
0100
0000
,  // measure 13
0110
0000
0010
0001
0010
0000
0001
0000
,  // measure 14
0010
0000
0100
0010
0100
0000
0010
0000
,  // measure 15
0100
0000
1000
0100
1000
0000
0100
0000
,  // measure 16
0020
0000
0230
0000
0310
0001
0010
0000
,  // measure 17
1001
0000
0001
0010
0001
0000
0010
0100
,  // measure 18
0010
0000
0100
1000
0100
0000
0010
0100
,  // measure 19
0010
0000
0001
0010
0001
0000
0010
0100
,  // measure 20
0010
0000
0100
1000
0100
0000
0010
0000
,  // measure 21
1001
0000
1000
0010
1000
0000
0010
0100
,  // measure 22
0010
0000
0100
0001
0100
0000
0010
0100
,  // measure 23
0010
0000
1000
0010
1000
0000
0010
0100
,  // measure 24
0020
0000
0000
0030
,  // measure 25
1002
0000
0000
0000
,  // measure 26
0000
0000
0000
0000
,  // measure 27
0203
0000
0000
0000
,  // measure 28
0320
0000
0000
0000
,  // measure 29
2030
0000
0000
0000
,  // measure 30
0000
0000
0000
0000
,  // measure 31
3000
0000
0000
0000
,  // measure 32
0001
1000
0010
0010
,  // measure 33
1001
0000
0200
0300
0010
0010
1000
1000
,  // measure 34
0200
0300
0020
0000
0000
0031
0001
1000
,  // measure 35
1001
0000
0020
0030
0100
0100
0001
0001
,  // measure 36
0020
0030
0200
0000
0000
1300
1000
0001
,  // measure 37
1000
1000
0100
0010
,  // measure 38
0001
0001
0100
0010
,  // measure 39
1000
1000
0010
0100
,  // measure 40
0001
0001
0010
0100
,  // measure 41
0020
0030
0010
0000
0020
0030
0010
0000
,  // measure 42
0200
0300
0100
0000
0200
0300
0100
0000
,  // measure 43
2000
3000
1000
0000
0002
0003
0001
0000
,  // measure 44
2002
0000
0000
3003
,  // measure 45
1001
0000
0001
0100
0001
0000
0100
0010
,  // measure 46
0100
0000
0010
1000
0010
0000
1000
0001
,  // measure 47
1000
0000
0100
1000
0100
0000
0010
0100
,  // measure 48
0010
0000
0001
0010
0001
0000
1000
0000
,  // measure 49
1001
0000
1000
0010
1000
0000
0010
0100
,  // measure 50
0010
0000
0100
0001
0100
0000
0001
1000
,  // measure 51
0001
0000
0010
0001
0010
0000
0100
0010
,  // measure 52
0200
0000
0320
0000
0031
1000
0001
0000
,  // measure 53
1001
0000
1000
0100
0010
0000
0001
0100
,  // measure 54
0010
0000
1000
0010
0100
0000
0001
0010
,  // measure 55
0100
0000
0010
0001
0100
0000
0010
1000
,  // measure 56
0100
0000
0010
0100
1000
0000
1001
0000
,  // measure 57
0001
0100
0001
0100
0001
0100
0010
0000
,  // measure 58
1000
0100
1000
0100
1000
0100
0010
0000
,  // measure 59
0001
0010
0100
1000
0001
0100
0010
1000
,  // measure 60
0002
0000
0000
0000
,  // measure 61
0003
0000
0000
0000
;

//---------------dance-single - ----------------
#NOTES:
     dance-single:
     :
     Beginner:
     7:
     0.226631,0.274918,0.072110,0.297453,0.000000,176.000000,168.000000,8.000000,33.000000,0.000000,0.000000,0.226631,0.274918,0.072110,0.297453,0.000000,176.000000,168.000000,8.000000,33.000000,0.000000,0.000000:
// measure 0
0000
0000
0000
0000
,  // measure 1
0000
0000
0000
0000
,  // measure 2
0000
0000
0000
0000
,  // measure 3
0000
0000
0000
0000
,  // measure 4
0000
0000
0000
0000
,  // measure 5
1000
0100
1000
0000
,  // measure 6
0001
0100
0001
0000
,  // measure 7
1000
0010
1000
0001
,  // measure 8
1001
0000
0000
0000
,  // measure 9
0002
1003
0100
0010
,  // measure 10
0100
1000
0100
0010
,  // measure 11
0100
1000
0010
0100
,  // measure 12
0010
1000
0100
1000
,  // measure 13
0020
0130
0001
0100
,  // measure 14
0010
0100
0001
0100
,  // measure 15
0010
1000
0100
0010
,  // measure 16
0110
0000
1001
0000
,  // measure 17
2000
3001
0100
0010
,  // measure 18
0100
0001
0100
0010
,  // measure 19
1000
0100
0010
0100
,  // measure 20
1000
0100
0010
0001
,  // measure 21
0200
0310
1000
0010
,  // measure 22
0100
0010
1000
0010
,  // measure 23
0100
0001
0010
0001
,  // measure 24
0200
0000
0000
0300
,  // measure 25
0220
0000
0000
0000
,  // measure 26
0000
0000
0330
0000
,  // measure 27
2000
0000
0000
3000
,  // measure 28
0002
0000
0000
0003
,  // measure 29
2002
0000
0000
0000
,  // measure 30
0000
0000
0000
0000
,  // measure 31
3003
0000
0000
0000
,  // measure 32
1000
0001
1000
0001
,  // measure 33
0100
0000
0020
0030
1000
0000
0001
0000
,  // measure 34
0020
0030
0200
0000
0000
0000
0300
0000
,  // measure 35
0010
0000
0200
0300
1000
0000
0001
0000
,  // measure 36
0200
0300
0020
0000
0000
0000
0030
0000
,  // measure 37
0010
0010
0010
0000
,  // measure 38
1000
1000
1000
0000
,  // measure 39
0100
0100
0100
0000
,  // measure 40
0001
0001
0001
0000
,  // measure 41
2000
3000
0002
0003
,  // measure 42
0020
0030
0200
0300
,  // measure 43
1000
0100
0010
0001
,  // measure 44
2002
0000
0000
3003
,  // measure 45
2000
3010
0100
0001
,  // measure 46
1000
1000
0100
0010
,  // measure 47
0001
0100
0010
1000
,  // measure 48
0001
0001
0010
0100
,  // measure 49
0110
0001
0100
0010
,  // measure 50
1000
1000
0010
0100
,  // measure 51
0001
0001
0010
0100
,  // measure 52
2000
3002
0103
0100
,  // measure 53
0020
1030
0001
0010
,  // measure 54
0100
0100
0010
0001
,  // measure 55
1000
0010
0100
0001
,  // measure 56
0010
0010
0100
0100
,  // measure 57
2000
3000
0200
0300
,  // measure 58
0020
0030
0002
0003
,  // measure 59
1000
1000
0001
0001
,  // measure 60
2002
0000
0000
0000
,  // measure 61
3003
0000
0000
0000
;
