#TITLE:神謳 -RESONANCE-;
#SUBTITLE:;
#ARTIST:SOUND HOLIC feat. Nana Takahashi Vs.GOD PHOENIX Prim;
#TITLETRANSLIT:;
#SUBTITLETRANSLIT:;
#ARTISTTRANSLIT:;
#GENRE:Hi-MYTH;
#CREDIT:Graphics made by TonyAkita;
#MUSIC:Shin ou -RESONANCE-.ogg;
#BANNER:Shin ou -RESONANCE-.png;
#BACKGROUND:Shin ou -RESONANCE--bg.png;
#JACKET:Shin ou -RESONANCE--jacket.png;
#CDTITLE:;
#SAMPLESTART:49.855;
#SAMPLELENGTH:15.000;
#SELECTABLE:YES;
#OFFSET:0.980;
#BPMS:0.000=180.000
,288.000=90.000
,295.500=180.500
,296.000=180.000
;
#STOPS:295.500=0.167;
#DISPLAYBPM:90.000:180.000;
#BGCHANGES:;
#FGCHANGES:;

//--------------- dance-single - forcednature ----------------
#NOTES:
     dance-single:
     forcednature:
     Beginner:
     8:
     0,0,0,0,0:
0000
0000
0000
0000
,
0000
0000
0000
0000
,
0000
0000
0000
0000
,
1000
0000
0000
0001
0000
0000
0000
2002
,
0000
0000
0000
0000
,
0000
0000
0000
3003
,
1000
1000
0001
0001
,
0100
0010
0100
0010
,
1000
1000
0001
0001
,
0010
0000
0100
0000
0010
0100
0010
0000
,
0001
0001
1000
1000
,
0010
0100
0001
1000
,
0000
0010
0000
0010
0000
0100
0000
0100
,
0000
0001
0000
1000
0001
0000
0000
0000
,
1000
0000
0000
0000
,
0100
0000
0000
0000
,
0010
0000
0001
0000
,
1000
0000
0000
0000
,
0001
0000
0000
0100
0000
0000
0000
0000
,
0010
0000
0000
1000
0000
0000
0000
0000
,
0100
0100
0010
0010
,
0100
0000
0000
0000
,
1000
1000
0001
0100
,
0001
1000
0100
0010
,
0001
1000
0010
0100
,
1001
0000
0000
0000
,
1000
0000
0000
0001
0000
0000
1000
0000
0000
0000
0000
0000
0000
0000
0000
0000
,
0001
0000
0000
1000
0000
0000
0001
0000
0000
0000
0000
0000
0000
0000
0000
0000
,
0100
0010
0100
0010
,
0110
0000
0000
0000
,
0001
0000
0100
0000
,
1000
0000
0010
0000
,
0001
0000
0100
0000
,
1000
0000
0010
0000
,
1001
0000
0000
1001
0000
0000
0000
0000
,
0110
0000
0000
0110
0000
0000
0000
0000
,
1000
0000
0000
0001
0000
0000
1000
0000
0001
0000
0000
1000
0000
0000
0001
0000
,
1000
0000
0000
0001
0000
0000
1000
0000
0000
0000
0000
0000
0001
0000
0000
1000
,
0000
0001
0000
0000
0000
0000
0000
0000
,
1000
0000
0010
0000
1000
0000
0100
1000
,
0100
0010
0001
0100
,
0010
0000
1000
0000
0001
0000
0010
0100
,
0010
0001
1000
0010
,
0100
0100
0001
0001
,
0100
0100
1000
1000
,
0100
0100
0010
0010
,
1000
0000
0000
0000
1000
0000
0000
0000
0001
0000
0000
1000
0000
0000
0001
0000
,
0010
0100
1000
0001
,
0100
0000
0010
0000
1000
0100
1000
0000
,
0010
0100
0001
0010
,
0001
0000
1000
0000
0001
0100
0001
0000
,
0100
0000
0100
0000
0100
0000
0100
0010
,
0000
0000
0000
0000
,
1000
0100
1100
0001
,
0100
0001
0101
0010
,
1000
0000
0001
0000
0100
0000
0000
0100
,
0000
0100
0010
1000
,
0001
0000
0010
0000
0100
0000
0000
0100
,
0000
0100
1000
0001
,
1000
1000
0001
0100
,
0001
0001
1000
0100
,
0010
0001
0010
1000
,
0010
0010
0010
0010
,
0110
0000
0000
0000
,
0100
1000
0001
0100
,
0010
0000
0100
0000
,
0001
0100
1000
0100
,
0110
0000
0000
1001
0000
0000
0000
0000
,
0110
0000
0000
1001
0000
0000
0000
0000
,
0001
0000
0000
1000
0000
0000
0001
0000
1000
0000
0000
0001
0000
0000
1000
0000
,
0001
0000
0000
1000
0000
0000
0001
0000
0000
0000
0000
0000
1000
0000
0000
0001
,
0000
1000
0000
0000
0000
0000
0000
0000
,
0010
0000
0000
0100
0000
0000
0000
0010
0000
0000
0000
0000
0000
0000
0000
0000
,
1000
0000
0000
0001
0000
0000
0000
1000
0000
0000
0000
0000
0100
0000
0100
0000
,
0010
0001
0010
1000
,
0010
0100
1000
0001
,
0100
1000
0100
0001
,
0100
0000
0000
0000
0000
0000
0000
0000
0001
0000
0000
1000
0000
0000
0001
0000
,
1000
0100
0001
0100
,
1000
0010
0100
0001
,
0010
1000
0010
0100
,
1000
0001
1000
0001
1000
0000
0010
0000
,
0100
0000
0100
0000
0100
0000
0100
0010
,
0000
0000
0000
0000
,
1000
0001
0001
1000
,
1000
0001
0001
1000
,
0010
0100
0010
0000
1000
0000
0001
0000
,
0010
0100
0010
0000
0001
0000
1000
0000
,
0001
1000
0001
0000
1000
0000
0001
0000
,
1000
0001
1000
0000
0001
0000
1000
0000
,
1010
1000
0100
0010
,
0011
0001
0100
0010
,
1000
0000
0000
0001
0000
0000
0100
0000
,
0000
0010
0000
0000
1000
0000
0000
2002
,
0000
0000
0000
0000
0000
0000
0000
0000
0000
0000
0000
0000
0000
3003
0000
0000
0000
0000
0000
0000
0000
0000
0000
0000
0000
0000
0000
0000
0000
0000
0000
0000
;

//--------------- dance-single - forcednature ----------------
#NOTES:
     dance-single:
     forcednature:
     Easy:
     11:
     0,0,0,0,0:
0000
0000
0000
0000
,
0000
0000
0000
0000
,
0000
0000
0000
0000
,
1000
0001
1000
0001
0000
0100
0010
0200
,
0000
0020
0000
0000
,
0000
0030
0000
0300
,
0001
0001
1000
1000
,
0100
0000
0010
0001
0010
0001
0010
0000
,
0100
0100
1000
1000
,
0010
0000
0010
0000
0100
0001
0100
0001
,
0100
0100
0010
0010
,
1000
0000
1000
0000
0001
1000
0001
1000
,
0001
0010
0000
0100
0000
1000
0000
0010
,
0000
0100
0010
0100
0010
0100
0000
0000
,
0001
0000
0000
0200
0000
0000
0300
0000
,
0010
0000
0000
2000
0000
0000
3000
0000
,
0100
0100
0010
0010
,
0002
0000
0000
0003
0000
1000
0000
0000
,
0001
0000
0000
0100
0000
0000
0010
0000
,
1000
0000
0000
0200
0000
0000
0300
0000
,
0010
0000
0000
0000
0001
0000
0000
0000
1000
0000
0000
0001
0000
0000
0100
0000
,
0001
0000
1000
0000
0002
0000
0000
0003
,
1000
0000
0100
1000
0000
0000
0010
0000
,
0100
0000
0001
0010
0000
0000
0001
0000
,
1000
0010
0100
0001
,
0010
0000
0100
1000
0000
0010
0100
0000
,
0001
0000
0000
1000
0000
0000
1001
0000
0000
0000
0000
0000
0000
0000
0000
0000
,
0100
0000
0000
0010
0000
0000
0110
0000
0000
0000
0000
0000
0000
0000
0000
0000
,
1000
0000
0000
0000
0001
0000
0000
0000
1000
0000
0000
0001
0000
0000
1000
0000
,
0002
0000
0100
0000
0100
0100
0103
0000
,
0002
0000
2003
0000
,
3200
0000
0310
0001
,
0100
0100
0010
0010
,
1000
0001
1001
0000
,
1000
0000
1000
0100
0000
0100
0010
0000
,
0001
0000
0001
0100
0000
0100
0010
0000
,
1000
0000
0000
0100
0000
0000
0100
0000
0001
0000
0000
0100
0000
0000
0100
0000
,
1000
0000
0000
0001
0000
0000
1001
0000
0000
0000
0000
0000
0100
0000
0000
0100
,
0000
0100
0000
0000
0000
0000
0000
0000
,
0001
0000
1000
0001
0000
0001
1000
0000
,
0010
0000
0100
0001
0000
0001
0010
0000
,
0100
0000
1000
0001
0000
0001
1000
0000
,
0010
0100
0010
0100
0010
0000
0100
0000
,
0001
0000
1000
0100
0000
0000
0100
0000
,
0010
0000
0001
0100
0000
0000
0010
0000
,
1000
0000
0100
0010
0000
0000
0100
0000
,
1000
0000
0000
0000
0010
0000
0000
0000
0100
0000
0000
0100
0000
0000
0100
0000
,
0001
0000
1000
0100
0000
0100
0010
0000
,
0001
0000
1000
0010
0000
0010
0100
0000
,
0001
0000
1000
0001
0000
0001
0010
0000
,
0100
1000
0100
1000
0100
0000
0010
0000
,
0110
0000
1100
0000
1000
0001
1000
0020
,
0000
0030
0000
0000
,
1000
0000
0001
0100
0001
0000
1000
0100
,
1000
0000
0001
0100
0001
0100
0010
0000
,
1001
0000
0000
0000
1100
0000
0000
1001
,
0000
0001
0000
0001
0000
0000
0100
0000
,
0110
0000
0000
0000
1010
0000
0000
0100
,
0000
0001
0000
0100
0000
0001
0000
0000
,
1000
0100
1000
0000
0010
0100
0001
0000
,
0100
0010
1000
0000
0001
0010
0100
0000
,
1000
0001
0100
0000
0001
1000
0100
0000
,
1000
0001
1000
0001
1000
0001
1000
0000
,
0010
0000
0000
0010
0010
0000
0000
0000
,
0100
0000
0000
0001
1000
0000
0100
0000
,
0010
0000
0000
0100
1000
0000
0000
0010
,
0100
0000
0001
0000
1000
0001
1000
0000
,
0110
0000
0010
0100
0000
0001
0100
0000
,
0110
0000
0010
0100
0000
1000
0100
0000
,
0001
0000
0000
0010
0000
0000
0100
0000
1000
0000
0000
0010
0000
0000
0100
0000
,
0001
0000
0000
1000
0000
0000
1001
0000
0000
0000
0000
0000
0100
0000
0000
0100
,
0000
0100
0000
0000
0000
0000
0000
0000
,
1000
0000
0000
0001
0000
0100
0000
0020
0000
0000
0000
0030
0000
0000
0000
0000
,
0100
0000
0000
0001
0000
1000
0000
0200
0000
0000
0300
0000
0100
0010
0100
0000
,
1000
0000
0001
0100
0000
0001
0100
0000
,
0001
0000
1000
0100
0000
1000
0100
0000
,
0010
0000
0100
0010
0000
0100
0010
0000
,
0001
0000
0000
0000
1000
0000
0000
0000
0010
0000
0000
0010
0000
0000
0010
0000
,
0100
0000
0001
0100
0000
0001
0100
0000
,
0001
1000
0100
0010
,
0100
0000
1000
0100
0000
1000
0100
0000
,
1000
0000
0001
0000
0100
0010
0100
0000
,
0001
1000
0001
1000
0001
1000
0001
2000
,
0000
3000
0000
0000
,
1000
0000
0001
0100
0001
0000
1000
0100
,
1000
0000
0010
0100
0010
1000
0001
0000
,
1000
0100
1000
0100
1000
0100
1000
0000
,
0001
0100
0001
0100
0001
0100
0001
0000
,
1000
0010
1000
0010
1000
0010
1000
0000
,
0001
0010
0001
0010
0001
0010
0001
0000
,
1000
0001
1000
0001
,
1000
0001
1000
0001
1000
0001
1000
0001
,
1000
0000
0000
0010
0000
0000
0100
0000
,
0000
0001
0000
0000
0010
0000
0000
0220
,
0000
0000
0000
0000
0000
0000
0000
0000
0000
0000
0000
0000
0000
0330
0000
0000
0000
0000
0000
0000
0000
0000
0000
0000
0000
0000
0000
0000
0000
0000
0000
0000
;

//--------------- dance-single - forcednature ----------------
#NOTES:
     dance-single:
     forcednature:
     Medium:
     15:
     0,0,0,0,0:
0000
0000
0000
0000
,
0000
0000
0000
0000
,
0000
0000
0000
0000
,
1000
0001
0100
0010
0000
1000
0001
2002
,
0000
0000
0000
0000
0000
0000
0000
0000
0000
3003
0000
0000
1000
0000
0000
0000
0001
0000
0000
0000
1000
0000
0000
0000
0001
0000
0000
0000
1000
0000
0000
0000
0001
0000
0000
0000
1000
0000
0000
0000
0001
0000
0000
0000
1000
0000
0000
0000
,
0001
1000
0001
1000
0000
0000
0000
0000
0000
1001
0000
0000
,
1000
0000
0000
0100
0000
0000
1000
0000
0010
0000
0000
0100
0000
0000
0001
0000
,
0010
0000
0001
0100
0010
1000
0001
1000
,
0100
0000
0000
0010
0000
0000
1000
0000
0010
0000
0000
0001
0000
0000
1000
0000
,
0010
0000
0000
0100
0000
0000
0001
0000
1000
0000
0001
0100
0000
0001
0100
0000
,
0010
0000
0000
1000
0000
0000
0100
0000
0001
0000
0000
0100
0000
0000
0010
0000
,
0001
0000
0000
0000
1000
0000
0001
0000
0100
0000
0001
0000
1000
0100
1000
0000
,
0010
0100
0000
0101
0000
1100
0000
1001
,
0000
1000
0010
0100
0001
0010
0000
0100
,
1000
0100
1000
0200
0000
0000
0300
0010
,
0001
0010
0001
0020
0000
0000
0030
0001
,
1000
0000
0000
0001
0000
0000
0100
0000
0001
0000
0000
1000
0000
0000
0100
0000
,
0020
0000
0000
0030
0000
0100
1000
0010
,
0100
1000
0100
0001
0000
1000
0100
0001
,
0100
0010
0001
2000
0000
0000
3000
0000
,
1000
0000
0001
0000
0100
0000
0010
0000
1000
0000
0000
0100
0000
0000
0010
0000
,
0001
1000
0001
0000
0000
0000
1000
0001
1000
0000
0010
0000
0100
0000
0001
0000
,
0100
1000
0100
0001
0000
1000
0100
0010
,
1000
0010
0001
1000
0000
0010
0100
0001
,
0100
0000
0000
0010
0000
0000
1000
0000
0010
0000
0000
0100
0000
0000
0001
0000
,
1000
0000
0100
0001
0000
0100
0010
0001
,
1000
0000
0000
0001
0000
0000
1001
0000
0000
0000
0001
0000
0100
0000
0010
0000
,
0100
0000
0000
0010
0000
0000
0110
0000
0000
0000
1000
0000
0001
0000
1000
0000
,
0100
0000
0000
0000
0010
0000
0000
0000
0100
0000
0000
1000
0000
0000
0001
0000
,
0010
0000
0100
0000
1000
0000
0001
0000
1000
0001
1000
0001
1000
0000
0000
0000
,
0010
0000
0000
0100
0001
0000
0000
1000
,
0100
0010
0100
1000
0001
0100
0001
1000
,
1001
0000
0000
1000
0000
0000
0001
0000
0110
0000
0000
0100
0000
0000
0010
0000
,
1010
0000
0000
0101
0000
0000
0001
0010
0001
0010
0000
0000
,
0100
1000
0010
0100
0000
1000
0100
0001
,
1000
0100
0001
0100
0000
0010
0001
1000
,
0001
0000
0000
1000
0000
0000
1001
0000
0100
0000
0000
0010
0000
0000
0110
0000
,
1000
0000
0000
0001
0000
0000
1001
0000
0000
0000
0000
0000
0110
0000
0000
0110
,
0000
0110
1000
0001
1000
0001
1000
0001
,
1000
0000
0001
0100
0000
0010
1000
0200
,
1000
0000
1000
1300
0100
0010
0001
1000
,
0010
0000
0100
0001
0000
0010
0100
2000
,
0001
0001
0001
3001
1000
0000
0010
0000
,
0110
0000
0001
1000
0000
0100
0010
0001
,
1001
0000
1000
0010
0000
1000
0100
1000
,
1001
0000
0001
0000
0100
0000
0010
0000
1000
0000
0000
0100
0000
0000
1000
0000
,
0010
0000
0100
0000
0001
0000
0100
0000
0010
0000
0000
0110
0000
0000
1001
0000
,
0001
0000
0100
0001
0000
1000
0010
0200
,
0010
0000
0010
0310
0000
0100
0001
1000
,
0100
0000
0010
0001
0000
1000
0001
0020
,
0100
0100
0100
0130
0010
0000
0110
0000
,
1000
0000
0001
0000
0100
0000
0010
0000
1000
0001
1000
0001
1000
0000
0200
0000
,
0000
0000
0000
0000
0000
0000
0000
0300
0000
0000
0000
0000
0000
0000
0000
0000
0010
0000
0000
0000
0000
0000
0001
0000
0000
0000
0000
0000
1000
0000
0001
0000
,
1000
0000
0010
0100
0001
0100
1000
0100
,
0001
0010
1000
0010
0100
1000
0001
1000
,
0010
0000
0100
0001
0010
0001
1000
1010
,
0000
0000
0101
0000
0000
0000
1000
0000
0001
0000
0000
0100
0000
0000
1000
0000
,
0100
0000
0010
1000
0100
0001
0100
0110
,
0000
0001
1000
0001
0100
0010
1000
0000
,
0001
0000
1000
0100
1000
0000
0010
0000
0100
0000
0001
0000
1000
0100
1000
0000
,
0010
0000
0100
0001
0100
0000
0001
0000
0010
0000
0100
0000
1000
0001
1000
0000
,
0100
0000
0010
0001
0010
0000
0001
0000
0100
0000
0010
0000
1000
0001
1000
0000
,
0001
1000
0001
1000
0001
1000
0001
1000
0001
1000
0001
1000
0001
0000
0000
0000
,
2000
0000
0000
3000
,
0020
0000
0000
0230
0000
0000
0302
0003
,
0022
0033
0220
0330
,
1001
0000
0000
0000
1001
0000
0000
0000
0001
1000
0001
1000
0001
0000
0000
0000
,
1000
0100
0010
0100
0000
1000
0001
0100
,
1000
0100
0001
0100
0000
0010
1000
0001
,
1000
0000
0000
0001
0000
0000
1001
0000
0100
0000
0000
0010
0000
0000
0110
0000
,
0001
0000
0000
1000
0000
0000
1001
0000
0000
0000
0000
0000
0110
0000
0000
0110
,
0000
0110
0001
1000
0001
1000
0001
1000
,
0001
0000
0100
0100
0000
0010
1000
0200
0000
0000
0300
0000
1000
0001
1000
0001
,
1000
0000
0000
0000
0010
0000
0010
0000
0000
0000
0100
0000
0001
0000
0020
0000
0100
0000
0000
0000
0100
0030
0000
0000
0100
0000
0010
0000
0100
0000
0000
0000
,
1000
0000
0010
0100
0000
0001
0100
1000
,
0100
0000
0010
1000
0000
0100
0010
0001
,
0010
0000
0000
0000
1000
0000
0010
0000
0001
0000
0000
1000
0000
0000
0010
0000
,
0100
0000
0001
0000
1000
0000
0010
0000
0110
0000
0000
1001
0000
0000
0110
0000
,
1000
0000
0001
0100
0000
0010
1000
0200
,
1000
0000
1000
1300
0000
0100
0010
0001
,
0100
0000
0010
1000
0000
0001
1000
0020
,
0100
0100
0100
0130
0010
0000
0110
0000
,
0001
0000
1000
0000
0010
0000
0100
0000
0001
1000
0001
1000
0001
0000
0020
0000
,
0000
0000
0000
0000
0000
0000
0000
0030
0000
0000
0000
0000
0000
0000
0000
0000
0100
0000
0000
0000
0000
0000
1000
0000
0000
0000
0000
0000
0010
0000
0000
0000
,
1000
0000
0000
0000
0001
0100
0001
0100
0001
0000
0000
0000
1000
0100
1000
0100
,
1000
0000
0000
0000
0001
1000
0001
1000
0001
0000
0100
0000
0010
0000
0100
0000
,
0001
0000
1000
0010
1000
0000
0001
0000
1000
0000
0100
0000
0010
0001
0010
0000
,
0100
0000
1000
0000
0001
0000
0100
0000
0010
0000
1000
0000
0100
0010
0100
0000
,
1000
0000
0001
0100
0001
0000
0010
0000
0100
0000
1000
0000
0010
0100
0010
0000
,
1000
0001
1000
0001
1000
0000
0010
0000
0100
0000
0001
0000
0010
0000
0000
0000
,
0100
1000
0100
0010
0100
1000
0001
0100
,
0001
1000
0001
1000
0001
1000
0001
1000
0001
1000
0001
1000
0001
1000
0001
1000
,
0001
0000
0000
1001
0000
0000
0110
0000
,
0000
1001
0000
0000
1000
0001
1000
2002
,
0000
0000
0000
0000
0000
0000
0000
0000
0000
0000
0000
0000
0000
3003
0000
0000
0000
0000
0000
0000
0000
0000
0000
0000
0000
0000
0000
0000
0000
0000
0000
0000
;

//--------------- dance-single - forcednature ----------------
#NOTES:
     dance-single:
     forcednature:
     Hard:
     17:
     0,0,0,0,0:
0000
0000
0000
0000
,
0000
0000
0000
0000
,
0000
0000
0000
0000
,
0101
0000
0100
0000
0010
0000
1010
0000
0000
0000
1000
0001
1000
0001
2000
0000
,
0000
0000
0000
0000
0000
0000
0000
0000
0000
3000
0000
0000
0001
0000
0000
0000
1000
0000
0000
0000
0001
0000
0000
0000
0100
0000
0000
0000
0001
0000
0000
0000
0100
0000
0000
0000
0010
0000
0000
0000
1000
0000
0000
0000
0010
0000
0000
0000
,
1000
0100
1000
0002
0000
0000
0000
0000
0000
1003
0000
0000
,
1000
0000
0000
0001
0000
0000
0100
0001
0100
0000
0000
0010
0000
0000
1000
0100
,
1000
0000
0000
0000
0001
0100
0001
0100
0001
1000
0100
0010
0100
1000
0100
1000
,
0001
0000
0000
0100
0000
0010
1000
0010
1000
0000
0100
0000
0010
0001
0010
0001
,
1000
0000
0001
0100
0000
0001
0100
0000
0010
0000
1000
0001
1000
0001
1000
0010
,
0100
0000
0000
0001
0000
0000
0010
0001
0010
0000
0000
0100
0000
0000
1000
0001
,
1000
0000
0000
0000
0010
1000
0010
1000
0001
0100
0010
1000
0001
0010
0001
0000
,
1000
1001
0000
0110
0000
1100
0000
0101
,
0000
0000
1000
0000
0001
0000
0100
0010
0100
0000
0110
0000
0000
0000
1000
0000
,
0001
1000
0010
0200
0000
0000
0300
0001
,
0010
0100
1000
0002
0000
0000
0003
0100
,
0010
0000
0000
1000
0000
0000
0001
0000
0010
0000
0000
0001
0000
0000
1000
0000
,
0200
0000
0000
0000
0000
0000
0300
0000
0010
0001
0010
0001
1000
0000
0001
0100
,
0001
0000
0010
0000
0100
0000
1000
0000
0000
0000
0010
0000
0100
0000
0001
1000
,
0001
0000
0100
0000
0010
0000
1000
0000
0000
0000
0100
0000
1000
0010
1000
0010
,
0100
0000
0001
0000
1000
0000
0100
0010
0100
0000
0000
1100
0000
0000
0011
0000
,
1000
0001
2000
0000
0000
0000
3001
0100
0001
0010
0001
0100
0001
0000
0000
0000
,
0010
0001
0010
0100
1000
0010
0100
0001
,
0100
1000
0100
0010
1000
0100
0010
0001
,
0100
0000
0000
1000
0000
0000
0100
0000
0001
0000
0000
0010
0000
0000
0001
0000
,
1000
0000
0100
0000
1000
0000
0001
0000
0010
0000
0100
1000
0100
1000
0100
0000
,
1100
0000
0000
1001
0000
0000
0011
0000
0000
0000
0001
0000
1000
0010
1000
0010
,
0100
0000
0000
0101
0000
0000
1010
0000
1000
0001
1000
0001
1000
0001
1000
0001
,
0100
0000
0000
0000
0011
0000
0000
0000
1100
0000
0000
1001
0000
0000
0001
0100
,
0010
0000
0010
0000
0010
0000
0010
0000
0010
0100
0010
0100
0010
0000
0100
0000
,
0020
0000
0000
1000
1000
0000
0031
0010
,
0100
0000
0001
0000
1000
0000
0100
0000
0010
0000
0001
0000
1000
0000
0100
0010
,
0100
0000
0000
1000
0000
0000
0010
0000
0100
0000
0000
0001
0000
0000
0010
0000
,
0011
0000
0000
1100
0000
0000
1000
0100
0010
0001
0000
0000
,
1001
0000
1000
0000
0001
0000
1001
0000
0000
0000
0001
0100
0001
0100
0001
0000
,
1001
0000
0001
0000
1000
0000
1001
0000
1000
0100
0010
0100
1000
0001
0100
0001
,
0010
0000
0000
0110
0000
0000
0110
0000
1001
0000
0000
1001
0000
0000
1001
0000
,
0101
0000
0000
1100
0000
0000
2002
0000
0000
0000
3003
0000
0110
0000
0000
0110
,
0000
0110
0002
0000
0000
0000
0000
0003
,
1000
0010
1000
0100
0001
0100
0010
0001
,
1000
0010
0001
0010
0100
0001
0010
1000
,
0001
0100
1000
0010
0100
0001
1000
0100
,
0010
0000
0001
0000
0010
0000
1000
0000
0010
0000
0001
1000
0001
1000
0001
1000
,
0001
0100
0010
0001
0010
1000
0100
0001
,
0100
0000
0010
0000
1000
0000
0010
0000
0001
0000
1000
0000
0010
0000
0100
0001
,
0100
0000
0010
1000
0010
0000
0100
0010
0100
0000
0001
0000
0010
0000
0100
1000
,
0100
1000
0100
0010
0100
0010
0001
0010
0001
0000
0000
1001
0000
0000
1001
0000
,
1000
0001
0100
1000
0100
0010
1000
0010
,
0100
1000
0100
0010
1000
0100
0001
0100
,
0010
1000
0010
0001
0100
0010
1000
0001
,
0100
0000
0010
0000
0001
0000
0010
0000
1000
0100
1000
0100
1000
0001
1000
0001
,
0010
0000
0001
1000
0001
0000
1000
0100
1000
0001
0100
0001
0100
0000
0220
0000
,
0000
0000
0000
0330
0000
0000
0000
0000
1000
0000
0000
0001
0000
0000
1000
0001
,
1000
0000
0001
0100
0001
0100
0010
1000
0010
0000
1000
0100
1000
0100
0010
0001
,
0010
0000
0001
0100
0010
1000
0010
0100
0001
1000
0001
1000
0001
0010
0100
1000
,
0100
1000
0010
0100
0001
0100
0010
0110
,
0000
0000
1001
0000
1000
0000
0010
0000
0100
0000
0001
0010
0000
0100
1000
0100
,
1000
0001
0100
1000
0100
0010
1000
1001
,
0000
0000
0011
0000
0001
0010
0001
0010
0100
1000
0100
1000
0010
0000
0000
0000
,
1000
0000
0010
0100
0010
0000
0001
0000
0010
0000
1000
0001
1000
0100
0010
0001
,
1000
0000
0100
0010
0100
0000
0001
0000
0100
0000
1000
0001
0100
0010
1000
0001
,
1000
0000
0001
0010
0001
0000
1000
0000
0100
0000
0010
0001
0010
0100
0010
0001
,
1000
0000
0010
1000
0100
0010
0001
0100
0010
1000
0100
0010
0001
0000
0000
0000
,
0201
0000
0000
1000
1300
0000
0000
0000
,
0202
0000
0303
1000
1001
0000
0101
0000
,
1001
0000
0000
0000
0000
0000
1000
0100
1000
0000
0000
0000
0000
0000
0001
0100
,
0001
0000
0000
0000
0001
0000
0000
0000
1000
0001
1000
0001
1000
0000
0000
0000
,
0110
0000
0100
0000
0010
0000
0110
0000
0000
0000
1000
0010
0100
0001
1000
0000
,
1001
0000
1000
0000
0001
0000
1001
0000
0000
0000
1000
0100
0010
0001
1000
0000
,
1001
0000
0000
1001
0000
0000
1001
0000
0110
0000
0000
0110
0000
0000
0110
0000
,
1010
0000
0000
0011
0000
0000
2002
0000
0000
0000
3003
0000
0110
0000
0000
0110
,
0000
0110
2000
0000
0000
0000
0000
3000
,
0001
0000
1000
0100
0000
0010
0001
0020
0000
0000
0030
0000
0100
1000
0001
0100
,
0010
0000
0000
0000
1000
0000
0100
0000
0000
0000
0010
0000
0001
0000
0100
0000
0001
0000
1000
0000
0001
0000
1000
0001
1000
0001
1000
0001
1000
0000
0000
0000
,
1000
0100
0001
0100
0010
0001
0100
0010
,
1000
0010
0001
0010
0100
0001
1000
0100
,
0010
0000
0100
0000
1000
0000
0001
0000
0100
0000
0000
0010
0000
0000
1000
0000
,
0001
1000
0001
0100
0010
1000
0100
0010
0001
0000
0000
1001
0000
0000
1001
0000
,
1000
0100
0001
0100
0010
0100
1000
0001
,
0100
1000
0100
0010
1000
0100
0010
1000
,
0010
0001
0100
0010
1000
0001
0100
1000
,
0100
0000
0010
0000
1000
0000
0100
0000
0010
0000
0001
0100
0010
1000
0100
0010
,
0001
0000
1000
0100
1000
0000
0001
0100
0010
1000
0010
0100
0001
0000
2002
0000
,
0000
0000
0000
0000
0000
0000
0000
0000
0000
0000
3003
0000
0000
0000
0000
0000
0000
0000
0000
0000
0000
0000
0000
0000
0001
0000
0000
0000
0000
0000
0000
0000
0000
1000
0000
0000
0000
0000
0000
0000
0000
0000
0001
0000
0000
0100
0000
0000
,
0001
0000
1000
0010
1000
0010
0100
0001
0100
0000
0001
0010
0001
0010
0100
1000
,
0100
0000
1000
0001
1000
0001
0100
0010
0100
0000
0001
1000
0001
1000
0100
0010
,
0100
0000
0010
0001
0010
0000
0100
0000
0001
0000
0100
0000
1000
0001
1000
0001
,
0100
0000
1000
0000
0100
0000
0010
0000
1000
0000
0001
0000
1000
0100
1000
0100
,
0010
0000
0001
0100
0001
0000
0010
0000
1000
0000
0010
0000
0100
1000
0100
1000
,
0001
1000
0001
1000
0010
0000
0100
0000
0001
0000
0010
0100
0010
0100
1000
0000
,
0010
0000
1000
0000
0010
0000
0100
0000
0001
0000
0010
0000
0001
1000
0001
1000
,
0001
0100
0001
0100
0010
1000
0010
1000
0100
1000
0100
1000
0001
0010
0001
0010
,
0100
0000
0000
0000
1000
0100
1000
0000
0000
0000
0001
0010
0001
0000
0000
0000
,
1000
0010
1000
0000
0000
0000
0001
0100
0001
0000
1000
0000
0100
0010
0002
0000
,
0000
0000
0000
0000
0000
0000
0000
0000
0000
0000
0000
0000
0000
0003
0000
0000
0000
0000
0000
0000
0000
0000
0000
0000
0000
0000
0000
0000
0000
0000
0000
0000
;

//--------------- dance-single - forcednature ----------------
#NOTES:
     dance-single:
     forcednature:
     Challenge:
     18:
     0,0,0,0,0:
0000
0000
0000
0000
,
0000
0000
0000
0000
,
0000
0000
0000
0000
,
1001
0000
0100
0000
0010
0000
1001
0000
0000
0000
0001
0010
0100
1000
0002
0000
,
0000
0000
0000
0000
0000
0000
0000
0000
0000
0003
0000
0000
1000
0000
0000
0000
0010
0000
0000
0000
1000
0000
0000
0000
0001
0000
0000
0000
0100
0000
0000
0000
0001
0000
0000
0000
1000
0000
0000
0000
0010
0000
0000
0000
0100
0000
0000
0000
,
0001
0010
0100
2000
0000
0000
0000
0000
0000
3001
0000
0000
,
1000
0000
0000
0001
0000
0000
1000
0100
0010
0000
0000
0100
0000
0000
0010
0001
,
1000
0000
0000
0000
0001
0100
0010
1000
0001
0010
0100
0010
0001
1000
0010
0100
,
0010
0000
1000
0010
0000
1000
0100
0010
0001
0000
0100
0001
1000
0100
0010
0100
,
1000
0000
0001
0100
0000
1000
0100
0000
0010
0000
1000
0100
0010
0001
0010
0100
,
0010
0000
0000
0001
0000
0000
0100
0010
1000
0000
0000
0100
0000
0000
1000
0001
,
0100
0000
0000
0000
0010
1000
0100
0010
0001
1000
0001
0100
0010
0100
1000
0000
,
0100
0110
0000
1001
0000
1010
0000
0101
,
0000
0000
0011
0000
1100
0000
1000
0001
1000
0000
0001
0000
0000
0000
0001
0000
,
1001
1000
0100
0002
0000
0000
0003
1000
,
0010
0001
0100
2000
0000
0000
3000
0001
,
0010
0000
0000
0100
0000
0000
0001
0000
0010
0000
0000
1000
0000
0000
0010
0000
,
0100
0000
1000
0000
0010
0000
0100
0000
0001
0010
0100
1000
0100
0000
1000
0001
,
0100
0000
1000
0000
0100
0000
0001
0000
0000
0000
0010
0000
1000
0000
0010
0100
,
1000
0000
0010
0000
0100
0000
1000
0000
0000
0000
0100
0000
0001
0010
0100
1000
,
0010
0000
0100
0000
0001
0000
1000
0010
1000
0000
0000
1001
0000
0000
0101
0000
,
0001
0010
0001
0000
0000
0000
1000
0100
0010
0001
0010
0100
1000
0000
0010
0100
,
0010
0000
0001
0000
0010
0000
1000
0000
0100
0000
0001
0000
0100
0010
0001
0000
,
1000
0000
0010
0000
0100
0000
0001
0000
0100
0000
1000
0000
0100
0001
0010
0000
,
0100
0000
1000
0100
0000
0000
0001
0000
0100
0000
0010
0001
0000
0000
0100
0000
,
0010
0000
1000
0000
0010
0000
0001
0000
0010
0000
0100
0010
1000
0001
1000
0000
,
1100
0000
0000
0101
0000
0000
1001
0000
0000
0000
1010
0000
1000
0100
0010
0001
,
0010
0000
0000
0101
0000
0000
1001
0000
1000
0001
1000
0010
0100
0001
1000
0001
,
0010
0000
0100
0000
1000
0000
0100
0000
0110
0000
0000
0001
0000
0000
1000
0010
,
0100
0000
0001
0000
0100
0000
1000
0000
0100
0001
0100
1000
0100
0000
0010
0000
,
1010
0000
1001
0000
1100
0000
0001
0010
,
0200
0000
0010
0000
1000
0000
0310
0000
0100
0000
1000
0000
0010
0000
0100
0001
,
0100
0000
0010
1000
0010
1000
0010
0000
0100
0000
0001
0010
0001
0010
0001
0000
,
1001
0000
0000
0101
0000
0000
1000
0100
1000
0010
0000
0000
,
0101
0000
0010
0000
0100
0000
1010
0000
0000
0000
0001
0100
0010
0100
0001
0000
,
1100
0000
0010
0000
0100
0000
0011
0000
0001
0010
0001
1000
0010
0100
0010
1000
,
0100
0000
0000
0011
0000
0000
1001
0000
1100
0000
0000
1001
0000
0000
0001
0100
,
0001
0000
0000
1001
0000
0000
1010
0000
1000
0001
0100
0010
0100
0000
0000
0100
,
0001
1000
0100
0000
1000
0000
1000
0000
0001
0000
0001
0000
0100
0000
0100
0000
,
0110
0100
0001
1000
0001
0010
1000
0020
,
0100
0000
0001
0130
0010
0001
0100
1000
,
0110
0010
1000
0001
0010
1000
0001
0200
,
1000
0000
0010
0000
0001
0000
1300
0000
0100
0000
0010
0001
1000
0010
0100
0001
,
0010
0100
1000
1001
0000
0001
0100
1000
,
0110
0000
0001
0000
1000
0000
0011
0000
0000
0000
0001
0000
1000
0000
0100
0010
,
0001
0000
0010
0100
1000
0000
0001
0100
0010
0000
0001
0000
0010
0000
0100
0001
,
0010
0100
1000
0001
0100
0001
1000
0010
1000
0000
0000
1001
0000
0000
0001
0010
,
0001
0100
0010
1000
0010
0001
0010
2000
,
0100
0000
0001
3010
1000
0100
0001
0100
,
0110
0010
0001
1000
0010
0100
1000
0200
,
0001
0000
0010
0000
1000
0000
0301
0000
0100
0010
1000
0001
1000
0100
0010
0001
,
0100
0000
0001
0010
0100
0000
1000
0001
0100
0001
1000
0100
0010
0000
0022
0000
,
0000
0000
0000
0000
0000
0000
0000
0000
0000
0000
0033
0000
0000
0000
0000
0000
0000
0000
0000
0000
0000
0000
0000
0000
0001
0000
0000
0000
0000
0000
0000
0000
0000
0100
0000
0000
0000
0000
0000
0000
0000
0000
0010
0000
0000
1000
0000
0000
,
0010
0000
0100
0001
0010
0100
0010
0001
1000
0000
0010
0100
0001
0010
0001
1000
,
0100
0000
1000
0010
1000
0100
0010
0001
1000
0100
1000
0001
0100
0010
1000
0001
,
0010
0000
0100
1000
0100
0010
0001
1000
0100
0000
0001
0000
0100
0010
0100
0000
,
0000
0000
1001
0000
1000
0010
1000
0001
0100
0000
0001
0010
0000
0100
1000
0100
,
0010
0000
0001
0100
0001
1000
0010
0100
0001
0000
1000
0000
0100
0000
0110
0000
,
0000
0000
0001
0000
0010
0001
1000
0100
1000
0001
0100
0001
1000
0000
0000
0000
,
0001
0000
0000
0000
0000
0000
1000
0000
0100
0000
1000
0000
0100
0000
0000
0000
0000
0000
0010
0000
0000
0000
0000
0000
0001
0000
0000
0000
0000
0000
0100
0000
0000
0001
0000
0000
0100
0000
0000
0010
0000
0000
1000
0000
0000
0100
0000
0000
,
0010
0000
0000
0000
0000
0000
0001
0000
1000
0000
0001
0000
1000
0000
0000
0000
0000
0000
0010
0000
0000
0000
0000
0000
0100
0000
0000
0000
0000
0000
0001
0000
0000
0010
0000
0000
0001
0000
0000
1000
0000
0000
0100
0000
0000
1000
0000
0000
,
0010
0000
0000
0000
0000
0000
0100
0000
0001
0000
0100
0000
0001
0000
0000
0000
0000
0000
0010
0000
0000
0000
0000
0000
0100
0000
0000
0000
0000
0000
1000
0000
0000
0100
0000
0000
0010
0000
0000
0001
0000
0000
0100
0000
0000
0010
0000
0000
,
1000
0000
0001
0100
0010
1000
0100
0010
0100
1000
0001
0100
0010
0000
0000
0000
,
1010
0000
0000
0001
0101
0000
0000
0000
,
1001
0000
0000
1000
1100
0000
0010
0000
,
1001
0000
0000
0000
0000
0000
0001
0100
0001
0000
0000
0000
0000
0000
1000
0100
,
0010
0000
0000
0000
0011
0000
0000
0000
0001
1000
0001
1000
0010
0000
0000
0000
,
0101
0000
1000
0000
0001
0000
1010
0000
0000
0000
0001
1000
0100
0010
0001
0000
,
0011
0000
1000
0000
0001
0000
1100
0000
0000
0000
1000
0100
0010
0100
0010
0000
,
0011
0000
0000
0110
0000
0000
1100
0000
1001
0000
0000
0110
0000
0000
0001
0100
,
0010
0000
0000
1010
0000
0000
1001
0000
0001
0100
0010
1000
0010
0000
0000
0010
,
0100
0001
0010
0000
0100
0000
1000
0000
0010
0000
0100
0000
0001
0000
1000
0001
,
1000
0000
0000
0000
0001
0000
0100
0000
0000
0000
0010
0000
1000
0000
0200
0000
0000
0000
0000
0000
0300
0000
0000
0000
0010
0000
0001
0000
0100
0000
0001
1000
,
0001
0000
0000
0000
1000
0000
0100
0000
0001
0000
0100
0000
1000
0000
0001
0000
0100
0000
0001
0000
1000
0000
0010
1000
0001
1000
0100
0010
0001
0000
0000
0000
,
1001
0001
1000
1100
0000
0010
0001
0100
,
0110
0010
1000
1001
0000
0001
0100
1000
,
1100
0000
0100
0000
0010
0000
0110
0000
0100
0000
0000
0001
0000
0000
1000
0000
,
0010
0100
0001
0010
0100
1000
0010
0100
0001
0000
0000
0101
0000
0000
1000
0001
,
1000
0010
0001
0010
0100
1000
0100
0002
,
0010
0000
1000
0103
0001
0010
0001
0100
,
0101
0100
0010
1000
0100
0001
0100
0020
,
1000
0000
0100
0000
0001
0000
1030
0000
0010
0000
0001
0100
0010
1000
0100
0010
,
0001
0000
0100
0010
1000
0000
0001
1000
0100
0010
0001
0010
0100
0000
2200
0000
,
0000
0000
0000
0000
0000
0000
0000
0000
0000
0000
3300
0000
0000
0000
0000
0000
0000
0000
0000
0000
0000
0000
0000
0000
1000
0000
0000
0000
0000
0000
0000
0000
0000
0010
0000
0000
0000
0000
0000
0000
0000
0000
0100
0000
0000
0001
0000
0000
,
0100
0000
0010
1000
0100
0010
0001
0100
0010
0000
1000
0001
0100
0001
1000
0100
,
0010
0000
0100
1000
0001
1000
0010
0100
0001
0000
0010
0001
1000
0010
0100
0001
,
1000
0000
0000
0000
0000
0000
0100
0000
0010
0000
0100
0000
0010
0000
0000
0000
0000
0000
0001
0000
0000
0000
0000
0000
1000
0000
0000
0000
0000
0000
0010
0000
0000
0000
0000
0000
0100
0000
0000
0001
0000
0000
0010
0000
0000
0001
0000
0000
,
1000
0000
0010
0000
0001
0000
0010
0000
0100
0000
0001
0000
0010
0100
1000
0100
,
0010
0000
0000
0000
0000
0000
0001
0000
1000
0000
0001
0000
1000
0000
0000
0000
0000
0000
0010
0000
0000
0000
0000
0000
0100
0000
0000
0000
0000
0000
0001
0000
0000
0000
0000
0000
1000
0000
0000
0100
0000
0000
0010
0000
0000
0001
0000
0000
,
0100
0001
1000
0010
1000
0000
0100
0000
0010
0000
0001
1000
0001
0100
0010
0000
,
1000
0100
1000
0010
1000
0100
0010
0001
1000
0001
0100
0001
1000
0010
0100
0010
,
1000
0100
1000
0010
0100
0001
0010
0001
1000
0001
1000
0001
1000
0001
1000
0001
,
1000
0000
0000
0000
0001
0100
1000
0000
0000
0000
1000
0100
0001
0000
0000
0000
,
1000
0100
0001
0000
0000
0000
0001
0100
1000
0000
0001
0000
1000
0010
0200
0000
,
0000
0000
0000
0000
0000
0000
0000
0000
0000
0000
0000
0000
0000
0300
0000
0000
0000
0000
0000
0000
0000
0000
0000
0000
0000
0000
0000
0000
0000
0000
0000
0000
;

//--------------- dance-double - forcednature ----------------
#NOTES:
     dance-double:
     forcednature:
     Easy:
     11:
     0,0,0,0,0:
00000000
00000000
00000000
00000000
,
00000000
00000000
00000000
00000000
,
00000000
00000000
00000000
00000000
,
00001000
00010000
00001000
00010000
00000000
00000100
00000010
00000200
,
00000000
00000020
00000000
00000000
,
00000000
00000030
00000000
00000300
,
00001000
00001000
00000001
00000001
,
00000100
00000000
00000010
00001000
00000010
00001000
00000010
00000000
,
00010000
00010000
00001000
00001000
,
00100000
00000000
00100000
00000000
01000000
10000000
01000000
10000000
,
01000000
01000000
00100000
00100000
,
00001000
00000000
00001000
00000000
00010000
00000010
00010000
00000010
,
00010000
00001000
00000000
00100000
00000000
00010000
00000000
01000000
,
00000000
00100000
10000000
00100000
10000000
00100000
00000000
00000000
,
01000000
00000000
00000000
00002000
00000000
00000000
00003000
00000000
,
00010000
00000000
00000000
00000200
00000000
00000000
00000300
00000000
,
00000010
00000010
00000001
00000001
,
00000200
00000000
00000000
00000300
00000000
00000010
00000000
00000000
,
00010000
00000000
00000000
00001000
00000000
00000000
00100000
00000000
,
01000000
00000000
00000000
20000000
00000000
00000000
30000000
00000000
,
00010000
00000000
00000000
00000000
00100000
00000000
00000000
00000000
00001000
00000000
00000000
00010000
00000000
00000000
00001000
00000000
,
00010000
00000000
00000100
00000000
00000020
00000000
00000000
00000030
,
00000001
00000000
00000100
00000010
00000000
00000000
00001000
00000000
,
00000100
00000000
00010000
00001000
00000000
00000000
00100000
00000000
,
01000000
10000000
00100000
00010000
,
00001000
00000000
00010000
00000100
00000000
00001000
00000100
00000000
,
00001000
00000000
00000000
00000001
00000000
00000000
00001001
00000000
00000000
00000000
00000000
00000000
00000000
00000000
00000000
00000000
,
00000100
00000000
00000000
00000010
00000000
00000000
00000110
00000000
00000000
00000000
00000000
00000000
00000000
00000000
00000000
00000000
,
00010000
00000000
00000000
00000000
00001000
00000000
00000000
00000000
01000000
00000000
00000000
00100000
00000000
00000000
01000000
00000000
,
00200000
00000000
01000000
00000000
01000000
01000000
01300000
00000000
,
00020000
00000000
00230000
00000000
,
00302000
00000000
00013000
00000100
,
00000010
00000010
00000100
00000100
,
00001000
00000001
00001001
00000000
,
00000001
00000000
00000001
00000100
00000000
00000100
00000010
00000000
,
00010000
00000000
00001000
00100000
00000000
00100000
01000000
00000000
,
10000000
00000000
00000000
00010000
00000000
00000000
00010000
00000000
00100000
00000000
00000000
01000000
00000000
00000000
01000000
00000000
,
10000000
00000000
00000000
00010000
00000000
00000000
10010000
00000000
00000000
00000000
00000000
00000000
00001000
00000000
00000000
00001000
,
00000000
00001000
00000000
00000000
00000000
00000000
00000000
00000000
,
00010000
00000000
00000100
00001000
00000000
00001000
00000001
00000000
,
00000100
00000000
00000010
00001000
00000000
00001000
00000100
00000000
,
00010000
00000000
00001000
00100000
00000000
00100000
01000000
00000000
,
10000000
00010000
10000000
00010000
10000000
00000000
00100000
00000000
,
00010000
00000000
00001000
00000100
00000000
00000000
00000001
00000000
,
00001000
00000000
00000100
00010000
00000000
00000000
00000010
00000000
,
00001000
00000000
00000100
00000010
00000000
00000000
00000001
00000000
,
00000100
00000000
00000000
00000000
00000010
00000000
00000000
00000000
00010000
00000000
00000000
00010000
00000000
00000000
00010000
00000000
,
00001000
00000000
00100000
01000000
00000000
01000000
10000000
00000000
,
00010000
00000000
00100000
00001000
00000000
00001000
00010000
00000000
,
00000100
00000000
00000010
00000001
00000000
00000001
00000100
00000000
,
00000010
00001000
00000010
00001000
00000010
00000000
00000100
00000000
,
00000110
00000000
00001100
00000000
00001000
00010000
00001000
00200000
,
00000000
00300000
00000000
00000000
,
00010000
00000000
10000000
01000000
10000000
00000000
00010000
00100000
,
00010000
00000000
00100000
00001000
00100000
00001000
00010000
00000000
,
00011000
00000000
00000000
00000000
00000110
00000000
00000000
00001001
,
00000000
00000001
00000000
00000001
00000000
00000000
00000100
00000000
,
00000110
00000000
00000000
00000000
00001010
00000000
00000000
00000100
,
00000000
00010000
00000000
00001000
00000000
01000000
00000000
00000000
,
00010000
10000000
00010000
00000000
00100000
00001000
00010000
00000000
,
00000100
00001000
00000001
00000000
00000010
00000100
00001000
00000000
,
00000010
00010000
00001000
00000000
00100000
00010000
01000000
00000000
,
00010000
10000000
00010000
10000000
00010000
10000000
00010000
00000000
,
00100000
00000000
00000000
00100000
00100000
00000000
00000000
00000000
,
01000000
00000000
00000000
00100000
00001000
00000000
00010000
00000000
,
00000100
00000000
00000000
00001000
00000001
00000000
00000000
00000100
,
00000010
00000000
00001000
00000000
00000100
00010000
00000100
00000000
,
00011000
00000000
00001000
00100000
00000000
00010000
01000000
00000000
,
10010000
00000000
10000000
01000000
00000000
00100000
00010000
00000000
,
01000000
00000000
00000000
00001000
00000000
00000000
00010000
00000000
00000100
00000000
00000000
00001000
00000000
00000000
00000010
00000000
,
00000100
00000000
00000000
00000010
00000000
00000000
00000110
00000000
00000000
00000000
00000000
00000000
00000001
00000000
00000000
00000001
,
00000000
00000001
00000000
00000000
00000000
00000000
00000000
00000000
,
00001000
00000000
00000000
00000100
00000000
00010000
00000000
00002000
00000000
00000000
00000000
00003000
00000000
00000000
00000000
00000000
,
00100000
00000000
00000000
01000000
00000000
10000000
00000000
00200000
00000000
00000000
00300000
00000000
10000000
00010000
10000000
00000000
,
00010000
00000000
00100000
00001000
00000000
00100000
00001000
00000000
,
00010000
00000000
00000100
00000010
00000000
00000100
00000010
00000000
,
00000001
00000000
00000100
00000010
00000000
00000100
00000010
00000000
,
00010000
00000000
00000000
00000000
00001000
00000000
00000000
00000000
00100000
00000000
00000000
00100000
00000000
00000000
00100000
00000000
,
01000000
00000000
10000000
00010000
00000000
10000000
00010000
00000000
,
00100000
00001000
00010000
00000010
,
00000100
00000000
00000001
00001000
00000000
00000001
00001000
00000000
,
00000100
00000000
00010000
00000000
00001000
00100000
00001000
00000000
,
01000000
00100000
01000000
00100000
01000000
00100000
01000000
00200000
,
00000000
00300000
00000000
00000000
,
10000000
00000000
00010000
01000000
00010000
00000000
00100000
00001000
,
00100000
00000000
00001000
00010000
00000100
00010000
00001000
00000000
,
00010000
00000010
00010000
00000010
00010000
00000010
00010000
00000000
,
00000001
00000100
00000001
00000100
00000001
00000100
00000001
00000000
,
00010000
00001000
00010000
00001000
00010000
00001000
00010000
00000000
,
00001000
00100000
00001000
00100000
00001000
00100000
00001000
00000000
,
10000000
00100000
01000000
00001000
,
00010000
00001000
00010000
00001000
00010000
00001000
00010000
00001000
,
00010000
00000000
00000000
00000100
00000000
00000000
00001000
00000000
,
00000000
00000001
00000000
00000000
00000100
00000000
00000000
00000220
,
00000000
00000000
00000000
00000000
00000000
00000000
00000000
00000000
00000000
00000000
00000000
00000000
00000000
00000330
00000000
00000000
00000000
00000000
00000000
00000000
00000000
00000000
00000000
00000000
00000000
00000000
00000000
00000000
00000000
00000000
00000000
00000000
;

//--------------- dance-double - forcednature ----------------
#NOTES:
     dance-double:
     forcednature:
     Medium:
     15:
     0,0,0,0,0:
00000000
00000000
00000000
00000000
,
00000000
00000000
00000000
00000000
,
00000000
00000000
00000000
00000000
,
00001000
00010000
01000000
00100000
00000000
00010000
10000000
20020000
,
00000000
00000000
00000000
00000000
00000000
00000000
00000000
00000000
00000000
30030000
00000000
00000000
00010000
00000000
00000000
00000000
10000000
00000000
00000000
00000000
00010000
00000000
00000000
00000000
10000000
00000000
00000000
00000000
00010000
00000000
00000000
00000000
10000000
00000000
00000000
00000000
00010000
00000000
00000000
00000000
10000000
00000000
00000000
00000000
00010000
00000000
00000000
00000000
,
10000000
00010000
10000000
00010000
00000000
00000000
00000000
00000000
00000000
10010000
00000000
00000000
,
00010000
00000000
00000000
01000000
00000000
00000000
00001000
00000000
00010000
00000000
00000000
00000100
00000000
00000000
00010000
00000000
,
00001000
00000000
00000010
00000001
00000100
00001000
00010000
01000000
,
10000000
00000000
00000000
00100000
00000000
00000000
00010000
00000000
00001000
00000000
00000000
00010000
00000000
00000000
00001000
00000000
,
00000010
00000000
00000000
00000100
00000000
00000000
00001000
00000000
00000001
00000000
00000100
00000010
00000000
00000100
00000010
00000000
,
00001000
00000000
00000000
00000100
00000000
00000000
00010000
00000000
00001000
00000000
00000000
01000000
00000000
00000000
00100000
00000000
,
10000000
00000000
00000000
00000000
01000000
00000000
00010000
00000000
00001000
00000000
00000100
00000000
00000001
00000010
00000001
00000000
,
00000100
00000010
00000000
00001010
00000000
00011000
00000000
00110000
,
00000000
10000000
00100000
00010000
00001000
00010000
00000000
00000100
,
00001000
00000100
00001000
00000200
00000000
00000000
00000300
00000010
,
00000001
00000010
00000001
00000020
00000000
00000000
00000030
00000100
,
00010000
00000000
00000000
00001000
00000000
00000000
01000000
00000000
00010000
00000000
00000000
00100000
00000000
00000000
01000000
00000000
,
20000000
00000000
00000000
30000000
00000000
00100000
00010000
00001000
,
00100000
01000000
00010000
00001000
00000000
00000100
00000001
00001000
,
00000100
00000010
00001000
00020000
00000000
00000000
00030000
00000000
,
00100000
00000000
10000000
00000000
01000000
00000000
00100000
00000000
00010000
00000000
00000000
01000000
00000000
00000000
00001000
00000000
,
00010000
00000100
00010000
00000000
00000000
00000000
00000010
00001000
00000010
00000000
00000100
00000000
00001000
00000000
00010000
00000000
,
00000100
00001000
00000010
00010000
00000000
00001000
00100000
01000000
,
00010000
01000000
10000000
00100000
00000000
01000000
00001000
00010000
,
00000100
00000000
00000000
00001000
00000000
00000000
00000001
00000000
00000100
00000000
00000000
00001000
00000000
00000000
00010000
00000000
,
01000000
00000000
10000000
00100000
00000000
01000000
00001000
00010000
,
00000100
00000000
00000000
00001000
00000000
00000000
00001100
00000000
00000000
00000000
00000001
00000000
00000100
00000000
00000010
00000000
,
00010000
00000000
00000000
00001000
00000000
00000000
00011000
00000000
00000000
00000000
00100000
00000000
00010000
00000000
01000000
00000000
,
00100000
00000000
00000000
00000000
10000000
00000000
00000000
00000000
01000000
00000000
00000000
00010000
00000000
00000000
00001000
00000000
,
00000100
00000000
00000001
00000000
00001000
00000000
00000100
00000000
00010000
00001000
00010000
00001000
00010000
00000000
00000000
00000000
,
00100000
00000000
00000000
01000000
00010000
00000000
00000000
00000100
,
00000001
00001000
00000100
00010000
00001000
00100000
01000000
10000000
,
10100000
00000000
00000000
00010000
00000000
00000000
10000000
00000000
01010000
00000000
00000000
00010000
00000000
00000000
00100000
00000000
,
00101000
00000000
00000000
00010100
00000000
00000000
00010000
00001000
00010000
00001000
00000000
00000000
,
00000010
00000001
00001000
00000100
00000000
00010000
00001000
00100000
,
01000000
00010000
01000000
10000000
00000000
00100000
00010000
00001000
,
00010000
00000000
00000000
00000100
00000000
00000000
00010100
00000000
00000100
00000000
00000000
00000010
00000000
00000000
00000110
00000000
,
00000001
00000000
00000000
00001000
00000000
00000000
00001001
00000000
00000000
00000000
00000000
00000000
00000110
00000000
00000000
00000110
,
00000000
00000110
00000001
00001000
00000001
00001000
00000001
00001000
,
00000001
00000000
00001000
00000100
00000000
00010000
00001000
00200000
,
00010000
00000000
00010000
00310000
00100000
01000000
00010000
01000000
,
10000000
00000000
00100000
00010000
00000000
00001000
00000100
00000002
,
00001000
00001000
00001000
00001003
00000001
00000000
00000010
00000000
,
00001100
00000000
00000001
00000100
00000000
00000010
00010000
00001000
,
00011000
00000000
00100000
01000000
00000000
10000000
00100000
00010000
,
00011000
00000000
00001000
00000000
00000010
00000000
00000001
00000000
00000100
00000000
00000000
00000010
00000000
00000000
00001000
00000000
,
00000100
00000000
00000010
00000000
00001000
00000000
00010000
00000000
00100000
00000000
00000000
01100000
00000000
00000000
10010000
00000000
,
10000000
00000000
00100000
00010000
00000000
00001000
00000100
00000020
,
00000001
00000000
00000001
00000031
00000000
00000010
00000100
00000001
,
00001000
00000000
00000100
00010000
00000000
00001000
01000000
00200000
,
00010000
00010000
00010000
00310000
00100000
00000000
00011000
00000000
,
10000000
00000000
01000000
00000000
00100000
00000000
00001000
00000000
00010000
00001000
00010000
00001000
00010000
00000000
00000200
00000000
,
00000000
00000000
00000000
00000000
00000000
00000000
00000000
00000000
00000000
00000000
00000300
00000000
00000000
00000000
00000000
00000000
00000000
00000000
00000000
00000000
00000000
00000000
00000000
00000000
00001000
00000000
00000000
00000000
00000000
00000000
00000000
00000000
00000000
00000001
00000000
00000000
00000000
00000000
00000000
00000000
00000000
00000000
00000100
00000000
00000000
00000010
00000000
00000000
,
00000100
00000000
00000001
00000010
00001000
00000010
00000100
00010000
,
00001000
01000000
00100000
00010000
00001000
00100000
01000000
10000000
,
00010000
00000000
01000000
00001000
00010000
00000100
00001000
00001010
,
00000000
00000000
00000101
00000000
00000000
00000000
00000001
00000000
00000100
00000000
00000000
00001000
00000000
00000000
00010000
00000000
,
01000000
00000000
10000000
00010000
01000000
00100000
00010000
00011000
,
00000000
00001000
00000100
00000010
00001000
00000100
00000010
00000000
,
00000001
00000000
00001000
00000100
00001000
00000000
00000010
00000000
00010000
00000000
00001000
00000000
00100000
00010000
00100000
00000000
,
01000000
00000000
10000000
00010000
10000000
00000000
00010000
00000000
00100000
00000000
00001000
00000000
00010000
00000010
00010000
00000000
,
00000100
00000000
00001000
00000010
00001000
00000000
00000100
00000000
00000010
00000000
00000100
00000000
00010000
00001000
00010000
00000000
,
00001000
00010000
00001000
00010000
00001000
00010000
00001000
00010000
00001000
00010000
00001000
00010000
00001000
00000000
00000000
00000000
,
00200000
00000000
00000000
00300000
,
02000000
00000000
00000000
03020000
00000000
00000000
00032000
00003000
,
00002200
00003300
00000022
00000033
,
00001001
00000000
00000000
00000000
00000110
00000000
00000000
00000000
00001000
00010000
00001000
00010000
00001000
00000000
00000000
00000000
,
10000000
00100000
00010000
00001000
00000000
00100000
01000000
00010000
,
00001000
00000100
00000010
00001000
00000000
00000001
00000010
00000100
,
00010000
00000000
00000000
00001000
00000000
00000000
00011000
00000000
00001000
00000000
00000000
00100000
00000000
00000000
00101000
00000000
,
10000000
00000000
00000000
00010000
00000000
00000000
10010000
00000000
00000000
00000000
00000000
00000000
01100000
00000000
00000000
01100000
,
00000000
01100000
00010000
00001000
00010000
00001000
00010000
00001000
,
00000010
00000000
00000100
00000100
00000000
00001000
00000001
00000200
00000000
00000000
00000300
00000000
00001000
00010000
00001000
00010000
,
00001000
00000000
00000000
00000000
00100000
00000000
00100000
00000000
00000000
00000000
01000000
00000000
10000000
00000000
00200000
00000000
00010000
00000000
00000000
00000000
00010000
00300000
00000000
00000000
00010000
00000000
00001000
00000000
00010000
00000000
00000000
00000000
,
00000100
00000000
00000010
00000001
00000000
00000100
00001000
00010000
,
01000000
00000000
10000000
00010000
00000000
01000000
00010000
00100000
,
01000000
00000000
00000000
00000000
10000000
00000000
00100000
00000000
00010000
00000000
00000000
00001000
00000000
00000000
00000010
00000000
,
00000001
00000000
00000100
00000000
00000010
00000000
00010000
00000000
00011000
00000000
00000000
00101000
00000000
00000000
00110000
00000000
,
00010000
00000000
10000000
01000000
00000000
00100000
00001000
00020000
,
01000000
00000000
01000000
01030000
00000000
00010000
00001000
00000010
,
00000001
00000000
00000100
00001000
00000000
00010000
00001000
00000020
,
00000001
00000001
00000001
00000031
00000010
00000000
00000110
00000000
,
00010000
00000000
00001000
00000000
00100000
00000000
01000000
00000000
00100000
00010000
00100000
00010000
00100000
00000000
00002000
00000000
,
00000000
00000000
00000000
00000000
00000000
00000000
00000000
00000000
00000000
00000000
00003000
00000000
00000000
00000000
00000000
00000000
00000000
00000000
00000000
00000000
00000000
00000000
00000000
00000000
00010000
00000000
00000000
00000000
00000000
00000000
00000000
00000000
00000000
00000100
00000000
00000000
00000000
00000000
00000000
00000000
00000000
00000000
00000010
00000000
00000000
00000000
00000000
00000000
,
00000001
00000000
00000000
00000000
00000100
00000010
00000100
00000010
00000100
00000000
00000000
00000000
00000001
00001000
00000001
00001000
,
00000001
00000000
00000000
00000000
00010000
00000100
00010000
00000100
00010000
00000000
00001000
00000000
00100000
00000000
01000000
00000000
,
00010000
00000000
00001000
01000000
00001000
00000000
00100000
00000000
00010000
00000000
01000000
00000000
00100000
10000000
00100000
00000000
,
01000000
00000000
00001000
00000000
00010000
00000000
00000100
00000000
00000010
00000000
00000001
00000000
00000100
00000010
00000100
00000000
,
00000001
00000000
00001000
00000100
00001000
00000000
00000010
00000000
00001000
00000000
00000100
00000000
00010000
00001000
00010000
00000000
,
00001000
00100000
00001000
00100000
00001000
00000000
00010000
00000000
01000000
00000000
10000000
00000000
00100000
00000000
00000000
00000000
,
00010000
00001000
00000100
00000010
00001000
00000001
00000010
00001000
,
00010000
00001000
00010000
00001000
00010000
00001000
00010000
00001000
00010000
00001000
00010000
00001000
00010000
00001000
00010000
00001000
,
00010000
00000000
00000000
01100000
00000000
00000000
00101000
00000000
,
00000000
00010010
00000000
00000000
00000001
00000010
00000100
00000220
,
00000000
00000000
00000000
00000000
00000000
00000000
00000000
00000000
00000000
00000000
00000000
00000000
00000000
00000330
00000000
00000000
00000000
00000000
00000000
00000000
00000000
00000000
00000000
00000000
00000000
00000000
00000000
00000000
00000000
00000000
00000000
00000000
;

//--------------- dance-double - forcednature ----------------
#NOTES:
     dance-double:
     forcednature:
     Hard:
     17:
     0,0,0,0,0:
00000000
00000000
00000000
00000000
,
00000000
00000000
00000000
00000000
,
00000000
00000000
00000000
00000000
,
00011000
00000000
00010000
00000000
00000010
00000000
00001010
00000000
00000000
00000000
00000001
00000010
00000001
00000010
00000002
00000000
,
00000000
00000000
00000000
00000000
00000000
00000000
00000000
00000000
00000000
00000003
00000000
00000000
00001000
00000000
00000000
00000000
00000100
00000000
00000000
00000000
00010000
00000000
00000000
00000000
00001000
00000000
00000000
00000000
01000000
00000000
00000000
00000000
00010000
00000000
00000000
00000000
00100000
00000000
00000000
00000000
01000000
00000000
00000000
00000000
10000000
00000000
00000000
00000000
,
00100000
00010000
00001000
00020000
00000000
00000000
00000000
00000000
00000000
00030100
00000000
00000000
,
00010000
00000000
00000000
00001000
00000000
00000000
00000100
00000010
00001000
00000000
00000000
00000001
00000000
00000000
00000010
00000001
,
00000100
00000000
00000000
00000000
00000010
00001000
00000010
00001000
00000001
00001000
00000100
00010000
00001000
00100000
01000000
10000000
,
00100000
00000000
00000000
01000000
00000000
00001000
00010000
00001000
00010000
00000000
01000000
00000000
10000000
00100000
10000000
00100000
,
01000000
00000000
00001000
00010000
00000000
00001000
00010000
00000000
00000100
00000000
00000010
00000001
00000010
00000001
00000100
00000010
,
00001000
00000000
00000000
00000001
00000000
00000000
00000100
00000010
00001000
00000000
00000000
00000100
00000000
00000000
00010000
00001000
,
00010000
00000000
00000000
00000000
00100000
01000000
00100000
01000000
00001000
00100000
00001000
00010000
00000100
00001000
00000010
00000000
,
00000100
00000101
00000000
00001100
00000000
00011000
00000000
01100000
,
00000000
00000000
10000000
00000000
01000000
00000000
00010000
00001000
00010000
00000000
00011000
00000000
00000000
00000000
00000001
00000000
,
00000100
00001000
00100000
02000000
00000000
00000000
03000000
10000000
,
00100000
00010000
00001000
00000200
00000000
00000000
00000300
00000001
,
00001000
00000000
00000000
00000100
00000000
00000000
00010000
00000000
01000000
00000000
00000000
00100000
00000000
00000000
00010000
00000000
,
20000000
00000000
00000000
00000000
00000000
00000000
30000000
00000000
00100000
01000000
00100000
01000000
00010000
00000000
00100000
00001000
,
00100000
00000000
00010000
00000000
00001000
00000000
00000100
00000000
00000000
00000000
00000010
00000000
00000001
00000000
00000100
00000010
,
00000100
00000000
00001000
00000000
00010000
00000000
01000000
00000000
00000000
00000000
10000000
00000000
00010000
00100000
00010000
00100000
,
00001000
00000000
00010000
00000000
00000010
00000000
00000100
00000001
00000100
00000000
00000000
00001100
00000000
00000000
00011000
00000000
,
00001000
00100000
00002000
00000000
00000000
00000000
00013000
00001000
00100000
00001000
00010000
00100000
01000000
00000000
00000000
00000000
,
00010000
00100000
00001000
00000010
00000001
00000100
00001000
00010000
,
00100000
10000000
01000000
00010000
00001000
00000100
00000001
00000010
,
00000100
00000000
00000000
00010000
00000000
00000000
00001000
00000000
00100000
00000000
00000000
00010000
00000000
00000000
01000000
00000000
,
10000000
00000000
00010000
00000000
00100000
00000000
01000000
00000000
00001000
00000000
00010000
00000100
00010000
00000100
00001000
00000000
,
00001100
00000000
00000000
00001001
00000000
00000000
00000011
00000000
00000000
00000000
00000001
00000000
00000100
00000010
00000100
00000010
,
00001000
00000000
00000000
00001100
00000000
00000000
00000110
00000000
00000100
00010000
00000100
00010000
00000100
00010000
00000100
00010000
,
00001000
00000000
00000000
00000000
00011000
00000000
00000000
00000000
01100000
00000000
00000000
10010000
00000000
00000000
00010000
00100000
,
00001000
00000000
00001000
00000000
00001000
00000000
00001000
00000000
00001000
00010000
00001000
00010000
00001000
00000000
00000100
00000000
,
00000020
00000000
00000000
00000001
00000001
00000000
00001030
00000010
,
00010000
00000000
00010000
00000000
00001000
00000000
01000000
00000000
00100000
00000000
00010000
00000000
00001000
00000000
00100000
01000000
,
00100000
00000000
00000000
10000000
00000000
00000000
00010000
00000000
01000000
00000000
00000000
00100000
00000000
00000000
00001000
00000000
,
00011000
00000000
00000000
00000011
00000000
00000000
00000001
00000100
00001000
00010000
00000000
00000000
,
00011000
00000000
00001000
00000000
00010000
00000000
00011000
00000000
00000000
00000000
10000000
01000000
10000000
01000000
00100000
00000000
,
01100000
00000000
00100000
00000000
01000000
00000000
01100000
00000000
10000000
00010000
01000000
00010000
00100000
00001000
00010000
00000100
,
00000010
00000000
00000000
00000110
00000000
00000000
00000110
00000000
00001001
00000000
00000000
00001001
00000000
00000000
00001001
00000000
,
00001100
00000000
00000000
00011000
00000000
00000000
02020000
00000000
00000000
00000000
03030000
00000000
01100000
00000000
00000000
01100000
,
00000000
01100000
00020000
00000000
00000000
00000000
00000000
00030000
,
10000000
01000000
00010000
00001000
00000100
00000001
00000010
00000100
,
00010000
00001000
01000000
00100000
00010000
00001000
00010000
00000100
,
00000010
00001000
00000001
00000100
00001000
00000010
00000100
00000001
,
00000100
00000000
00001000
00000000
00010000
00000000
00100000
00000000
10000000
00000000
00010000
01000000
00010000
01000000
00010000
01000000
,
00010000
00100000
00001000
00010000
00001000
00000010
00000100
00001000
,
00000001
00000000
00000100
00000000
00001000
00000000
00010000
00000000
00000100
00000000
00000010
00000000
00001000
00000000
00010000
00001000
,
00010000
00000000
00100000
10000000
00100000
00000000
01000000
00100000
01000000
00000000
00001000
00000000
00010000
00000000
00000100
00001000
,
00000100
00001000
00000100
00000010
00000100
00000010
00000001
00000010
00000001
00000000
00000000
00001001
00000000
00000000
00001001
00000000
,
00000001
00000010
00001000
00010000
00100000
10000000
01000000
00100000
,
00010000
01000000
00001000
00100000
00010000
00001000
00010000
00001000
,
00000100
00010000
00000010
00000100
00000001
00001000
00000100
00010000
,
01000000
00000000
00100000
00000000
00001000
00000000
00010000
00000000
00000010
00001000
00000010
00001000
00000001
00000100
00000001
00000100
,
00000010
00000000
00001000
00000100
00001000
00000000
00000010
00010000
00001000
00100000
00001000
00010000
00100000
00000000
02200000
00000000
,
00000000
00000000
00000000
03300000
00000000
00000000
00000000
00000000
10000000
00000000
00000000
01000000
00000000
00000000
00010000
00001000
,
00010000
00000000
00000100
00001000
00000100
00001000
00000001
00000010
00000001
00000000
00001000
00000010
00001000
00000010
00010000
00001000
,
00010000
00000000
00001000
00100000
00010000
01000000
00010000
00100000
00001000
00010000
00001000
00010000
00001000
00100000
01000000
10000000
,
00010000
00100000
00001000
00010000
00000100
00000010
00000001
00001001
,
00000000
00000000
10010000
00000000
10000000
00000000
00100000
00000000
00010000
00000000
00001000
00010000
00000000
00000100
00001000
00000100
,
00001000
00000010
00000100
00000001
00001000
00000100
00010000
01010000
,
00000000
00000000
01100000
00000000
10000000
00010000
10000000
00010000
00100000
00001000
00100000
00001000
00010000
00000000
00000000
00000000
,
00000100
00000000
00000010
00001000
00000010
00000000
00000001
00000000
00001000
00000000
00000010
00001000
00000100
00010000
00001000
01000000
,
00010000
00000000
00100000
10000000
00100000
00000000
00010000
00000000
01000000
00000000
00001000
00010000
00000100
00001000
00000001
00000010
,
00000100
00000000
00000010
00001000
00000010
00000000
00000100
00000000
00010000
00000000
00001000
01000000
00010000
00100000
01000000
10000000
,
00010000
00000000
01000000
00010000
00100000
00001000
00010000
00000010
00000100
00000010
00001000
00000001
00000010
00000000
00000000
00000000
,
00020100
00000000
00000000
01000000
01030000
00000000
00000000
00000000
,
20020000
00000000
30030000
00010000
10010000
00000000
00011000
00000000
,
00001100
00000000
00000000
00000000
00000000
00000000
00000001
00000010
00000001
00000000
00000000
00000000
00000000
00000000
00001000
00000100
,
00001000
00000000
00000000
00000000
00000010
00000000
00000000
00000000
00010000
00001000
00010000
00001000
00010000
00000000
00000000
00000000
,
10010000
00000000
10000000
00000000
00010000
00000000
10010000
00000000
00000000
00000000
00010000
00100000
00001000
00010000
00000100
00000000
,
00000110
00000000
00000010
00000000
00000100
00000000
00000110
00000000
00000000
00000000
00000001
00000100
00000010
00001000
00000001
00000000
,
00001001
00000000
00000000
00001001
00000000
00000000
00001001
00000000
00011000
00000000
00000000
00011000
00000000
00000000
00011000
00000000
,
10010000
00000000
00000000
10010000
00000000
00000000
20020000
00000000
00000000
00000000
30030000
00000000
00011000
00000000
00000000
00011000
,
00000000
00011000
00000020
00000000
00000000
00000000
00000000
00000030
,
00000100
00000000
00001000
00010000
00000000
01000000
10000000
00200000
00000000
00000000
00300000
00000000
00010000
00001000
00000100
00000001
,
00000010
00000000
00000000
00000000
00000100
00000000
00001000
00000000
00000000
00000000
00000001
00000000
00000010
00000000
00001000
00000000
00000010
00000000
00000001
00000000
00000100
00000000
00000010
00001000
00000010
00001000
00000010
00001000
00000010
00000000
00000000
00000000
,
00010000
00000010
00000100
00001000
00010000
00000100
00000010
00000001
,
00000100
00001000
00010000
01000000
10000000
00010000
00100000
00001000
,
00010000
00000000
00000100
00000000
00000010
00000000
00001000
00000000
00010000
00000000
00000000
00100000
00000000
00000000
10000000
00000000
,
00010000
01000000
00010000
01000000
00001000
00010000
00001000
00010000
00000100
00000000
00000000
00000110
00000000
00000000
00000110
00000000
,
00000001
00000010
00001000
00010000
00100000
10000000
01000000
00010000
,
00001000
00000100
00001000
00010000
01000000
10000000
00100000
00010000
,
00001000
00000100
00000001
00000010
00000100
00000001
00000100
00001000
,
00000010
00000000
00010000
00000000
00100000
00000000
00010000
00000000
00001000
00000000
00100000
00010000
10000000
01000000
00100000
00001000
,
00010000
00000000
00000100
00001000
00000100
00000000
00000010
00000001
00000100
00000010
00000100
00000001
00000010
00000000
00002002
00000000
,
00000000
00000000
00000000
00000000
00000000
00000000
00000000
00000000
00000000
00000000
00003003
00000000
00000000
00000000
00000000
00000000
00000000
00000000
00000000
00000000
00000000
00000000
00000000
00000000
00000001
00000000
00000000
00000000
00000000
00000000
00000000
00000000
00000000
00000010
00000000
00000000
00000000
00000000
00000000
00000000
00000000
00000000
00001000
00000000
00000000
00010000
00000000
00000000
,
00001000
00000000
00100000
01000000
10000000
00010000
00100000
01000000
10000000
00000000
00010000
00100000
00001000
00010000
00001000
00100000
,
00010000
00000000
01000000
00001000
00010000
00001000
00010000
00000100
00001000
00000000
00000001
00000100
00000001
00000100
00000010
00001000
,
00000010
00000000
00000100
00001000
00000100
00000000
00000010
00000000
00010000
00000000
00001000
00000000
00100000
00010000
00100000
00010000
,
01000000
00000000
10000000
00000000
01000000
00000000
00010000
00000000
00100000
00000000
00001000
00000000
00010000
00000010
00010000
00000010
,
00001000
00000000
00000100
00000001
00000100
00000000
00001000
00000000
00000010
00000000
00010000
00000000
00001000
00100000
00001000
00100000
,
00010000
10000000
00010000
10000000
00100000
00000000
00010000
00000000
00001000
00000000
00000010
00000100
00000010
00000100
00001000
00000000
,
00000001
00000000
00000100
00000000
00010000
00000000
01000000
00000000
00100000
00000000
10000000
00000000
01000000
00100000
01000000
00100000
,
00010000
00100000
00010000
00100000
00001000
00010000
00001000
00010000
00000010
00001000
00000010
00001000
00000010
00000100
00000010
00000100
,
00000001
00000000
00000000
00000000
00001000
00000100
00001000
00000000
00000000
00000000
00010000
00100000
00010000
00000000
00000000
00000000
,
00001000
00000010
00001000
00000000
00000000
00000000
00010000
01000000
00010000
00000000
10000000
00000000
00010000
00100000
00020000
00000000
,
00000000
00000000
00000000
00000000
00000000
00000000
00000000
00000000
00000000
00000000
00000000
00000000
00000000
00030000
00000000
00000000
00000000
00000000
00000000
00000000
00000000
00000000
00000000
00000000
00000000
00000000
00000000
00000000
00000000
00000000
00000000
00000000
;

//--------------- dance-double - forcednature ----------------
#NOTES:
     dance-double:
     forcednature:
     Challenge:
     19:
     0,0,0,0,0:
00000000
00000000
00000000
00000000
,
00000000
00000000
00000000
00000000
,
00000000
00000000
00000000
00000000
,
00011000
00000000
01000000
00000000
00100000
00000000
10010000
00000000
00000000
00000000
10000000
01000000
00100000
00010000
02000000
00000000
,
00000000
00000000
00000000
00000000
00000000
00000000
00000000
00000000
00000000
03000000
00000000
00000000
00010000
00000000
00000000
00000000
00100000
00000000
00000000
00000000
00010000
00000000
00000000
00000000
00001000
00000000
00000000
00000000
00000100
00000000
00000000
00000000
00000010
00000000
00000000
00000000
00000001
00000000
00000000
00000000
00000100
00000000
00000000
00000000
00001000
00000000
00000000
00000000
,
00010000
01000000
10000000
00100000
00000000
00000000
00000000
00000000
00000000
01000000
00000000
00000000
,
00001000
00000000
00000000
00010000
00000000
00000000
00000100
00000010
00000001
00000000
00000000
00000100
00000000
00000000
00000010
00001000
,
00000100
00000000
00000000
00000000
00010000
00001000
00010000
00100000
10000000
01000000
00100000
00010000
01000000
00010000
00001000
00000100
,
00000010
00000000
00000001
00001000
00000000
00000100
00001000
00010000
00100000
00000000
01000000
10000000
00100000
01000000
00010000
00001000
,
00000100
00000000
00010000
00000010
00000000
00000001
00001000
00000000
00000100
00000000
00000001
00000010
00001000
00010000
00100000
10000000
,
01000000
00000000
00000000
00010000
00000000
00000000
00001000
00010000
00100000
00000000
00000000
10000000
00000000
00000000
01000000
00010000
,
00001000
00000000
00000000
00000000
00000010
00000001
00000100
00000010
00001000
00000100
00000001
00000100
00000010
00000100
00001000
00000000
,
00010000
01100000
00000000
10010000
00000000
00011000
00000000
00001001
,
00000000
00000000
00000110
00000000
00001001
00000000
00000001
00000100
00000001
00000000
00001000
00000000
00000000
00000000
00001000
00000000
,
00001100
00000100
00000010
00020000
00000000
00000000
00030000
10000000
,
00100000
00010000
00001000
00000020
00000000
00000000
00000030
00000001
,
00000100
00000000
00000000
00001000
00000000
00000000
00010000
00000000
00100000
00000000
00000000
00010000
00000000
00000000
00001000
00000000
,
01000000
00000000
10000000
00000000
01000000
00000000
00010000
00000000
00100000
00010000
00001000
00000100
00000010
00000000
00000001
00001000
,
00000001
00000000
00000100
00000000
00001000
00000000
00010000
00000000
00000000
00000000
00100000
00000000
10000000
00000000
01000000
00100000
,
00010000
00000000
00001000
00000000
00000010
00000000
00000001
00000000
00000000
00000000
00001000
00000000
00010000
00000100
00010000
01000000
,
00100000
00000000
01000000
00000000
10000000
00000000
00010000
01000000
00001000
00000000
00000000
00011000
00000000
00000000
00000110
00000000
,
00000001
00000010
00000001
00000000
00000000
00000000
00001000
00000100
00001000
00010000
00100000
00010000
00001000
00000000
00000100
00010000
,
01000000
00000000
00100000
00000000
10000000
00000000
00100000
00000000
00010000
00000000
01000000
00000000
00001000
00010000
00000100
00000000
,
00000010
00000000
00000001
00000000
00000100
00000000
00010000
00000000
01000000
00000000
00100000
00000000
10000000
01000000
00010000
00000000
,
01000000
00000000
00010000
00001000
00000000
00000000
00000100
00000000
00000001
00000000
00001000
00010000
00000000
00000000
01000000
00000000
,
00100000
00000000
10000000
00000000
01000000
00000000
00010000
00000000
00000100
00000000
00000010
00000001
00000100
00000010
00001000
00000000
,
00001001
00000000
00000000
00010100
00000000
00000000
01001000
00000000
00000000
00000000
10010000
00000000
10000000
01000000
00010000
00001000
,
00100000
00000000
00000000
00011000
00000000
00000000
00000110
00000000
00000001
00000010
00000100
00001000
00000010
00000100
00001000
00010000
,
00100000
00000000
01000000
00000000
10000000
00000000
00010000
00000000
00110000
00000000
00000000
00001000
00000000
00000000
00000010
00000001
,
00000100
00000000
00010000
00000000
01000000
00000000
10000000
00000000
00010000
00100000
00001000
00000010
00010000
00000000
00000010
00000000
,
00001001
00000000
00011000
00000000
11000000
00000000
10000000
01000000
,
00020000
00000000
00000010
00000000
00001000
00000000
01030000
00000000
00010000
00000000
00001000
00000000
00000100
00000000
00000001
00000010
,
00001000
00000000
00100000
01000000
00100000
01000000
00100000
00000000
00001000
00000000
00000100
00000001
00000100
00000001
00000100
00000000
,
00000011
00000000
00000000
00011000
00000000
00000000
00000001
00000100
00010000
01000000
00000000
00000000
,
11000000
00000000
00010000
00000000
00001000
00000000
00000011
00000000
00000000
00000000
00000001
00010000
00001000
00000100
00000010
00000000
,
00000101
00000000
00001000
00000000
00010000
00000000
10100000
00000000
10000000
00010000
01000000
00100000
00010000
00001000
00100000
00010000
,
10000000
00000000
00000000
01010000
00000000
00000000
00001100
00000000
00001001
00000000
00000000
00001010
00000000
00000000
01000000
00010000
,
00100000
00000000
00000000
10010000
00000000
00000000
00011000
00000000
00001000
00010000
00000100
00000010
00001000
00000000
00000000
00001000
,
00010000
00100000
00001000
00000000
00000010
00000000
00000010
00000000
00010000
00000000
00010000
00000000
01000000
00000000
01000000
00000000
,
10020000
00031000
00000100
00000010
00000001
00000100
00001000
00200000
,
10000000
00000000
00010000
00301000
00100000
00010000
00001000
00000010
,
00000110
00000001
00001000
00000100
00010000
00100000
10000000
02000000
,
00001000
00000000
00010000
00000000
10000000
00000000
03100000
00000000
01000000
00000000
00100000
00010000
00001000
00000100
00010000
00001000
,
00000100
00000001
00010000
00011000
00000000
10000000
00010000
00001000
,
00110000
00000000
00001000
00000000
00000010
00000000
01001000
00000000
00000000
00000000
00000001
00000000
00001000
00000000
00000100
00000010
,
00001000
00000000
00010000
00100000
01000000
00000000
00010000
00100000
00001000
00000000
00000100
00000000
00000001
00000000
00001000
00000100
,
00001000
00010000
01000000
10000000
00010000
00100000
01000000
00001000
00010000
00000000
00000000
01100000
00000000
00000000
00001000
00010000
,
00000010
00000100
00000001
00000010
00010000
00100000
01000000
20000000
,
00100000
00000000
00010000
30001000
10000000
00010000
01000000
00001000
,
00001100
00000100
00000001
00001000
00000100
00010000
00100000
00002000
,
00000100
00000000
00010000
00000000
00000100
00000000
00003001
00000000
00001000
00000100
00001000
00010000
01000000
00100000
10000000
01000000
,
00010000
00000000
00001000
00000010
00000001
00000000
00000100
00000010
00001000
00010000
01000000
00100000
10000000
00000000
00202000
00000000
,
00000000
00000000
00000000
00000000
00000000
00000000
00000000
00000000
00000000
00000000
00303000
00000000
00000000
00000000
00000000
00000000
00000000
00000000
00000000
00000000
00000000
00000000
00000000
00000000
00000001
00000000
00000000
00000000
00000000
00000000
00000000
00000000
00000000
00000100
00000000
00000000
00000000
00000000
00000000
00000000
00000000
00000000
00001000
00000000
00000000
00010000
00000000
00000000
,
00100000
00000000
01000000
00010000
00100000
00001000
00000010
00000100
00001000
00000000
00000001
00000100
00001000
00010000
01000000
00100000
,
00001000
00000000
10000000
00100000
00010000
00001000
01000000
00010000
00001000
00100000
00001000
00000010
00010000
00000100
00001000
01000000
,
00010000
00000000
01000000
10000000
00100000
00010000
00001000
00000010
00000001
00000000
00000100
00000000
00001000
00010000
00001000
00000000
,
00000000
00000000
11000000
00000000
00010000
00100000
00010000
00001000
00000100
00000000
00000010
00000001
00000000
00000100
00010000
00001000
,
00000010
00000000
00010000
00001000
00100000
01000000
10000000
00010000
01000000
00000000
00001000
00000000
00000010
00000000
00000110
00000000
,
00000000
00000000
00010000
00000000
01000000
10000000
00100000
00010000
00001000
00000100
00000001
00000010
00001000
00000000
00000000
00000000
,
00000010
00000000
00000000
00000000
00000000
00000000
00000001
00000000
00000100
00000000
00000010
00000000
00001000
00000000
00000000
00000000
00000000
00000000
00000100
00000000
00000000
00000000
00000000
00000000
00010000
00000000
00000000
00000000
00000000
00000000
01000000
00000000
00000000
10000000
00000000
00000000
00010000
00000000
00000000
01000000
00000000
00000000
00100000
00000000
00000000
00010000
00000000
00000000
,
00001000
00000000
00000000
00000000
00000000
00000000
00100000
00000000
01000000
00000000
10000000
00000000
00010000
00000000
00000000
00000000
00000000
00000000
00001000
00000000
00000000
00000000
00000000
00000000
00000100
00000000
00000000
00000000
00000000
00000000
00000010
00000000
00000000
00000001
00000000
00000000
00001000
00000000
00000000
00000010
00000000
00000000
00000100
00000000
00000000
00001000
00000000
00000000
,
00010000
00000000
00000000
00000000
00000000
00000000
01000000
00000000
00010000
00000000
00001000
00000000
00000100
00000000
00000000
00000000
00000000
00000000
00000010
00000000
00000000
00000000
00000000
00000000
00001000
00000000
00000000
00000000
00000000
00000000
00000100
00000000
00000000
00010000
00000000
00000000
00001000
00000000
00000000
00000010
00000000
00000000
00000001
00000000
00000000
00000100
00000000
00000000
,
00000010
00000000
00000100
00001000
00010000
00100000
00010000
00001000
01000000
00100000
00010000
00001000
00000100
00000000
00000000
00000000
,
00000101
00000000
00000000
00010000
00011000
00000000
00000000
00000000
,
11000000
00000000
00000000
00001000
00011000
00000000
00100000
00000000
,
00011000
00000000
00000000
00000000
00000000
00000000
10000000
01000000
00010000
00000000
00000000
00000000
00000000
00000000
00000001
00000100
,
00001000
00000000
00000000
00000000
00011000
00000000
00000000
00000000
00010000
00001000
00010000
00001000
00010000
00000000
00000000
00000000
,
10010000
00000000
00001000
00000000
00010000
00000000
00001001
00000000
00000000
00000000
00000001
00000100
00000010
00000001
00000010
00000000
,
00001001
00000000
00010000
00000000
00001000
00000000
10010000
00000000
00000000
00000000
10000000
01000000
00100000
00010000
01000000
00000000
,
10100000
00000000
00000000
00110000
00000000
00000000
00011000
00000000
00010100
00000000
00000000
00000110
00000000
00000000
00000001
00000100
,
00000010
00000000
00000000
00011000
00000000
00000000
10100000
00000000
10000000
01000000
00010000
00001000
00000100
00000000
00000000
00000100
,
00000001
00000010
00000100
00000000
00010000
00000000
01000000
00000000
10000000
00000000
00100000
00000000
01000000
00000000
00010000
00001000
,
00000010
00000000
00000000
00000000
00000100
00000000
00000001
00000000
00000000
00000000
00010000
00000000
01000000
00000000
00200000
00000000
00000000
00000000
00000000
00000000
00300000
00000000
00000000
00000000
10000000
00000000
00100000
00000000
00010000
00000000
01000000
00010000
,
01000000
00000000
00000000
00000000
00000100
00000000
00001000
00000000
00000010
00000000
00000100
00000000
00010000
00000000
00001000
00000000
00100000
00000000
00010000
00000000
00001000
00000000
00100000
01000000
10000000
00010000
01000000
00100000
00001000
00000000
00000000
00000000
,
00011000
01000000
00100000
00011000
00000000
00000010
00000001
00000100
,
00001010
00000100
00010000
01100000
00000000
10000000
01000000
00010000
,
00011000
00000000
00001000
00000000
00000010
00000000
00000110
00000000
00000001
00000000
00000000
00001000
00000000
00000000
00000100
00000000
,
00010000
01000000
10000000
00100000
00010000
00001000
00010000
01000000
10000000
00000000
00000000
01010000
00000000
00000000
00001000
00010000
,
00000100
00000010
00000001
00000100
00001000
00010000
01000000
20000000
,
00100000
00000000
00010000
31000000
10000000
00100000
00010000
00001000
,
00011000
00010000
00000010
00000100
00000001
00001000
00000100
00020000
,
00001000
00000000
00100000
00000000
00001000
00000000
01030000
00000000
00010000
00000000
00001000
00000100
00000010
00010000
00001000
00100000
,
01000000
00000000
10000000
00100000
00010000
00000000
00001000
00000100
00000001
00001000
00000100
00000010
00000001
00000000
00002002
00000000
,
00000000
00000000
00000000
00000000
00000000
00000000
00000000
00000000
00000000
00000000
00003003
00000000
00000000
00000000
00000000
00000000
00000000
00000000
00000000
00000000
00000000
00000000
00000000
00000000
00000001
00000000
00000000
00000000
00000000
00000000
00000000
00000000
00000000
00000100
00000000
00000000
00000000
00000000
00000000
00000000
00000000
00000000
00000010
00000000
00000000
00001000
00000000
00000000
,
00000100
00000000
00010000
01000000
10000000
00100000
00010000
00001000
00100000
00000000
00001000
00010000
00001000
00000010
00000001
00001000
,
00000100
00000000
00010000
00001000
00000100
00000010
00001000
00000100
00000001
00000000
00001000
00000010
00000100
00010000
00100000
10000000
,
01000000
00000000
00000000
00000000
00000000
00000000
00010000
00000000
00100000
00000000
00001000
00000000
01000000
00000000
00000000
00000000
00000000
00000000
00010000
00000000
00000000
00000000
00000000
00000000
00001000
00000000
00000000
00000000
00000000
00000000
00000100
00000000
00000000
00000000
00000000
00000000
00000010
00000000
00000000
00000001
00000000
00000000
00000100
00000000
00000000
00000001
00000000
00000000
,
00000010
00000000
00000100
00000000
00010000
00000000
01000000
00000000
10000000
00000000
00010000
00000000
10000000
00100000
00010000
00100000
,
01000000
00000000
00000000
00000000
00000000
00000000
00010000
00000000
00100000
00000000
00001000
00000000
00010000
00000000
00000000
00000000
00000000
00000000
00000100
00000000
00000000
00000000
00000000
00000000
00000010
00000000
00000000
00000000
00000000
00000000
00000001
00000000
00000000
00000000
00000000
00000000
00001000
00000000
00000000
00000100
00000000
00000000
00000010
00000000
00000000
00001000
00000000
00000000
,
00010000
00100000
10000000
01000000
00100000
00000000
00001000
00000000
00010000
00000000
00000100
00001000
00000001
00000100
00000010
00000000
,
00001000
00000100
00001000
00000010
00010000
00001000
00100000
01000000
10000000
00010000
00100000
00010000
00001000
00000010
00001000
00000100
,
00000010
00000001
00000100
00001000
00010000
01000000
10000000
00100000
01000000
00100000
01000000
00100000
01000000
00100000
01000000
00100000
,
01000000
00000000
00000000
00000000
10000000
01000000
10000000
00000000
00000000
00000000
00000001
00000100
00000001
00000000
00000000
00000000
,
10000000
00100000
10000000
00000000
00000000
00000000
00000001
00000010
00000001
00000000
00000100
00000000
00001000
00010000
02000000
00000000
,
00000000
00000000
00000000
00000000
00000000
00000000
00000000
00000000
00000000
00000000
00000000
00000000
00000000
03000000
00000000
00000000
00000000
00000000
00000000
00000000
00000000
00000000
00000000
00000000
00000000
00000000
00000000
00000000
00000000
00000000
00000000
00000000
;
