#TITLE:Sharkbait;
#SUBTITLE:;
#ARTIST:rhyki;
#TITLETRANSLIT:;
#SUBTITLETRANSLIT:;
#ARTISTTRANSLIT:;
#GENRE:;
#CREDIT:BadWolf;
#BANNER:Sharkbait.png;
#BACKGROUND:Sharkbait-bg.png;
#LYRICSPATH:;
#CDTITLE:cdtitle.png;
#MUSIC:Sharkbait.ogg;
#OFFSET:0.000000;
#SAMPLESTART:87.090790;
#SAMPLELENGTH:12.347107;
#SELECTABLE:YES;
#DISPLAYBPM:78.000000:155.000000;
#BPMS:0.000000=155.000000
,97.000000=77.500000
,110.000000=155.000000
,201.000000=77.500000
,203.000000=155.000000
,218.000000=77.500000
,218.500000=155.000000
,246.000000=77.500000
,247.000000=155.000000
,251.000000=232.500000
,253.000000=155.000000
,259.000000=232.500000
,261.000000=155.000000
;
#STOPS:28.000000=1.161000,
36.000000=0.194000,
43.500000=0.194000,
50.750000=0.387000,
75.000000=0.194000,
82.500000=0.194000,
140.000000=0.387000,
218.000000=0.387000,
231.500000=0.581000,
251.000000=0.086000,
251.666672=0.086000,
252.333328=0.086000,
259.000000=0.086000,
259.666656=0.086000,
260.333344=0.086000
;
#BGCHANGES:;
#KEYSOUNDS:;
#ATTACKS:;

//---------------dance-single - ----------------
#NOTES:
     dance-single:
     :
     Hard:
     15:
     0.647722,0.793459,0.612011,0.146538,0.362035,526.000000,455.000000,71.000000,17.000000,17.000000,0.000000,0.647722,0.793459,0.612011,0.146538,0.362035,526.000000,455.000000,71.000000,17.000000,17.000000,0.000000:
0000
0000
0000
0000
,
0000
0000
0000
0000
,
0000
0000
0000
0000
,
0000
0000
0000
0000
,
1000
0000
0001
0000
1000
0000
0100
0010
,
0001
0000
0000
0000
1000
0000
0000
0000
0001
0000
0000
0100
0010
0000
1000
0001
,
1000
0001
1000
0001
1000
0001
1000
0001
0010
0000
0000
0100
0000
0000
1000
0000
,
M000
0000
1001
0000
0001
0100
1000
0100
,
0010
0100
1000
0100
0001
0010
0100
1000
,
0M01
1001
0000
1100
0000
1010
0000
0011
,
0000
0000
0101
0000
0001
1000
0001
0000
0010
0000
0100
0000
1000
0001
10M0
0000
,
1001
0101
0011
1010
,
1100
0000
1000
0000
0010
0000
0001
0000
0010
1000
0001
1M00
1001
0000
0000
0000
,
1000
0010
0001
0010
1000
0000
0002
0000
,
0013
0100
1000
0010
1000
0000
0001
0000
,
0010
0001
1000
0001
0010
0000
0000
0000
0100
0000
1000
0010
1000
0000
0000
0000
,
1100
0101
1001
0110
,
0001
0000
1000
0100
0010
0000
0100
1000
0001
1000
0001
0000
0100
0000
0010
1000
,
0001
0000
0010
0100
1000
0000
0010
0100
0001
0100
0000
0001
1M00
0000
0001
0000
,
0010
0000
1000
0000
0010
0000
0001
0000
0001
0000
0100
0010
0100
0000
0001
0000
,
1000
0000
0100
0000
0010
0000
0100
1000
0000
1000
00M1
0000
0101
0000
0000
1010
,
0000
0000
1001
0000
0000
0000
1000
0100
0010
0000
0001
0000
1001
0000
0000
1010
,
0000
0000
0101
0000
0001
0010
0100
1000
0001
0000
1000
0000
1010
0000
0000
0110
,
0000
0000
0101
0000
0000
0001
1000
0000
0100
0000
0010
0000
0002
0000
0000
0000
,
0000
2M03
0010
0100
,
0001
0000
3010
0000
0001
0000
1001
1000
,
0000
1000
0000
0000
1010
0000
0010
0000
0100
0000
0000
0000
0101
0000
0001
0000
,
0000
0001
0000
0000
1001
0000
1000
0000
0M01
0000
0010
0000
0100
1000
0100
0000
,
1000
0010
0001
0010
0100
0001
1000
0100
,
0010
1000
0010
0001
1000
0100
0010
0001
,
0100
0010
1000
0001
0010
0100
1000
0001
,
1000
0010
0100
0001
2000
0000
0100
0000
,
0010
3001
0002
0010
,
0100
0000
1003
0000
0001
0000
0100
0001
,
1000
0001
0100
0000
2002
0000
0000
0000
,
3MM3
0000
0000
0000
1000
0000
0100
0000
0010
0001
0010
0000
0100
0000
1000
0000
,
0001
1000
0001
0000
1000
0010
1000
0000
0001
0100
0001
0000
1000
0000
0100
0000
,
0001
0000
0100
0000
1000
0010
1000
0000
0001
0100
0001
0000
1000
0100
1000
0000
,
0001
0010
0001
0000
2002
0000
0000
0000
0000
0000
0000
0000
0000
0000
3003
0000
,
1000
0000
0001
0100
0001
0100
0010
1000
,
0010
1000
0100
0010
0100
0010
0001
1000
,
0001
1000
0001
0010
0100
1000
0001
0010
,
0100
0000
1000
0000
0002
0000
0000
0000
0000
0000
0000
0000
1003
0000
0001
1000
,
0001
1000
1010
0000
0110
0000
0101
0000
,
0011
0000
0001
0000
1001
0000
0000
0000
1100
0000
0000
0000
0101
0000
0001
1000
,
0001
1000
1100
1000
1100
0000
0110
0000
,
0011
0000
0001
0000
1001
0000
0000
0000
0110
0000
0000
1010
0000
0000
1000
0000
,
0001
0000
1001
1001
1001
0000
1100
0000
,
0101
0000
0000
0000
0011
0000
0000
0000
1010
0000
0000
0001
1000
0000
0100
0000
,
0010
0001
1000
0000
1010
0000
0000
0110
0000
0000
0101
0000
0000
0001
0010
0100
,
1000
0000
0001
1000
0M02
0000
0000
0000
2003
0000
3020
0000
103M
0000
0100
0000
,
0010
0001
0010
0000
0001
0000
0100
0000
1000
0000
0100
0000
0010
0000
1000
0000
,
0001
0010
0100
0001
0100
1000
1001
0000
,
0001
0100
0001
0000
1000
0010
1000
0010
0000
0100
0001
1000
0001
0000
0011
0000
,
0110
0000
1100
0000
1000
0001
1000
0000
20M1
0000
30M1
0000
0101
0000
1001
0000
,
1000
0000
0010
0100
0010
0000
1000
0001
1000
0000
0001
0100
0001
0000
1000
0000
,
0010
0000
0001
0000
0010
0000
1000
0100
0010
0000
0001
1000
0010
0000
0100
0001
,
1000
0001
0000
0010
0100
0000
1000
0000
0000
0000
0001
1000
0000
0000
1M01
0000
,
1000
0000
0010
0000
0100
0001
0100
0000
0001
0000
0010
0000
1000
0000
0010
0000
,
0001
0100
0010
0100
1000
0100
0010
0100
,
0001
0010
0100
0001
0100
1000
0010
0100
,
1000
0100
0010
1000
0M02
0003
1M01
0000
,
1100
0000
0100
0010
0001
1000
0001
0000
1000
0001
0000
0101
,
0000
1100
0000
1010
0000
0001
1000
0000
1000
0001
0000
1000
,
0100
0010
0100
1000
0000
0010
0001
0000
0010
1000
0000
1100
,
0000
0101
0000
2002
0000
0000
0000
0000
0000
3003
0000
0000
;

//---------------dance-single - ----------------
#NOTES:
     dance-single:
     :
     Medium:
     10:
     0.453159,0.510081,0.474093,0.155158,0.112058,368.000000,313.000000,55.000000,18.000000,0.000000,0.000000,0.453159,0.510081,0.474093,0.155158,0.112058,368.000000,313.000000,55.000000,18.000000,0.000000,0.000000:
0000
0000
0000
0000
,
0000
0000
0000
0000
,
0000
0000
0000
0000
,
0000
0000
0000
0000
,
1000
0000
0001
0000
1000
0000
0010
0100
,
0001
0000
1000
0000
0001
0000
1000
0100
,
0010
0000
0001
0000
0010
0000
0001
0000
1000
0000
0000
0001
0000
0000
1000
0000
,
0000
0000
1001
0000
0001
0100
0010
0100
,
0001
0100
0010
1000
0100
0010
0001
1000
,
0001
1000
0000
1010
0000
1010
0000
0101
,
0000
0101
0000
0011
0000
1001
0000
0110
,
0001
0101
0101
1010
,
1010
0000
1000
0100
0010
0001
1000
0000
,
1010
1001
0001
2000
,
0000
0000
0000
3001
,
0010
0100
1000
0000
0010
0000
0110
0000
,
1001
0110
1001
0001
,
0101
0000
1100
0000
0101
0000
0001
0010
,
0100
0000
0000
0000
1000
0000
0001
0000
1000
0001
0000
0001
1000
0000
1010
0000
,
0000
0101
0000
0001
0010
0100
1000
0001
,
0000
0000
1001
0000
0000
0000
1000
0000
0100
0000
0010
0000
0001
0000
0000
0001
,
0000
0000
1000
0000
0000
0000
0010
0000
0100
0000
0001
0000
1000
0000
0000
1000
,
0000
0000
0001
0000
2000
0000
0000
0000
0001
0000
3001
0000
0010
0000
0000
0100
,
0000
0000
1000
0000
0000
0001
1000
0000
0001
0000
1000
0000
2002
0000
0000
0000
,
0000
3003
0000
0000
,
0000
0000
0000
0000
0001
0000
1000
0001
,
0000
0001
0000
0000
1001
0000
1000
0000
0010
0000
0000
0000
0100
0000
0010
0000
,
0000
0010
0000
0000
0110
0000
1000
0000
0002
0000
0000
0000
0000
0000
0103
0000
,
0010
1000
0000
0100
0010
0001
0010
0100
,
1000
0000
0010
0100
0010
0000
0000
1000
,
0001
1000
0001
1000
0001
0000
0010
0000
,
0100
1000
0002
0000
,
2003
0000
3020
0000
,
0230
0000
0000
0000
0301
0000
0000
1000
,
0000
0001
1000
0000
2002
0000
0000
0000
,
3003
0000
1000
0000
1000
0000
0100
0010
,
0001
0000
0100
0010
0100
0000
0001
1000
,
0001
0000
1000
0001
1000
0001
1000
0001
,
1000
0001
2000
0000
0000
0000
3001
0000
,
1001
0001
0010
0100
,
1000
0100
0010
0001
,
1000
0010
0100
0010
,
1000
0000
0001
0000
1000
0000
0001
0010
,
1000
0010
0001
0000
0101
0000
1010
0000
,
0011
1010
1001
0110
,
1000
0001
1000
0100
0010
0000
0110
0000
,
0001
0000
1000
0000
0001
0000
0000
0000
0110
0000
0000
0010
0000
0000
1000
0000
,
0001
0000
1000
1000
1000
0000
1100
0000
,
0101
0000
0011
0000
1010
0000
1000
0100
,
0010
0000
0001
0000
1000
0000
0000
0001
0000
0000
1000
0000
0001
0000
0010
0000
,
0100
1000
0002
0000
2003
0000
3001
0010
,
0100
1000
0000
0001
0000
0100
0010
1000
,
0010
0000
1000
0100
0010
0001
1000
0000
,
1100
0000
0101
0000
0011
0000
1000
0010
,
0001
0010
2000
0000
3001
1000
0001
1000
,
0000
1010
0000
0011
0000
0110
0000
1001
,
0000
0101
0000
1010
0000
1100
0000
0011
,
0000
0000
1001
0000
0000
0000
0110
0000
0000
0000
1000
0001
0000
0000
1000
0000
,
0001
0010
0100
1000
,
0010
0000
0100
0000
0001
1000
0010
1000
,
0001
0100
0010
1000
,
0100
0000
0000
0010
0000
0000
0001
0000
0000
0000
0000
0000
2000
0000
0000
0000
0000
0000
3001
0000
0000
0000
0001
0000
,
1000
0000
1000
0010
0000
0010
0100
0000
0100
0001
0000
0001
,
0000
0001
0000
0001
0000
1000
0001
0000
0001
1000
0000
1000
,
0100
0000
0100
0010
0000
0010
0001
0000
0001
1000
0000
1000
,
0000
1000
0000
2002
0000
0000
0000
0000
0000
3003
0000
0000
;

//---------------dance-single - ----------------
#NOTES:
     dance-single:
     :
     Easy:
     7:
     0.336175,0.510081,0.249976,0.137918,0.038789,273.000000,244.000000,29.000000,16.000000,0.000000,0.000000,0.336175,0.510081,0.249976,0.137918,0.038789,273.000000,244.000000,29.000000,16.000000,0.000000,0.000000:
0000
0000
0000
0000
,
0000
0000
0000
0000
,
0000
0000
0000
0000
,
0000
0000
0000
0000
,
1000
0000
0001
0000
1000
0000
0001
1000
,
0010
0000
0100
0000
0010
0000
0100
0010
,
1000
0000
0000
0000
0001
0000
0000
0000
1000
0000
0000
0001
0000
0000
1000
0000
,
0000
0001
0010
0100
,
1000
0010
0100
0001
,
1000
0001
0000
1000
0000
1000
0000
0100
,
0000
0100
0000
0010
0000
0010
0000
0001
,
1000
0010
0010
0100
,
0100
0000
0001
1000
0001
0000
1000
0000
,
0100
0010
0001
2002
,
0000
0000
3003
1000
,
0001
1001
1000
0001
,
1000
0001
1001
1000
,
0010
0010
0100
0100
,
0001
0000
0001
0000
1000
0000
1000
0001
,
0000
0001
0000
0100
0010
0100
0000
0001
,
0000
0000
1000
0000
0000
0000
0001
0000
0000
0000
1000
0000
0100
0000
0000
0100
,
0000
0000
0100
0000
0000
0000
0000
0000
0010
0000
0000
0000
0001
0000
0000
0001
,
0000
0000
0001
0000
0000
0000
0000
0000
1000
0000
0001
0000
1000
0000
0000
0100
,
0000
0000
0010
0000
0000
0001
0000
0000
1000
0000
0001
0000
2000
0000
0000
0000
,
0000
3000
0000
0000
,
0000
0000
0000
0000
0001
0000
1000
0001
,
0000
0001
0000
0000
1000
0000
0010
0000
0010
0000
0000
0000
0100
0000
0010
0000
,
0000
0010
0000
0000
1000
0000
0001
0000
1000
0000
0000
0000
0100
0000
0000
0000
,
0010
0001
0100
0010
,
1000
1000
0001
0010
,
0100
1000
0010
0100
,
0001
0000
2000
0000
,
0000
0000
3002
0000
,
0000
0000
0013
0100
,
1000
0001
2002
0000
,
3003
1000
0100
0010
,
0001
1000
0100
0010
,
0001
0100
0100
0010
,
0010
2002
0000
0000
,
3003
0001
0010
0100
,
1000
0001
1000
0100
,
0010
0001
0100
0010
,
1000
0000
0002
0000
0000
0000
1003
0001
,
1000
0001
1000
0000
1100
0000
1100
0000
,
1100
0001
0101
0101
,
0101
0000
1000
0001
1000
0000
1001
0000
,
0001
0000
1000
0000
0001
0000
0000
0000
1001
0000
0000
1000
0000
0000
0001
0000
,
1000
0000
0001
0010
0001
0000
0011
0000
,
0011
0000
0011
0000
1000
0000
0010
0100
,
0010
0000
0000
0000
1000
0000
0000
0001
0000
0000
1000
0000
0000
0000
0001
0000
,
1000
0002
2003
3001
,
0010
0100
1000
0001
,
1000
0100
0010
0001
,
0101
0000
0101
0000
1000
0000
0001
1000
,
0001
1000
0001
0000
0000
1000
0001
1000
,
0000
0010
0000
0110
0000
1001
0000
0110
,
0000
1001
0000
0101
0000
0101
0000
1010
,
0000
1010
0000
1001
0000
1001
0000
0001
,
1000
0100
0010
0001
,
0100
0010
1000
0001
,
1000
0010
0100
0001
,
0010
0100
2000
3001
,
0001
0100
0100
0002
,
0000
0000
1003
0100
,
0010
0001
1000
2002
,
0000
0000
0000
3003
;

//---------------dance-single - ----------------
#NOTES:
     dance-single:
     :
     Beginner:
     4:
     0.185943,0.255040,0.043099,0.086199,0.000000,151.000000,146.000000,5.000000,10.000000,0.000000,0.000000,0.185943,0.255040,0.043099,0.086199,0.000000,151.000000,146.000000,5.000000,10.000000,0.000000,0.000000:
// measure 0
0000
0000
0000
0000
,  // measure 1
0000
0000
0000
0000
,  // measure 2
0000
0000
0000
0000
,  // measure 3
0000
0000
0000
0000
,  // measure 4
1000
0001
1000
0001
,  // measure 5
0100
0010
0100
0010
,  // measure 6
1000
0100
0010
0001
,  // measure 7
0000
1000
0000
0001
,  // measure 8
0000
1000
0000
0001
,  // measure 9
0000
1000
0000
1000
0000
0001
0000
0001
,  // measure 10
0000
1000
0000
0001
0000
1000
0000
0000
,  // measure 11
0010
0010
0100
0100
,  // measure 12
0010
0100
0010
1000
,  // measure 13
0001
1000
0001
2000
,  // measure 14
0000
0000
3000
0001
,  // measure 15
0000
0100
0000
0010
,  // measure 16
0010
0010
1001
1000
,  // measure 17
0000
0001
0000
1000
,  // measure 18
0000
0000
0001
0000
0001
0000
0000
1000
,  // measure 19
0000
0100
0000
0010
0000
0001
0000
1000
,  // measure 20
0000
0001
0000
1000
0000
0000
1001
0000
,  // measure 21
0000
0000
0000
0110
,  // measure 22
0000
0000
0000
1001
,  // measure 23
0000
0000
0000
2000
,  // measure 24
0000
3000
0000
0000
,  // measure 25
0000
0000
0001
1000
,  // measure 26
0000
0001
0100
0010
,  // measure 27
0000
0100
0001
0000
,  // measure 28
0000
0000
1000
0000
,  // measure 29
0000
0000
0001
0000
,  // measure 30
0000
0000
1000
0000
,  // measure 31
0000
0000
0020
0000
,  // measure 32
0030
0000
0200
0000
,  // measure 33
0300
0000
0002
0000
,  // measure 34
0003
0000
2000
0000
,  // measure 35
3000
0001
0000
0001
,  // measure 36
0000
1000
0000
1000
,  // measure 37
0000
0010
0000
0010
,  // measure 38
0000
0200
0000
0000
,  // measure 39
0300
0002
0000
0000
,  // measure 40
0000
0000
0000
0000
,  // measure 41
0003
2000
0000
0000
,  // measure 42
0000
3000
0000
0001
,  // measure 43
1000
0001
0001
1000
,  // measure 44
1000
0001
1000
0001
,  // measure 45
0000
0100
0100
0010
,  // measure 46
0010
0100
0010
0100
,  // measure 47
0000
0001
0001
1000
,  // measure 48
1000
0001
1000
0001
,  // measure 49
0000
0010
0000
0100
,  // measure 50
0000
2000
0000
3001
,  // measure 51
0000
0000
0000
1000
,  // measure 52
0000
0000
0000
0001
,  // measure 53
0001
1000
1000
0001
,  // measure 54
1000
0000
0001
0000
0000
0100
0000
0100
,  // measure 55
0000
0010
0000
0100
0000
0010
0000
0100
,  // measure 56
0000
0000
0000
0001
0000
0001
0000
1000
,  // measure 57
0000
1000
0000
0001
0000
1000
0000
0000
,  // measure 58
0001
0000
1000
0000
,  // measure 59
0000
0001
1000
0000
,  // measure 60
0010
0000
0100
0000
,  // measure 61
0000
0010
0100
0001
,  // measure 62
0001
1000
1000
0001
,  // measure 63
0000
0000
0000
1000
,  // measure 64
1000
0001
0001
1000
,  // measure 65
0000
0000
0000
1001
;
