#TITLE:Sangria Wine;
#SUBTITLE:;
#ARTIST:Pharrell Williams x Camila Cabello;
#TITLETRANSLIT:;
#SUBTITLETRANSLIT:;
#ARTISTTRANSLIT:;
#CREDIT:SupremeX;
#BANNER:Sangria Wine-bn.png;
#BACKGROUND:Sangria Wine-bg.png;
#LYRICSPATH:;
#CDTITLE:cdtitle.png;
#MUSIC:Sangria Wine.ogg;
#OFFSET:-0.077;
#SAMPLESTART:21.540;
#SAMPLELENGTH:12.000;
#SELECTABLE:YES;
#BPMS:0.000=132.000;
#STOPS:;
#BGCHANGES:;

//---------------dance-single - ----------------
#NOTES:
     dance-single:
     :
     Hard:
     12:
     0.446,0.408,0.272,0.068,0.060:
0000
0000
0000
0000
,
0000
0000
0000
0000
,
0000
0000
0000
0000
0000
0200
0000
0000
,
0000
0000
0000
0000
0000
0320
0000
0000
,
0000
0030
0000
0000
0000
1000
0001
1000
,
0010
0100
0010
1000
0010
0100
0100
0000
,
0000
0001
1000
0001
1000
0010
0100
0010
,
1000
0001
0001
0100
0001
0100
0100
0000
,
0000
0010
1000
0010
0100
0010
1000
0001
,
0100
0100
0001
1000
0001
0010
0010
0000
,
0000
0100
1000
0100
0010
0001
0000
1000
,
0100
1000
0000
0001
0000
1001
0010
0100
,
0010
0100
0000
0110
0000
0101
0000
0010
,
1000
0010
0000
1000
0000
0110
0000
0001
,
1000
0001
1000
0010
0100
0010
0000
0101
,
0000
0010
0000
1000
0001
1000
0000
0110
,
0000
0001
0000
1000
0100
1000
0000
1100
,
0000
0010
0001
0010
0000
0011
0000
1100
,
0000
1000
0100
0010
0001
0010
0000
0100
,
1000
0100
0000
0010
0000
0001
0010
0010
,
0100
1000
0100
0010
0100
0010
0001
0001
,
0000
1000
0100
0000
0100
1000
0100
1000
,
0100
0000
0010
0001
0000
0011
0000
0000
,
0100
0100
0000
1000
0000
1100
0000
0000
,
0010
0010
0000
0101
0000
1010
0100
0001
,
0000
0001
0100
0000
0010
1000
0010
1000
,
0001
0000
0001
0100
0000
0100
0000
0000
,
0010
1000
0000
1000
0000
0110
0000
0001
,
0100
0001
0000
1000
0000
0100
1000
0100
,
0000
0100
1000
0000
0001
0010
0100
1000
,
0100
0000
1000
0100
0000
1100
0000
0000
,
0010
0010
0000
0011
0000
0110
0000
0000
,
1000
1000
0000
0101
0000
1010
0100
0100
,
0000
0001
0001
0000
1000
0100
1000
0100
,
1000
0000
0100
0001
0000
0110
0000
0000
,
1000
1000
0000
0001
0000
0100
0001
0100
,
0010
0000
0100
0000
0001
0000
0100
0000
0010
0000
1000
0000
0000
1000
0000
0000
,
0100
0000
1000
0000
0000
1000
0000
0000
0001
0000
0100
0000
0000
0100
0000
0000
,
0001
0000
0010
0000
0000
0010
0000
0000
0100
0000
1000
0000
0000
1000
0000
0000
,
0100
0000
0010
0000
0000
0010
0000
0000
0001
0000
1000
0000
0000
1000
0000
0000
,
0100
0000
0010
0000
0000
0010
0000
0000
0001
0000
0100
0000
0000
0100
0000
0000
,
0010
0000
1000
0000
0000
1000
0000
0000
0001
0000
0010
0000
0000
0010
0000
0000
,
0100
0000
1000
0000
0000
1000
0000
0000
0100
0000
0100
0000
0000
0010
0000
0000
,
0010
0000
0001
0000
0000
0001
0000
0000
1000
0000
0100
0000
0000
0000
0000
0000
,
1000
1000
0000
0001
0000
2000
0000
0000
,
0000
0100
0000
0100
0000
3200
0000
0000
,
0000
0000
0000
0000
0000
2300
0000
0000
,
0000
0000
0000
0000
0000
3002
0000
0000
,
0003
1000
0100
1000
0100
0010
0010
0001
,
1000
0001
0100
0010
0000
1001
1001
0000
,
0000
0010
0100
0010
1000
0010
0100
0010
,
1000
0001
0000
0100
0000
0001
0001
0000
,
0000
1000
0010
0100
0001
1000
0010
0100
,
0010
1000
0100
0100
0000
1100
0000
0000
,
0000
0010
0001
0010
0100
1000
0000
0001
,
0100
0001
0000
0020
0000
0130
0000
1000
,
0100
1000
0000
0101
0000
0101
0000
0010
,
1000
0001
0000
1010
0000
1010
0000
0001
,
0100
0001
1000
0010
1000
0001
0000
0110
,
0000
1000
0000
0100
1000
0100
0000
1000
,
0001
1000
0000
0100
0000
0110
0000
0110
,
0001
1000
0000
0001
0000
1100
0000
1100
,
0010
0001
0000
0010
0000
0100
0000
1000
,
0001
1000
0000
0010
0000
0200
0000
0000
,
0300
0000
0000
0000
;

//---------------dance-single - ----------------
#NOTES:
     dance-single:
     :
     Medium:
     7:
     0.323,0.327,0.238,0.085,0.000:
0000
0000
0000
0000
,
0000
0000
0000
0000
,
0000
0000
0000
0000
0000
2000
0000
0000
,
0000
0000
0000
0000
3000
0020
0000
0000
,
0000
0000
0030
0000
0000
0100
0000
0100
,
0000
0001
0000
1000
0001
1000
0000
0010
,
0000
0100
0000
0010
0000
1000
0000
0001
,
1000
0001
0000
1000
0000
1001
0000
0000
,
0000
0100
0000
0010
0000
1000
0000
0001
,
1000
0001
0000
1000
0000
1010
0000
0000
,
0000
0100
0000
0100
0000
0001
0100
0001
,
0000
1000
0000
0010
0000
0110
0000
0000
,
0000
0001
0000
0001
0000
1001
0000
1001
,
0000
1000
0000
1000
0000
0110
0000
0110
,
0000
0001
0100
0001
0000
1000
0000
1000
,
0000
0010
0000
0100
0001
0100
0000
0100
,
0000
0010
0000
1000
0000
1001
0000
1001
,
0000
0010
0000
0100
0000
1001
0000
1001
,
0000
1000
0000
0100
0000
0011
0000
0100
,
0000
1000
0000
0011
0000
1100
0000
0020
,
0000
0000
0000
0030
0000
0000
0000
1000
,
0000
0001
0001
0000
0000
1000
0000
0010
,
0010
0000
0000
0100
0000
0001
0000
0000
,
1000
1000
0000
0010
0000
0100
0000
0000
,
0001
0001
0000
1000
0000
0010
0000
0000
,
0100
0001
0000
1000
0000
0010
0000
0100
,
0100
0000
0000
0001
0000
0010
0000
0000
,
1000
1000
0000
0010
0000
0100
0000
0000
,
0001
0001
0000
1000
0000
1000
0000
0000
,
0000
0010
0000
0010
0000
0100
0000
0000
,
0000
0001
0000
1000
0000
0001
0000
0000
,
1000
0010
0000
0100
0000
0100
0000
0000
,
0001
0100
0000
0010
0000
0010
0000
1000
,
0000
0001
1000
0000
0000
0010
0000
0100
,
0010
0000
1000
0001
0000
1001
0000
0000
,
1000
0010
0000
0100
0000
0100
0000
0001
,
0000
0001
0000
0001
0000
1000
0000
0010
,
0000
1000
0000
0001
0000
1000
0000
0001
,
0000
1000
0000
0010
0000
0100
0000
0001
,
0000
1000
0000
0010
0000
0100
0000
0100
,
0000
0001
0000
1000
0000
0010
0000
0100
,
0000
0001
0000
1000
0000
0001
0000
0010
,
0000
0100
0000
1000
0000
0010
0000
0100
,
0000
0001
0000
1000
0000
2000
0000
3000
,
0000
0000
0000
0000
0000
0002
0000
0000
,
0000
0100
0000
0100
0000
0203
0000
0000
,
0000
0000
0000
0000
0000
0020
0300
0000
,
0000
0000
0000
0000
0000
2030
0000
0000
,
3000
0000
0000
0000
0000
0001
0000
1000
,
0001
1000
0000
0010
0000
0110
0000
0000
,
0000
1000
0000
1000
0000
0001
0000
1000
,
0000
0001
0000
1000
0001
1000
0010
0000
,
0000
0100
0000
0010
0000
0100
0000
0001
,
0000
1000
0000
0010
0000
1000
0010
0000
,
0000
0100
0001
0100
0000
0010
0000
0010
,
0000
1000
0000
0001
0000
1001
0000
0000
,
0000
1000
0000
1000
0000
1001
0000
1001
,
0000
0010
0000
0010
0000
0110
0000
0110
,
0000
0001
1000
0001
0000
1000
0000
1000
,
0000
0010
0100
0010
0000
0100
0000
0100
,
0000
0001
0000
1000
0000
1001
0000
1001
,
0000
0010
0000
0100
0000
0110
0000
0110
,
0000
0001
0000
1000
0000
1001
0000
1001
,
0000
0010
0000
0100
0000
2002
0000
0000
,
3003
0000
0000
0000
;

//---------------dance-single - ----------------
#NOTES:
     dance-single:
     :
     Easy:
     5:
     0.224,0.217,0.043,0.026,0.000:
0000
0000
0000
0000
,
0000
0000
0000
0000
0000
1000
0000
0000
,
0000
0000
0000
0000
0000
0001
0000
0000
,
0000
0000
0000
0000
0000
1000
0000
0000
,
0000
0010
0000
0010
0000
0100
0000
0100
,
0000
0100
0000
0100
0000
0001
0000
0000
,
0000
1000
0000
0010
0000
0100
0000
0100
,
0000
0100
0000
0100
0000
0001
0000
0000
,
0000
1000
0000
0001
0000
1000
0000
1000
,
0000
1000
0000
1000
0000
0001
0000
0000
,
0000
0100
0000
0010
0000
0100
0000
0100
,
0000
0100
0000
0001
0000
1001
0000
0000
,
0000
1000
0000
1000
0000
0001
0000
0001
,
0000
0001
0000
0001
0000
0010
0000
0010
,
0000
0010
0000
0010
0000
0100
0000
0100
,
0000
0100
0000
0100
0000
1000
0000
1000
,
0000
1000
0000
1000
0000
0010
0000
0010
,
0000
0010
0000
0010
0000
0010
0000
0010
,
0000
0100
0000
0100
0000
0100
0000
0100
,
0000
0100
0000
0100
0000
0001
0000
0001
,
0000
0001
0000
0001
0000
0001
0000
0000
,
0000
1000
0000
0000
0000
0010
0000
0000
,
0001
0000
0000
0000
0000
1000
0000
0000
,
0000
0010
0000
0100
0000
0001
0000
0000
,
0000
1000
0000
0010
0000
0100
0000
0001
,
0000
1000
0000
0000
0000
0010
0000
0000
,
0100
0000
0000
0000
0000
0001
0000
0000
,
0000
1000
0000
0010
0000
1000
0000
0000
,
0000
0001
0000
0100
0000
0001
0000
0000
,
0000
1000
0000
0000
0000
0010
0000
0000
,
0100
0000
0000
0000
0000
0001
0000
0000
,
0000
1000
0000
1000
0000
1000
0000
0000
,
0000
0001
0000
0001
0000
0001
0000
0000
,
0000
0100
0000
0000
0000
0010
0000
0000
,
0100
0000
0000
0000
0000
0010
0000
0000
,
0000
1000
0000
1000
0000
1000
0000
0000
,
0000
0001
0000
0001
0000
0001
0000
0000
,
0000
0110
0000
0000
0000
1000
0000
0000
,
0000
0001
0000
0000
0000
1000
0000
0000
,
0000
0001
0000
0000
0000
1001
0000
0000
,
0000
0100
0000
0000
0000
0010
0000
0000
,
0000
1001
0000
0000
0000
0100
0000
0000
,
0000
0010
0000
0000
0000
1001
0000
0000
,
0000
0100
0000
0000
0000
0010
0000
0000
,
0000
0000
0000
0000
0000
1000
0000
0000
,
0000
0001
0000
0001
0000
2000
0000
0000
,
0000
0000
0000
0000
0000
3020
0000
0000
,
0000
0000
0000
0030
0000
0200
0000
0000
,
0000
0300
0000
0000
0000
0001
0000
0001
,
0000
0001
0000
0000
0000
1000
0000
0000
,
0000
0010
0000
0000
0000
0100
0000
0100
,
0000
0100
0000
0000
0000
0001
0000
0000
,
0000
1000
0000
0001
0000
1000
0000
1000
,
0000
1000
0000
0000
0000
0001
0000
0000
,
0000
1000
0000
0010
0000
0100
0000
0100
,
0000
0100
0000
0001
0000
1000
0000
0000
,
0000
0010
0000
0000
0000
1000
0000
0000
,
0000
0001
0000
1000
0000
0001
0000
0000
,
0000
1000
0000
0010
0000
1000
0000
0000
,
0000
0001
0000
0100
0000
0001
0000
0001
,
0000
1000
0000
0010
0000
1000
0000
0000
,
0000
0001
0000
0100
0000
0001
0000
1000
,
0000
0010
0000
1000
0000
0001
0000
0100
,
0000
0001
0000
1000
0000
0010
0000
1000
;

//---------------dance-single - Copied from ----------------
#NOTES:
     dance-single:
     Copied from:
     Beginner:
     3:
     0.079,0.108,0.000,0.009,0.000: // measure 1
0000
0000
0000
0000
,  // measure 2
0000
0000
0000
0000
,  // measure 3
0000
0000
0000
0000
,  // measure 4
0000
0000
0000
0000
,  // measure 5
0000
0000
0000
0000
0000
0001
0000
0000
,  // measure 6
0000
0000
0000
0000
0000
0001
0000
0000
,  // measure 7
0000
0000
0000
0000
0000
1000
0000
0000
,  // measure 8
0000
0000
0000
0000
0000
1000
0000
0000
,  // measure 9
0000
0000
0000
0000
0000
0010
0000
0000
,  // measure 10
0000
0000
0000
0000
0000
0010
0000
0000
,  // measure 11
0000
0000
0000
0000
0000
0100
0000
0000
,  // measure 12
0000
0000
0000
0000
0000
0100
0000
0000
,  // measure 13
0000
0000
0000
0000
0000
0001
0000
0000
,  // measure 14
0000
0001
0000
0000
0000
0001
0000
0000
,  // measure 15
0000
1000
0000
0000
0000
1000
0000
0000
,  // measure 16
0000
1000
0000
0000
0000
1000
0000
0000
,  // measure 17
0000
0010
0000
0000
0000
0010
0000
0000
,  // measure 18
0000
0010
0000
0000
0000
0010
0000
0000
,  // measure 19
0000
0100
0000
0000
0000
0100
0000
0000
,  // measure 20
0000
0100
0000
0000
0000
0100
0000
0000
,  // measure 21
0000
0000
0000
0000
0000
0001
0000
0000
,  // measure 22
0000
0000
0000
0000
0000
1000
0000
0000
,  // measure 23
0000
0000
0000
0000
0000
0001
0000
0000
,  // measure 24
0000
0000
0000
0000
0000
1000
0000
0000
,  // measure 25
0000
0000
0000
0000
0000
0010
0000
0000
,  // measure 26
0000
0000
0000
0000
0000
0100
0000
0000
,  // measure 27
0000
0000
0000
0000
0000
0010
0000
0000
,  // measure 28
0000
0000
0000
0000
0000
0100
0000
0000
,  // measure 29
0000
0000
0000
0000
0000
0001
0000
0000
,  // measure 30
0000
0000
0000
0000
0000
1000
0000
0000
,  // measure 31
0000
0000
0000
0000
0000
0001
0000
0000
,  // measure 32
0000
0000
0000
0000
0000
1000
0000
0000
,  // measure 33
0000
0000
0000
0000
0000
0010
0000
0000
,  // measure 34
0000
0000
0000
0000
0000
0100
0000
0000
,  // measure 35
0000
0000
0000
0000
0000
0010
0000
0000
,  // measure 36
0000
0000
0000
0000
0000
0100
0000
0000
,  // measure 37
0000
0000
0000
0000
0000
0001
0000
0000
,  // measure 38
0000
0000
0000
0000
0000
0001
0000
0000
,  // measure 39
0000
0000
0000
0000
0000
1000
0000
0000
,  // measure 40
0000
0000
0000
0000
0000
1000
0000
0000
,  // measure 41
0000
0000
0000
0000
0000
0001
0000
0000
,  // measure 42
0000
0000
0000
0000
0000
1000
0000
0000
,  // measure 43
0000
0000
0000
0000
0000
0001
0000
0000
,  // measure 44
0000
0000
0000
0000
0000
1000
0000
0000
,  // measure 45
0000
0000
0000
0000
0000
0020
0000
0000
,  // measure 46
0000
0000
0000
0000
,  // measure 47
0000
0000
0000
0000
,  // measure 48
0000
0000
0000
0000
0000
0000
0000
0030
,  // measure 49
0000
0000
0000
0000
0000
0100
0000
0000
,  // measure 50
0000
0000
0000
0000
0000
0100
0000
0000
,  // measure 51
0000
0000
0000
0000
0000
0001
0000
0000
,  // measure 52
0000
0000
0000
0000
0000
0001
0000
0000
,  // measure 53
0000
0000
0000
0000
0000
1000
0000
0000
,  // measure 54
0000
0000
0000
0000
0000
1000
0000
0000
,  // measure 55
0000
0000
0000
0000
0000
0001
0000
0000
,  // measure 56
0000
0000
0000
0000
0000
0001
0000
0000
,  // measure 57
0000
0000
0000
0000
0000
1000
0000
0000
,  // measure 58
0000
0000
0000
0000
0000
0010
0000
0000
,  // measure 59
0000
0000
0000
0000
0000
1000
0000
0000
,  // measure 60
0000
0000
0000
0000
0000
0010
0000
0000
,  // measure 61
0000
0000
0000
0000
0000
0100
0000
0000
,  // measure 62
0000
0000
0000
0000
0000
0001
0000
0000
,  // measure 63
0000
0000
0000
0000
0000
0100
0000
0000
,  // measure 64
0000
0000
0000
0000
0000
0001
0000
0000
;
