#VERSION:0.83;
#TITLE:SUMMER - 2019 Remaster;
#SUBTITLE:;
#ARTIST:Zekk;
#TITLETRANSLIT:;
#SUBTITLETRANSLIT:;
#ARTISTTRANSLIT:;
#GENRE:;
#ORIGIN:;
#CREDIT:;
#BANNER:SUMMER - 2019 Remaster.png;
#BACKGROUND:SUMMER - 2019 Remaster-bg.png;
#PREVIEWVID:;
#JACKET:SUMMER - 2019 Remaster-jacket.png;
#CDIMAGE:;
#DISCIMAGE:;
#LYRICSPATH:;
#CDTITLE:;
#MUSIC:SUMMER - 2019 Remaster.ogg;
#OFFSET:0.000000;
#SAMPLESTART:54.858898;
#SAMPLELENGTH:15.000000;
#SELECTABLE:YES;
#BPMS:0.000=175.000;
#STOPS:;
#DELAYS:;
#WARPS:;
#TIMESIGNATURES:0.000=4=4;
#TICKCOUNTS:0.000=4;
#COMBOS:0.000=1;
#SPEEDS:0.000=1.000=0.000=0;
#SCROLLS:0.000=1.000;
#FAKES:;
#LABELS:0.000=Song Start;
#BGCHANGES:;
#KEYSOUNDS:;
#ATTACKS:
;

//---------------dance-single - ----------------
#NOTEDATA:;
#CHARTNAME:;
#STEPSTYPE:dance-single;
#DESCRIPTION:;
#CHARTSTYLE:;
#DIFFICULTY:Hard;
#METER:14;
#RADARVALUES:0.721294,0.814936,0.354320,0.333878,0.439493,741.000000,689.000000,52.000000,49.000000,0.000000,0.000000,0.000000,0.000000,0.000000,0.721294,0.814936,0.354320,0.333878,0.439493,741.000000,689.000000,52.000000,49.000000,0.000000,0.000000,0.000000,0.000000,0.000000;
#CREDIT:Marten;
#NOTES:
// measure 0
0000
0000
0000
0000
,  // measure 1
0000
0000
0000
0000
,  // measure 2
0000
0000
0000
0000
,  // measure 3
0000
0000
0000
0000
,  // measure 4
1000
0100
0000
1000
0001
0000
1000
0010
0000
0100
0001
0000
0010
0001
0000
0000
,  // measure 5
0000
1000
1000
0000
0010
0010
0000
0100
,  // measure 6
0001
0100
0000
0001
1000
0000
0001
0010
0000
0100
1000
0000
0010
1000
0000
0000
,  // measure 7
2020
3030
0202
0303
,  // measure 8
1001
0000
0001
0010
0010
1000
0010
0010
,  // measure 9
0001
0000
1000
0010
0010
0001
0010
0010
,  // measure 10
1000
0000
0001
0100
0100
1000
0100
0100
,  // measure 11
0001
0010
1001
0000
,  // measure 12
0010
0000
1000
0000
0001
0000
1000
0000
0100
0000
0000
0100
0000
0000
0100
0000
,  // measure 13
0010
0000
0001
0000
1000
0000
0001
0000
0100
0000
0000
0100
0000
0000
0100
0000
,  // measure 14
0010
0000
1000
0100
1000
0000
0001
0000
0100
0000
0000
0100
0000
0000
0100
0000
,  // measure 15
0220
0000
0000
0330
,  // measure 16
0010
0010
0100
0001
0001
0100
1000
1000
,  // measure 17
0100
0010
1000
0001
0010
0010
0100
0100
,  // measure 18
0010
0010
0100
0001
0001
0100
1000
1000
,  // measure 19
0100
0010
0001
1000
0010
0100
0002
0000
,  // measure 20
1003
0000
0100
1000
0100
0000
0010
0000
0001
1000
0001
0000
0100
0000
0010
1000
,  // measure 21
0010
0000
0100
0001
0100
0000
0001
0000
0010
0100
0010
0000
0001
0000
1000
0000
,  // measure 22
0010
1000
0010
1000
0010
0000
0000
0000
0100
0001
0100
0001
0100
0000
0000
0000
,  // measure 23
2001
0000
0000
3010
,  // measure 24
0102
0000
0000
0000
1003
0000
0000
0000
0100
0000
0000
0010
0000
0000
0012
0000
,  // measure 25
0000
0000
1003
0000
0010
0000
0100
0010
0000
0100
0010
0000
1000
0000
0001
0000
,  // measure 26
0011
0000
0000
0001
0000
0000
1000
0000
0010
0000
0000
0101
0000
0000
1200
0000
,  // measure 27
0000
0000
1300
0000
0001
0000
0100
0000
0010
1000
0001
0000
0010
0000
0001
0000
,  // measure 28
0021
0000
0000
0000
0130
0000
0000
0000
1000
0000
0000
0001
0000
0000
0201
0000
,  // measure 29
0000
0000
0310
0000
0100
0000
0001
1000
0000
0001
0010
0000
0100
0000
1000
0000
,  // measure 30
1001
0000
0000
1010
0000
0000
0110
0000
0100
0000
0000
0000
0101
0000
0000
0011
,  // measure 31
0000
0000
0110
0000
0000
1100
0000
0000
1001
0000
1000
0000
0100
0000
0010
0000
,  // measure 32
0012
0000
0000
0000
1003
0000
0000
0000
0010
0000
0000
0100
0000
0000
0102
0000
,  // measure 33
0000
0000
1003
0000
0100
0000
0010
0100
0000
0000
1000
0000
1001
0000
0000
0000
,  // measure 34
1000
0000
0100
0010
0000
0100
1000
0000
0001
0000
0100
0010
0000
0100
0002
0000
,  // measure 35
0000
0013
0100
1100
0000
0011
0010
0001
,  // measure 36
2001
0000
3020
0000
0230
0000
0301
1000
,  // measure 37
1001
0002
0000
0103
1000
0100
0001
0000
,  // measure 38
1001
0000
0000
1010
0000
0000
0101
0000
0100
0000
0000
0000
1001
0000
0000
0011
,  // measure 39
0000
0000
1010
0000
0000
0101
0000
0000
1100
0000
1000
0000
0010
0000
0000
0000
,  // measure 40
2000
0000
0000
0000
3002
0000
0000
0023
0000
0000
0130
0000
1000
0000
0020
0000
,  // measure 41
0000
0032
0000
0000
0013
0000
1000
0000
0001
0010
0000
0000
0010
0000
0100
0000
,  // measure 42
1100
0000
0000
1000
0000
0000
0010
0000
1010
0000
0000
0010
0000
0000
0110
0000
,  // measure 43
0000
0100
0000
0000
0001
0000
0100
0000
0001
0010
0000
0000
0100
0010
0100
0000
,  // measure 44
2000
0000
0000
0000
3010
0000
0000
0000
0110
0000
0000
0100
0000
0000
1001
0000
,  // measure 45
0000
1000
0000
0000
0100
0000
0010
0000
0001
1000
0000
0000
0010
0000
1000
0001
,  // measure 46
1000
0000
0000
0010
0000
0000
1000
0000
1100
0000
0000
0000
0110
0000
0000
0010
,  // measure 47
0000
0000
0001
0000
0000
0100
0000
0000
0010
0000
0100
0000
0100
0000
0001
0000
,  // measure 48
1002
0000
0000
0000
2003
0000
0000
3020
0000
0000
0130
0000
0001
0100
0002
0000
,  // measure 49
0003
0020
0000
0000
0130
0000
1000
0000
0000
0001
0100
0001
0200
0000
0320
0000
,  // measure 50
1030
0000
0000
1000
0000
0000
1000
0000
1100
0000
0000
1001
0000
0000
0012
0000
,  // measure 51
0000
1000
0103
0001
,  // measure 52
1000
0000
0000
0100
1000
0000
0010
0000
0100
0001
0000
0100
0001
0000
0010
0000
,  // measure 53
0001
0000
0000
0100
0001
0000
0010
0000
0100
1000
0000
0100
1000
0000
0010
0000
,  // measure 54
1000
0000
0100
0000
0001
0000
0100
0000
1000
0000
0000
0001
0000
0000
1000
0000
,  // measure 55
2002
0000
0000
3003
,  // measure 56
0001
0100
0010
0100
0001
1000
0100
1000
,  // measure 57
0001
0100
0001
0010
1000
0010
0001
1000
,  // measure 58
0010
1000
0100
0001
1000
0010
0001
1000
,  // measure 59
0010
1000
0100
0010
0001
0100
0010
0000
,  // measure 60
1000
0100
0010
0100
1000
0001
0100
1000
,  // measure 61
0100
0001
1000
0100
0010
0001
0100
0001
,  // measure 62
0010
1000
0001
0100
1000
0001
0100
0010
,  // measure 63
1000
0001
1000
0010
0100
0000
0001
0000
,  // measure 64
1000
0000
0100
1000
0000
0010
0000
0100
0001
0000
0100
0000
1000
0000
0100
0000
,  // measure 65
0010
0000
1000
0001
0000
0010
0000
0001
0100
0000
0001
0000
0010
0000
0100
0000
,  // measure 66
2000
0000
0000
3010
0100
0010
0000
1000
0001
0000
0010
0000
0100
0000
2000
0000
,  // measure 67
0000
0000
3001
0000
0100
0001
0100
0000
0001
1000
0001
0000
0010
0001
0010
0000
,  // measure 68
0100
0000
1000
0001
0000
0100
0000
0010
0100
0000
0001
0000
0010
0000
0100
0000
,  // measure 69
1000
0000
0001
0100
0000
0010
0000
1000
0001
0000
0010
0000
0100
1000
0100
2000
,  // measure 70
0000
0100
0000
0001
0000
0010
0000
3001
,  // measure 71
2001
0000
0000
0000
0000
0000
0000
0000
0000
0000
0000
0000
3001
0000
0010
0000
0100
0000
1000
0000
0000
0001
0000
0000
,  // measure 72
0100
0000
0000
0000
0110
0000
0000
0100
0001
0000
1000
0000
0100
0000
0000
0010
,  // measure 73
0001
0000
0000
0000
0100
0000
0001
0000
1000
0100
1000
0000
0001
0000
0010
0000
,  // measure 74
0100
0000
0010
0000
0001
0000
0000
0000
0100
0000
0010
0000
1000
0000
0000
0001
,  // measure 75
1000
0000
0000
0000
0100
0000
0000
1000
0001
0000
0010
0000
0110
0000
0000
0000
,  // measure 76
1000
0100
0000
1000
0001
0000
1000
0010
0000
0100
0001
0000
0010
0001
0000
0000
,  // measure 77
0000
1000
1000
0000
0010
0010
0000
0100
,  // measure 78
0001
0100
0000
0001
1000
0000
0001
0010
0000
0100
1000
0000
0010
1000
0000
0000
,  // measure 79
0001
0010
0100
1000
0001
1000
0010
0000
,  // measure 80
1000
0000
0100
0000
2000
0000
0000
3001
0000
0000
1000
0000
0010
1000
0010
0000
,  // measure 81
0100
0001
0000
1000
0100
0000
0010
0000
0001
1000
0000
0010
1000
0000
0001
0000
,  // measure 82
1000
0000
0010
0100
0000
0010
1000
0000
0001
0000
0010
0100
0000
0010
0002
0000
,  // measure 83
0000
1000
0103
0001
,  // measure 84
1000
0000
0100
1000
0000
0010
0100
0000
0001
0000
0100
0001
0000
0010
0100
0000
,  // measure 85
1000
0000
0010
1000
0000
0100
0010
0000
0001
0000
0010
0001
0010
0000
0100
0000
,  // measure 86
2000
3020
0230
0301
,  // measure 87
2002
0000
0003
0000
3001
1000
0100
0100
,  // measure 88
0010
0001
0100
0001
0010
0001
0100
0010
,  // measure 89
1000
0100
1000
0010
1000
0100
0010
0001
,  // measure 90
1000
0100
0010
0100
1000
0100
0010
0001
,  // measure 91
0100
0010
0010
0000
0100
0100
0000
0001
,  // measure 92
0001
0100
0010
0100
0001
0100
0010
1000
,  // measure 93
0100
0010
0100
1000
0100
0010
0001
0100
,  // measure 94
0010
1000
0100
0001
0100
1000
0100
0010
,  // measure 95
0001
0000
2000
0000
,  // measure 96
3010
0000
0100
0000
0001
1000
0100
0000
,  // measure 97
0010
0000
0001
0000
1000
0001
0100
0000
,  // measure 98
0010
0000
1000
0000
0100
1000
0010
0000
,  // measure 99
0100
0001
0001
0000
1000
1000
0000
0001
,  // measure 100
0001
0000
0010
0000
0001
0100
0010
0000
,  // measure 101
1000
0000
0001
0000
1000
0100
0010
0000
,  // measure 102
0001
0010
1000
0000
0001
0100
1000
0000
,  // measure 103
0002
0000
0000
0000
0000
0000
0000
0000
0000
0000
0000
0000
1003
0000
0100
0000
0010
0000
0001
0000
0000
0100
0000
0000
,  // measure 104
0010
0000
0000
0000
;

//---------------dance-single - ----------------
#NOTEDATA:;
#CHARTNAME:;
#STEPSTYPE:dance-single;
#DESCRIPTION:;
#CHARTSTYLE:;
#DIFFICULTY:Medium;
#METER:11;
#RADARVALUES:0.585017,0.602344,0.163532,0.299809,0.272554,601.000000,577.000000,24.000000,44.000000,0.000000,0.000000,0.000000,0.000000,0.000000,0.585017,0.602344,0.163532,0.299809,0.272554,601.000000,577.000000,24.000000,44.000000,0.000000,0.000000,0.000000,0.000000,0.000000;
#CREDIT:Marten;
#NOTES:
// measure 0
0000
0000
0000
0000
,  // measure 1
0000
0000
0000
0000
,  // measure 2
0000
0000
0000
0000
,  // measure 3
0000
0000
0000
0000
,  // measure 4
0001
0000
0000
0100
0000
0000
1000
0000
0000
0100
0000
0000
0001
1000
0000
0000
,  // measure 5
0000
0010
0010
0000
0100
0100
0000
0001
,  // measure 6
1000
0000
0000
0100
0000
0000
0001
0000
0000
0100
0000
0000
1000
0001
0000
0000
,  // measure 7
2002
0000
0000
3003
,  // measure 8
0001
0000
1000
0100
0010
0001
1000
1000
,  // measure 9
0010
0000
0100
0001
1000
0001
0010
0010
,  // measure 10
0001
0000
0100
0010
1000
0001
1000
1000
,  // measure 11
0010
0100
1001
0000
,  // measure 12
1000
0000
0001
0000
0100
0000
0001
0000
0010
0000
0000
0010
0000
0000
0010
0000
,  // measure 13
0001
0000
1000
0000
0100
0000
1000
0000
0010
0000
0000
0010
0000
0000
0010
0000
,  // measure 14
1000
0000
0100
0000
0010
0000
0001
0000
1000
0000
0000
0001
0000
0000
1000
0000
,  // measure 15
2002
0000
0000
3003
,  // measure 16
0001
0010
0000
0010
1000
0000
1000
0001
,  // measure 17
0000
0001
0000
0100
1000
0000
0001
0000
,  // measure 18
1000
0010
0000
0010
0001
0000
0001
1000
,  // measure 19
0100
0001
0000
1000
0001
0000
1001
0000
,  // measure 20
0001
0010
0100
0010
1000
0000
1000
0010
,  // measure 21
0100
0010
0001
1000
0010
0100
0010
0000
,  // measure 22
1000
0010
0100
0001
0010
0100
1000
0001
,  // measure 23
1002
0000
0000
0013
,  // measure 24
0002
0000
0000
0000
2003
0000
0000
0000
3010
0000
0000
0100
0000
0000
0120
0000
,  // measure 25
0000
0000
1030
0000
0100
0000
0010
0000
0000
0001
0000
0000
1000
0000
0000
0000
,  // measure 26
0010
0000
0000
0010
0000
0000
0010
0000
0100
0000
0000
0001
0000
0000
0020
0000
,  // measure 27
0000
0130
1000
0001
1000
0010
0100
0001
,  // measure 28
2000
0000
0000
0000
3200
0000
0000
0000
1300
0000
0000
0010
0000
0000
0200
0000
,  // measure 29
0000
0000
0301
0000
0100
0000
0000
0100
0000
0000
0001
0000
1000
0000
0000
0000
,  // measure 30
0001
0000
0000
0010
0000
0000
0100
0000
1100
0000
0000
0000
1000
0000
0000
0010
,  // measure 31
0000
0000
0100
0000
0000
0001
0000
0000
0010
0000
0001
0000
1000
0000
1000
0000
,  // measure 32
0002
0000
0000
0000
2003
0000
0000
0000
3001
0000
0000
1000
0000
0000
0020
0000
,  // measure 33
0000
0000
0130
0000
0010
0000
0000
0100
0000
0000
0001
0000
1000
0000
0000
0000
,  // measure 34
0001
0000
1000
0100
0000
1000
0100
0000
0010
0000
0000
0001
0000
0000
2000
0000
,  // measure 35
0000
3010
0100
0100
0000
0001
1000
0001
,  // measure 36
0010
0000
0002
0000
2003
0000
3010
1000
,  // measure 37
0100
0020
0000
0031
1000
0001
0100
0000
,  // measure 38
0010
0000
0000
1000
0000
0000
0001
0000
0011
0000
0000
0000
0001
0000
0000
1000
,  // measure 39
0000
0000
0010
0000
0000
0100
0000
0000
0001
0000
1000
0000
1001
0000
0000
0000
,  // measure 40
2100
0000
0000
0000
3002
0000
0000
0023
0000
0000
0130
0000
1000
0000
0002
0000
,  // measure 41
0000
0203
0000
0000
0310
0000
1000
0000
0000
0001
0000
0000
1000
0000
0001
0000
,  // measure 42
0010
0000
0000
0010
0000
0000
0010
0000
0100
0000
0000
1000
0000
0000
1001
0000
,  // measure 43
0000
0001
0000
0000
0100
0000
0001
0000
1000
0000
0000
0000
0010
0000
0100
0000
,  // measure 44
0020
0000
0000
0000
2030
0000
0000
0000
3001
0000
0000
0010
0000
0000
0011
0000
,  // measure 45
0000
0001
0000
0000
1000
0000
0100
0000
0000
1000
0000
0000
0010
0000
0100
0000
,  // measure 46
0110
0000
0000
0010
0000
0000
1000
0000
1001
0000
0000
0000
1001
0000
0000
0001
,  // measure 47
0000
0000
0010
0000
0000
0100
0000
0000
1000
0000
0001
0000
0100
0000
0100
0000
,  // measure 48
0002
0000
0000
0000
2003
0000
0000
3010
0000
0000
0100
0000
0001
0000
0010
0000
,  // measure 49
0000
0001
0000
0000
1000
0000
0100
0000
0000
0000
1000
0000
0010
0000
0100
0000
,  // measure 50
0001
0000
0000
0001
0000
0000
0001
0000
0101
0000
0000
1001
0000
0000
2010
0000
,  // measure 51
0000
0100
3001
1000
,  // measure 52
0001
0000
0010
0000
0001
0000
0000
0000
0100
0000
0000
0100
0000
0000
0010
0000
,  // measure 53
1000
0000
0010
0000
1000
0000
0000
0000
0100
0000
0000
0100
0000
0000
0010
0000
,  // measure 54
0001
0000
0100
0000
1000
0000
0100
0000
0001
0000
0000
1000
0000
0000
0001
0000
,  // measure 55
2002
0000
0000
3003
,  // measure 56
0001
0100
0001
0010
0100
1000
0001
0000
,  // measure 57
1000
0100
1000
0010
0100
0001
1000
1000
,  // measure 58
0001
0010
0100
0010
0001
0100
0010
0000
,  // measure 59
1000
0100
0001
0100
1000
0001
1000
0000
,  // measure 60
0010
1000
0001
1000
0010
0100
0001
0000
,  // measure 61
0010
0001
1000
0001
0010
0100
1000
1000
,  // measure 62
0001
0100
0010
0100
0001
0010
0100
1000
,  // measure 63
0010
0100
0010
1000
0001
0010
0100
0000
,  // measure 64
1000
0000
0000
0100
0000
0010
0000
0100
0000
0000
1000
0000
0010
0000
0100
0000
,  // measure 65
0001
0000
0000
0010
0000
0100
0000
0010
0000
0000
0001
0000
0100
0000
0010
0000
,  // measure 66
2000
0000
3001
0100
0010
0100
0001
2000
,  // measure 67
0000
0000
3001
0010
0100
1000
0001
0001
,  // measure 68
0010
0000
0000
0001
0000
1000
0000
0001
0000
0000
0100
0000
0010
0000
1000
0000
,  // measure 69
0001
0000
0000
1000
0000
0001
0000
1000
0000
0000
0100
0000
0010
0000
0001
2000
,  // measure 70
0000
0000
0000
3001
,  // measure 71
1001
0000
0000
0000
0000
0000
0001
1000
0001
1000
0000
0000
,  // measure 72
0020
0000
0000
0000
1030
0000
0000
0001
0100
0000
0000
0000
0001
0000
0000
1000
,  // measure 73
0100
0000
0010
0001
1000
0001
0010
0000
,  // measure 74
0100
0000
1000
0000
0001
0000
0000
0000
0100
0000
0000
0000
0001
0000
0000
0010
,  // measure 75
0100
0000
0000
0000
1000
0000
0000
0010
0100
0000
0000
0000
0000
0000
0000
0000
,  // measure 76
0001
0000
0000
0100
0000
0000
1000
0000
0000
0100
0000
0000
0001
1000
0000
0000
,  // measure 77
0000
0010
0010
0000
0100
0100
0000
0001
,  // measure 78
1000
0000
0000
0100
0000
0000
0001
0000
0000
0100
0000
0000
1000
0001
0000
0000
,  // measure 79
1000
0000
0000
1000
0010
0000
0000
0010
0100
0000
0000
0100
0001
0000
0000
0000
,  // measure 80
1000
0000
0001
0000
0020
0000
0000
0032
0000
0000
1003
0000
0010
0000
2000
0000
,  // measure 81
0000
3002
0000
0000
0013
0000
0100
0000
0000
0000
1000
0000
0010
0000
0100
0000
,  // measure 82
0001
0000
0100
0001
0000
0100
0001
0000
1000
0000
0000
0100
0000
0000
0120
0000
,  // measure 83
0000
0100
0031
1000
,  // measure 84
0010
1000
0100
0100
0010
0001
1000
0001
,  // measure 85
0010
0001
0100
0100
0010
1000
0001
1000
,  // measure 86
0002
0023
0230
1300
,  // measure 87
1001
0000
0000
0000
0010
0010
0100
0001
,  // measure 88
1000
0000
0100
0000
1000
0001
0100
0001
,  // measure 89
1000
0000
0100
0000
0010
0001
1000
0001
,  // measure 90
0010
0000
0001
0000
0100
0010
0100
0001
,  // measure 91
1000
0001
0001
0000
0100
0100
0000
0010
,  // measure 92
1000
0000
0001
0000
1000
0100
0001
0100
,  // measure 93
1000
0000
0001
0000
1000
0010
0001
0010
,  // measure 94
1000
0000
0001
0000
0010
0100
1000
0000
,  // measure 95
1001
0000
0020
0000
,  // measure 96
0130
0000
0001
0000
1000
0100
1000
0000
,  // measure 97
0001
0000
1000
0000
0001
0100
0001
0000
,  // measure 98
1000
0000
0001
0000
0100
0010
0100
0000
,  // measure 99
0001
0010
0010
0000
0100
0100
0000
1000
,  // measure 100
0001
0000
1000
0000
0001
0010
0001
0000
,  // measure 101
0100
0000
0010
0000
1000
0010
1000
0000
,  // measure 102
0001
0010
0100
0000
1000
0010
0100
0000
,  // measure 103
1001
0000
0000
0000
0000
0000
0000
0000
0000
0000
0000
0000
0001
0000
1000
0000
0001
0000
1000
0000
0000
0010
0000
0000
,  // measure 104
0100
0000
0000
0000
;

//---------------dance-single - ----------------
#NOTEDATA:;
#CHARTNAME:;
#STEPSTYPE:dance-single;
#DESCRIPTION:;
#CHARTSTYLE:;
#DIFFICULTY:Easy;
#METER:7;
#RADARVALUES:0.390336,0.425184,0.218043,0.149905,0.000000,401.000000,369.000000,32.000000,22.000000,0.000000,0.000000,0.000000,0.000000,0.000000,0.390336,0.425184,0.218043,0.149905,0.000000,401.000000,369.000000,32.000000,22.000000,0.000000,0.000000,0.000000,0.000000,0.000000;
#CREDIT:Marten;
#NOTES:
// measure 0
0000
0000
0000
0000
,  // measure 1
0000
0000
0000
0000
,  // measure 2
0000
0000
0000
0000
,  // measure 3
0000
0000
0000
0000
,  // measure 4
1000
0100
0010
0001
,  // measure 5
0000
0100
0100
0001
,  // measure 6
0001
0010
0100
1000
,  // measure 7
2002
0000
0000
3003
,  // measure 8
0001
0100
0010
0010
,  // measure 9
1000
0100
0010
0010
,  // measure 10
0001
1000
0010
0100
,  // measure 11
0110
1001
0110
0000
,  // measure 12
0001
0100
0001
0001
,  // measure 13
1000
0100
1000
1000
,  // measure 14
0001
0010
1000
0010
,  // measure 15
0002
0000
0000
0003
,  // measure 16
1000
1000
0000
0001
0001
0000
0100
0100
,  // measure 17
0000
0010
0000
0010
0010
0000
1000
0000
,  // measure 18
0001
0001
0000
1000
1000
0000
0100
0010
,  // measure 19
0100
1000
1001
0000
,  // measure 20
0001
0100
1000
0100
,  // measure 21
0001
0010
1000
0010
,  // measure 22
0001
1000
0001
0010
,  // measure 23
1002
0000
0000
0013
,  // measure 24
0100
0000
1000
0000
0001
0000
0010
0020
,  // measure 25
0000
0130
1000
0001
,  // measure 26
1000
0000
1000
0000
0010
0000
0100
0200
,  // measure 27
0000
0301
1001
0001
,  // measure 28
1000
0000
0100
0000
1100
0000
1000
2000
,  // measure 29
0000
3010
0100
0001
,  // measure 30
1000
0001
0011
0001
,  // measure 31
1000
0010
1010
0000
,  // measure 32
0100
0000
0001
0000
0101
0000
0100
0200
,  // measure 33
0000
0301
0010
0100
,  // measure 34
1000
0001
1001
0110
,  // measure 35
2002
0000
0003
3001
,  // measure 36
1000
0000
0010
0000
1010
0000
1000
0001
,  // measure 37
0000
0001
0000
0001
0010
0000
0100
0000
,  // measure 38
0010
0001
0101
0100
,  // measure 39
0010
1000
1100
0000
,  // measure 40
1000
0000
0001
0000
0011
0000
0001
0001
,  // measure 41
0000
1000
1010
1000
,  // measure 42
0100
0100
0010
0001
,  // measure 43
1000
0010
0100
0001
,  // measure 44
1000
0000
0001
0000
0011
0000
0001
0001
,  // measure 45
0000
1000
1100
0100
,  // measure 46
0010
0001
1001
1000
,  // measure 47
0010
0100
1001
0000
,  // measure 48
0001
0010
1100
1000
,  // measure 49
0010
0100
0101
0001
,  // measure 50
1000
0010
0001
0100
,  // measure 51
2000
0000
3001
1000
,  // measure 52
0001
0001
0010
0100
,  // measure 53
1000
1000
0010
0100
,  // measure 54
0001
0010
1000
0010
,  // measure 55
0002
0000
0000
1003
,  // measure 56
0001
1000
0100
0100
,  // measure 57
1000
0001
0100
0100
,  // measure 58
0001
0010
0100
0100
,  // measure 59
1000
0010
0100
0110
,  // measure 60
0010
1000
0001
0001
,  // measure 61
0010
0001
1000
1000
,  // measure 62
0001
0010
0100
1000
,  // measure 63
0001
1000
1001
0000
,  // measure 64
1000
0010
0001
0010
,  // measure 65
1000
0100
0001
0100
,  // measure 66
2000
3000
0001
1000
,  // measure 67
0010
0100
0001
0100
,  // measure 68
0001
0010
1000
0010
,  // measure 69
0001
0100
1000
0100
,  // measure 70
0002
0000
0000
1003
,  // measure 71
2002
0000
0000
3003
,  // measure 72
0002
1003
0100
1000
,  // measure 73
0001
0000
0100
0010
,  // measure 74
0100
0001
0010
0100
,  // measure 75
1000
0001
1000
0000
,  // measure 76
1000
0100
0010
0001
,  // measure 77
0000
0100
0100
0001
,  // measure 78
0001
0010
0100
1000
,  // measure 79
0001
1000
1001
0000
,  // measure 80
0001
0100
0010
0010
,  // measure 81
1000
0100
0010
0001
,  // measure 82
1000
0010
0001
0010
,  // measure 83
2000
0000
3001
1000
,  // measure 84
0001
0010
0100
0100
,  // measure 85
1000
0010
0100
0100
,  // measure 86
0001
1000
0010
0100
,  // measure 87
2002
0000
0000
3003
,  // measure 88
0001
0100
0001
1000
,  // measure 89
0001
0010
0001
1000
,  // measure 90
0001
0100
0001
1000
,  // measure 91
0000
0001
0001
0000
1000
1000
0000
0000
,  // measure 92
1000
0100
1000
0001
,  // measure 93
1000
0010
1000
0001
,  // measure 94
1000
0100
1000
0001
,  // measure 95
1001
0000
0200
0000
,  // measure 96
0301
0010
0100
0010
,  // measure 97
0001
0010
0100
0010
,  // measure 98
0001
0100
0010
0100
,  // measure 99
0000
0001
0001
0000
1000
1000
0000
0000
,  // measure 100
1000
0100
0010
0100
,  // measure 101
1000
0100
0010
0100
,  // measure 102
1000
0010
0100
0010
,  // measure 103
2000
0000
3001
1001
,  // measure 104
0010
0000
0000
0000
;
