#TITLE:SEITEN NO TERIYAKI;
#SUBTITLE:;
#ARTIST:Kobaryo;
#TITLETRANSLIT:;
#SUBTITLETRANSLIT:;
#ARTISTTRANSLIT:;
#CREDIT:;
#BANNER:SEITEN NO TERIYAKI.PNG;
#BACKGROUND:SEITEN NO TERIYAKI-bg.PNG;
#LYRICSPATH:;
#CDTITLE:;
#MUSIC:Seiten No Teriyaki.ogg;
#OFFSET:-0.921;
#SAMPLESTART:9.710;
#SAMPLELENGTH:14.070;
#SELECTABLE:YES;
#DISPLAYBPM:137.000:273.000;
#BPMS:0.000=136.500,20.000=273.000,84.000=136.500,100.000=273.000,156.000=409.500,168.000=136.500,200.000=273.000,232.000=136.500,248.000=273.000,312.000=136.500,328.000=273.000,392.000=136.500,395.500=546.000;
#STOPS:;
#BGCHANGES:;

//---------------dance-single - ----------------
#NOTES:
     dance-single:
     :
     Hard:
     15:
     0.935,1.000,0.585,0.450,0.211:
0000
0000
0000
0000
,
2002
0000
0000
0000
3003
0000
0001
0100
0020
0000
0000
0000
1030
0000
0000
0000
,
2002
0000
0000
0000
3003
0000
0001
0010
0100
0000
0000
0010
0000
0000
0001
0000
,
2002
0000
0000
0000
,
3003
0000
0000
0000
0000
0000
0000
0000
1000
0000
1000
0000
0001
0100
0001
0000
,
1001
0000
1001
0000
1000
0100
1000
0002
,
0000
0103
0010
0100
0001
0000
1000
0000
,
0100
1000
0001
0100
0000
0101
0000
0001
,
0100
0010
1000
0010
0100
0001
0100
0001
,
1000
0000
0001
0000
0010
0100
1000
0002
,
0000
1003
0100
0010
0001
0000
0100
0010
,
1000
0000
1000
0100
0000
0100
1000
0001
,
0100
0010
0000
0110
0000
0100
0001
1000
,
0001
0000
0110
0000
1000
0100
1000
0200
,
0000
0310
0100
1000
0001
0000
0100
0010
,
1000
0001
0010
0100
0000
0010
0000
0001
,
1000
0001
1000
0001
0100
0010
0100
0010
,
1000
0000
0001
0000
1000
0010
0001
0020
,
0000
1030
0010
1000
0001
0000
0010
0001
,
1000
0001
1000
0001
0010
0100
1000
0100
,
0010
0001
0000
1100
0000
0001
0100
0010
,
2000
0000
0000
0000
0010
0000
0000
0001
0000
0000
0010
0000
3010
0000
0000
0000
,
1000
0000
0100
0010
0000
0100
0010
0000
0001
0000
0100
0010
0000
1000
0001
0000
,
1000
0100
0001
1000
0010
0001
1001
0000
,
0001
0000
0010
1000
0000
0010
0001
0000
1000
0000
0001
1000
0000
0001
1000
0000
,
1001
0000
0000
0110
0000
0000
0000
0000
,
0011
0000
0000
1100
0000
0000
0000
0000
,
1010
0000
0000
0101
0000
0000
0000
0000
,
0001
0100
0001
0000
1100
0000
1001
0000
,
0001
0010
0001
1000
0200
0000
1300
0010
,
0100
0001
0100
0010
1000
0010
0100
0001
,
0010
0001
1000
0010
0200
0000
0301
0100
,
0010
0100
1000
0100
0010
0100
0001
1000
,
0100
0010
0100
0010
,
0001
1000
0001
1000
,
0100
0010
0001
0100
,
1000
0100
2002
3003
,
1000
0100
1000
0001
0100
0001
0000
1100
,
0000
1000
0001
0000
0100
0010
1000
0000
,
2002
0000
0000
0000
,
0000
0000
0000
0000
,
0000
0000
0000
3003
,
1001
0000
0000
0000
1100
0000
0100
0000
0001
0000
0001
0100
1000
0000
1000
0000
,
1001
0000
0000
0000
0101
0000
0100
0000
0010
1000
0000
1000
0010
1000
0001
0100
,
0001
0000
0000
0000
1100
0000
0100
0000
0001
0000
0100
0010
0001
0000
1000
0000
,
1001
0000
0000
0000
0101
0000
0100
0000
0010
0000
1010
0000
0000
1001
0000
0000
,
0012
0000
0000
0000
1003
0000
0001
0000
1001
0000
1000
0100
0001
0000
0220
0000
,
0330
0000
0000
0000
0000
0000
0010
0000
0100
0000
0010
0000
0001
0000
0000
0000
0000
0000
1000
0000
0000
0000
0000
0000
0001
0000
0000
0000
0000
0000
0100
0000
0000
0010
0000
0000
1000
0000
0000
0000
0000
0000
0101
0000
0000
0000
0000
0000
,
1001
0000
0100
0000
1001
0000
0010
0001
0200
0000
0310
0000
1000
0000
0001
0000
,
2002
0000
3003
0000
1001
1001
0110
0110
,
1001
0000
0001
0000
1000
0010
0000
0101
,
0000
2002
0000
0000
3003
0000
1000
0100
,
0010
0000
0100
0000
1000
0001
0000
0101
,
0000
2002
0000
0000
3003
0000
0001
0100
,
0010
0000
0100
0000
0010
1000
0000
0101
,
0000
0001
0010
0000
0110
0000
0011
0000
,
1001
0000
0000
1000
0100
1000
0100
0010
,
0000
0001
0100
0000
0010
1000
0001
0200
,
0301
0000
0000
0000
0000
0000
1000
0000
0000
0000
0000
0000
0100
0000
0000
0010
0000
0000
0000
0000
0000
0011
0000
0000
0000
0000
0000
2002
0000
0000
0000
0000
0000
0000
0000
0000
3003
0000
0000
0000
0000
0000
0001
0000
0100
0000
0001
0000
,
0100
0000
0010
0000
1000
0100
0000
0011
0000
2002
0000
0000
3003
0000
0101
0000
,
0001
0100
0000
0100
0010
0000
0010
2000
0000
0000
3001
0000
0010
0001
1000
0000
,
0220
0000
0000
0000
0330
0000
0000
0000
0011
0000
0101
0000
1001
0000
1000
0001
,
1000
0100
1000
0001
0100
0010
0100
0001
,
0010
0001
1000
0000
0001
0100
0001
1000
,
0100
0001
0100
0010
0001
1000
0001
0100
,
0010
1000
0010
0000
0100
0001
0100
0010
,
1000
0001
0010
0100
0001
0100
0010
0002
,
0000
1003
0001
0100
0010
1000
0100
1000
,
0001
0100
0010
1000
0001
0100
0010
2000
,
0000
3100
0010
0100
1000
0001
0100
1000
,
0100
0010
1000
0100
0010
0001
0100
1000
,
0100
0001
0010
0100
0001
0100
0010
0001
,
1000
0100
0010
0001
0100
1000
0100
0010
,
1000
0001
0010
0100
0010
0001
1000
0001
,
1000
0010
0000
0010
0100
0000
0100
1000
,
0000
1000
0100
0000
0010
1000
0001
1000
,
0200
0000
0001
0000
,
0310
0000
0001
0000
1000
0100
1000
0200
,
0310
0000
0100
0000
0010
0000
0001
0100
0000
0010
1000
0000
0001
0100
0010
0000
,
1000
0100
0001
0010
0100
0010
0001
1000
,
0010
1000
0020
0000
0000
0000
0000
0000
0000
0000
0000
0000
0000
0000
0000
0000
,
0030
0000
0000
0000
0000
0000
0000
0000
0011
0000
0011
0000
0100
1000
0001
0000
,
1000
0100
1000
0001
0100
0010
1000
0020
,
0000
0130
0001
0010
0100
0010
0001
0000
,
1000
0100
0010
0001
0100
0001
1000
0020
,
0000
0130
0001
0100
1000
0100
0010
1000
,
0100
1000
0001
0010
0100
0010
0001
2000
,
0000
3001
0100
0010
1000
0010
0100
0000
,
0001
0010
0001
0010
0100
0010
0100
0010
,
1000
0010
0100
0010
0001
1000
0001
0100
,
0001
0100
1000
0001
0010
1000
0001
1000
,
0100
0010
0001
1000
2002
0000
3003
0000
,
0001
0010
1000
0001
0100
1000
0001
0100
,
0001
1000
0100
1000
1002
0000
0103
0000
,
1010
0000
0100
0000
0010
1000
0100
0010
,
0000
0010
0100
1000
0001
0000
1000
0001
,
1000
0000
0001
0000
0100
0010
1000
0001
,
0000
0010
0001
0100
0010
0001
0010
1000
,
0001
0000
1000
0000
0001
0100
0010
2000
0000
3001
0010
0001
1000
0000
0220
0000
,
0000
0330
0000
0000
0000
0000
0000
0000
;

//---------------dance-single - ----------------
#NOTES:
     dance-single:
     :
     Medium:
     13:
     0.713,0.980,0.423,0.450,0.099:
0000
0000
0000
0000
,
2002
0000
3003
0100
0101
0000
1001
0000
,
2200
0000
0000
0000
3300
0000
1000
0000
1001
0000
0000
0001
0000
0000
0100
0000
,
0220
0000
0000
0000
,
0330
0000
0000
0000
0001
1000
0001
1000
,
0001
0000
1000
0000
0100
0000
0010
0001
,
0000
0001
0100
0000
0010
0000
1000
0001
,
1000
0001
0100
0010
,
1000
0001
0010
0001
,
0100
0000
0010
0000
1000
0000
0100
0010
,
0000
0100
0010
0000
0001
0000
1000
0100
,
0010
0001
0100
0010
,
1000
0001
0000
0110
0000
0001
1000
0000
,
0100
0000
1000
0000
0001
0000
0010
0001
,
0000
0001
0100
0000
0010
0000
1000
0010
,
0100
0010
0001
0010
,
1000
0100
0010
0001
,
0010
0000
0100
0000
0010
0001
0010
0001
,
0000
0001
1000
0000
0001
0000
0100
0010
,
0100
0000
0010
0000
1000
0000
0001
1000
,
0001
1000
0000
1001
0000
0001
1000
0000
,
1002
0010
1000
0103
,
0110
0000
0000
0000
0010
0000
1000
0000
1001
0000
0000
0001
0000
0000
1000
0000
,
1100
0100
0010
0001
0100
0010
0100
0000
,
1001
0000
0000
0000
0100
0000
0000
0000
0001
0000
0100
0000
0010
0000
1000
0010
,
1000
0000
0000
0202
0000
0000
0303
0000
,
0010
0000
0000
2002
0000
0000
3003
0000
,
0100
0000
0000
2020
0000
0000
3030
0000
,
1000
0100
1000
0000
0001
0000
0100
0000
,
0101
0000
0000
2002
0000
0000
3003
0000
,
1100
0000
0000
2002
0000
0000
3003
0000
,
0011
0000
0000
2200
0000
0000
3300
0000
,
1000
0010
0100
0000
0001
0100
0001
0100
,
0010
1000
0010
1000
,
0001
0100
0001
0100
,
0001
1000
0100
0010
,
0001
0100
2002
3003
,
0001
1000
0001
1000
0001
1000
0000
0001
,
0000
1000
0001
0000
0100
0010
0100
0000
,
0020
0000
0000
0000
,
0000
0000
0000
0000
,
0000
0000
0000
0030
,
1001
0000
0000
0000
1000
0000
0001
0000
0100
0000
0000
0001
0000
0000
0100
0000
,
0101
0000
0000
0000
0001
0000
1000
0000
0001
0010
0000
0010
0001
0000
1000
0000
,
1100
0000
0000
0000
0010
0000
0001
0000
0100
0000
0000
1000
0000
0000
0100
0000
,
0110
0000
0000
0000
0010
0000
1000
0000
0001
0000
0011
0000
0000
1100
0000
0000
,
1002
0000
0103
0010
1000
0000
1001
2002
,
3003
0000
0001
0100
0010
0000
0110
0110
,
0010
1000
0100
0010
0001
0100
0010
0000
,
2002
0000
3000
0000
0100
0100
0100
0103
,
0001
0000
0100
0000
0010
1000
0000
0001
,
0000
2002
0000
0000
3003
0000
1000
0001
,
1000
0000
0100
0000
0010
0001
0000
1000
,
0000
2002
0000
0000
3003
0000
0001
0100
,
0001
0000
0100
0000
0010
1000
0000
1010
,
0000
1000
0100
0010
,
0011
0000
0000
0000
0001
1000
0001
2000
,
0000
0000
0001
0001
,
3001
0000
0100
0000
0010
1000
0000
0001
0000
0021
0000
0000
0031
0000
0100
0010
,
0100
0000
0001
0000
1000
0100
0000
1000
0000
2002
0000
0000
3003
0000
0001
0000
,
1000
0100
0000
1000
0100
0000
0010
0002
0000
0000
0013
0000
0001
0000
1000
0000
,
2002
0000
3003
0000
1000
0001
1000
0001
,
1000
0000
0001
0000
1000
0001
0000
0100
,
0000
0110
0000
0000
0010
0100
0010
0000
,
0100
0000
0001
0000
1000
0100
0000
0010
,
0000
0011
0000
0000
0001
0100
0001
0100
,
0010
0000
1000
0000
0010
0100
0000
0101
,
0000
0001
1000
0100
,
0010
0000
0001
0000
1000
0100
0010
0002
,
0000
0000
0103
0000
0010
0100
0001
0000
,
1000
0000
0100
0000
1000
0100
1000
0000
,
0100
0000
0010
0000
0001
0100
0010
0100
,
0001
0000
1000
0000
0001
0100
0010
0000
,
1000
0000
0001
0000
1000
0100
1000
0000
,
0001
0100
0000
0100
0001
0000
0001
1000
,
0000
1000
0100
0000
0010
0001
0010
0000
,
0002
0000
0010
0000
,
2000
0000
3003
0000
,
2000
0000
0000
3200
0000
0000
0320
0000
,
0000
0031
0010
0001
0100
0010
1000
0001
,
2002
0000
0000
0000
,
3003
0000
0000
0000
0100
0010
0100
0010
,
0100
0000
0001
0000
1000
0100
1000
0001
,
0000
0001
0100
0001
1000
0000
0001
0000
,
0100
0000
0010
0000
1000
0010
1000
0010
,
0000
0100
0001
0100
0001
0000
0010
0000
,
0001
0000
1000
0000
0001
0010
0100
0010
,
0000
0100
0010
0001
0010
0000
0001
0000
,
1000
0000
0010
0000
0100
0001
0100
0010
,
0000
0010
1000
0001
0100
0000
0001
0000
,
1000
0000
0100
0000
0010
0001
0010
0001
,
0000
1000
0100
1000
0200
0000
0300
0000
,
0010
0000
0001
0000
1000
0001
0100
0010
,
0000
0100
0010
2000
0001
0000
3001
0000
,
1000
0000
0100
0000
0010
0000
0001
0010
,
0000
0010
0001
0000
1000
0000
0001
0000
,
0100
0000
0010
0000
1000
0010
0100
0001
,
0000
0001
0100
0000
0001
0000
1000
0000
,
0100
0000
0010
0000
0001
1000
0001
1000
0000
0010
0100
0010
0100
0000
2002
0000
,
3003
0000
0000
0000
;

//---------------dance-single - ----------------
#NOTES:
     dance-single:
     :
     Easy:
     10:
     0.517,0.713,0.207,0.450,0.027:
0000
0000
0000
0000
,
2001
0000
3200
0000
,
0302
0000
0203
0000
,
2300
0000
0000
0000
,
0002
0000
3003
0000
,
0001
0100
0001
0100
,
0001
0010
0100
0000
,
0010
0001
1000
0100
,
0001
0100
1000
1000
,
0001
0100
0010
1000
,
0001
0010
0100
0010
,
0001
0010
0001
1000
,
0001
0000
0000
1000
0000
0000
0001
0000
,
0100
0010
1000
0001
,
0100
0001
1000
0000
,
0010
1000
0100
1000
,
0001
0010
0100
0010
,
0001
1000
0100
0010
,
0100
1000
0001
0000
,
1000
0001
0100
0010
,
0100
0000
0000
0010
0000
0000
0100
0000
,
2002
0000
0000
3003
,
0110
0000
0010
1000
0001
0000
1000
0000
,
2002
0000
0000
3003
,
1001
0000
1000
0100
0010
0000
0110
0000
,
1000
0000
0000
2000
0000
0000
3000
0000
,
0001
0000
0000
0002
0000
0000
0003
0000
,
0100
0000
0000
0200
0000
0000
0300
0000
,
0010
1000
0001
0100
,
0001
0000
0000
2002
0000
0000
3003
0000
,
1000
0000
0000
2002
0000
0000
3003
0000
,
0010
0000
0000
0220
0000
0000
0330
0000
,
0100
0010
1000
0100
,
1000
0000
1000
0000
,
0100
0000
0100
0000
,
0010
0000
0010
0000
,
0001
0000
0001
0000
,
1000
0001
1000
0001
,
0100
0010
0100
0001
,
0200
0000
0000
0000
,
0000
0000
0000
0000
,
0000
0300
0000
0000
,
1001
0000
0000
0000
0001
0000
0000
0000
0100
0000
0000
0010
0000
0000
1000
0000
,
0001
0000
0000
0000
1000
0000
0100
0000
1000
0000
0000
0011
0000
0000
0001
0000
,
0100
0000
0000
0000
0010
0000
0100
0000
0001
0000
0000
0010
0000
0000
0100
0000
,
0110
0000
0000
0000
0010
0000
0001
0000
1000
0000
0100
0000
0000
1000
0000
0000
,
2200
0000
3300
0000
1100
0000
1000
0001
,
0100
0000
0101
0000
0001
0100
0010
1000
,
0100
0010
0100
0001
0100
1000
0001
1000
,
2002
0000
3003
0000
,
1000
0000
0001
0000
2000
0000
0000
0001
,
0000
0002
0000
0000
3003
0000
0000
0000
,
0001
0000
0100
0000
0002
0000
0000
0100
,
0000
0200
0000
0000
0303
0000
0000
0000
,
0010
0000
1000
0000
0001
0000
0000
1001
,
0000
1000
0100
0010
,
0001
0000
0000
0000
1001
0000
0000
0220
,
0000
0330
0010
2000
,
0001
0001
0010
3010
,
1000
0010
1000
0001
0100
0001
1000
0100
,
0010
0000
0000
0001
0000
0000
1000
0000
0000
0100
0000
0000
0010
0000
0001
0000
,
0202
0303
2002
3003
,
1000
0100
1000
0010
,
0001
0010
1000
0000
,
0001
0010
0001
0010
,
1000
0010
0001
0000
,
1000
0100
0010
0100
,
1000
0001
0100
1000
,
0100
0000
0010
0000
1000
0000
0001
1000
,
0000
1000
0100
0010
,
0001
0100
0010
1000
,
0010
0100
0001
0010
,
0100
0001
0100
0010
,
0001
1000
0001
0100
,
0010
0000
0000
0100
0000
0000
0010
0000
,
0000
1000
0000
0000
0100
0000
0010
0000
,
0002
0000
0100
0000
,
2000
0000
3003
0000
,
2000
0000
0000
3002
0000
0000
2003
0000
,
0000
3100
1000
0100
1000
0001
0100
0001
,
0200
0000
0000
0000
,
0300
0000
0000
0000
,
0001
0000
1000
0000
0001
0000
1000
0001
,
0000
0001
0100
0010
,
1000
0000
0100
0000
0010
0000
0001
0010
,
0000
0001
0010
0001
,
0100
0000
0010
0000
1000
0000
0010
1000
,
0000
0001
0100
0010
,
1000
0000
0100
0000
0010
0000
0001
1000
,
0000
0001
0100
0010
,
1000
0100
1000
0001
,
0100
0010
0200
0300
,
0010
1000
0100
0010
,
0001
1000
0002
0203
,
0310
0000
1000
0000
0100
0000
1000
0200
,
0000
1300
0001
0100
,
0001
0000
0100
0000
0010
0000
1000
0002
,
0000
0013
0001
0100
,
0220
0000
0330
0000
0000
0000
0000
2002
,
3003
0000
0000
0000
;

//---------------dance-single - ----------------
#NOTES:
     dance-single:
     :
     Beginner:
     5:
     0.234,0.311,0.252,0.009,0.000:
0000
0000
0000
0000
,
1001
0000
0001
0000
,
0100
0000
0010
0000
,
0110
0000
0000
0000
,
1001
0000
0000
0000
,
1001
0000
0000
0000
,
0001
0000
0000
0000
,
0100
0000
0001
0000
,
0100
0000
0010
0000
,
0100
0000
0000
0000
,
0010
0000
0000
0000
,
1000
0000
0100
0000
,
0010
0000
0001
0000
,
1001
0000
0000
0000
,
1000
0000
0000
0000
,
0001
0000
0100
0000
,
0010
0000
1000
0000
,
0100
0000
0000
0000
,
1000
0000
0000
0000
,
0001
0000
0001
0000
,
1000
0000
0001
0000
,
1001
0000
0000
0000
,
1000
0000
0010
0000
,
0110
0000
0000
0000
,
0100
0000
0001
0000
,
1001
0000
0000
0000
,
1001
0000
0000
0000
,
0110
0000
0000
0000
,
0010
0000
0100
0000
,
0110
0000
0000
0000
,
1001
0000
0000
0000
,
0110
0000
0000
0000
,
1001
0000
0001
0000
,
0010
0000
0000
0000
,
0001
0000
0000
0000
,
1000
0000
0000
0000
,
0100
0000
0000
0000
,
1000
0000
1000
0000
,
0001
0000
0002
0000
,
0003
0000
0000
0000
,
0000
0000
0000
0000
,
0000
0000
0000
0000
,
1001
0000
0001
0000
,
1000
0000
0010
0100
,
0010
0000
0100
0000
,
0001
0000
1000
0100
,
0010
0000
0001
0000
,
0100
0000
0001
0100
,
0010
0000
1000
0000
,
1001
0000
0000
0000
,
0110
0000
0000
0000
,
0000
0000
0000
0000
,
1001
0000
0000
0000
,
0000
0000
0000
0000
,
1000
0000
0001
0000
,
0100
0000
0010
0000
,
1000
0000
0100
0000
,
0010
0000
0000
0000
,
1001
0000
0000
0000
,
0001
0100
0001
1000
,
0010
0000
0100
0000
,
1001
0000
0000
0000
,
0001
0000
1000
0000
,
0100
0000
0000
0000
,
1000
0000
0001
0000
,
0100
0000
0000
0000
,
0001
0000
0100
0000
,
0010
0000
1000
0000
,
0100
0000
0010
0000
,
0001
0000
0000
0000
,
1000
0000
0100
0000
,
1000
0000
0000
0000
,
0001
0000
0010
0000
,
0001
0000
0100
0000
,
0010
0000
0000
0000
,
0100
0000
0000
0000
,
1001
0000
1001
0000
,
1001
0000
0000
0000
,
0001
0000
0000
0000
,
0100
0010
0100
0010
,
0110
0000
0000
0000
,
1001
0000
0000
0000
,
1000
0000
0100
0000
,
0010
0000
0001
0000
,
1000
0000
0010
0000
,
0100
0000
0001
0000
,
1000
0000
0100
0000
,
1000
0000
0001
0000
,
0100
0000
0010
0000
,
0100
0000
0001
0000
,
0100
0000
0010
0000
,
0110
0000
0000
0000
,
0010
0000
1000
0000
,
1001
0000
0000
0000
,
1000
0000
0100
0000
,
1000
0000
0001
0000
,
0100
0000
0001
0000
,
0010
0000
0100
0000
,
0010
0000
0000
0000
0000
0000
0000
1001
;

//---------------dance-single - ----------------
#NOTES:
     dance-single:
     :
     Challenge:
     18:
     1.000,1.000,0.810,0.414,0.445: // measure 1
0000
0000
0000
0000
,  // measure 2
2020
0000
0000
0000
3030
0000
0001
0100
0010
0000
0000
0000
1010
0000
0000
0000
,  // measure 3
2002
0000
0000
0000
3003
0000
0001
0010
0100
0000
1000
0100
0010
0000
0001
0000
,  // measure 4
2002
0000
0000
0000
,  // measure 5
3003
0000
0000
0000
0000
0000
0000
0000
1000
0000
0001
0000
0100
0010
0100
0010
,  // measure 6
1000
0000
0101
0000
1000
0100
0010
0011
,  // measure 7
0000
0000
0001
1000
0001
0000
1000
0000
0010
0000
0000
0000
0100
0000
0010
0000
,  // measure 8
1000
0100
0010
0001
0000
0101
0000
0100
,  // measure 9
1000
0100
0001
0100
1000
0100
0010
1000
,  // measure 10
0100
0000
1001
0000
0010
0001
0100
0010
,  // measure 11
0000
0000
1000
0010
1000
0000
0010
0000
1000
0000
0100
0000
0010
0000
0001
0000
,  // measure 12
0101
0000
0010
2000
0000
3100
1000
0100
,  // measure 13
0001
0101
0000
1100
0000
1000
0010
0100
,  // measure 14
0101
0000
1010
0000
0010
1000
0100
0010
,  // measure 15
0000
0000
0001
0010
0100
0000
0010
0000
0001
0000
0000
0000
0100
0000
0010
0000
,  // measure 16
1000
0010
0100
0001
0000
0101
0000
0001
,  // measure 17
0010
1000
0010
0001
0100
1000
0100
0001
,  // measure 18
1000
0000
0100
1000
0010
0100
0010
1010
,  // measure 19
0000
0000
0100
0001
1000
0000
0001
0000
0010
0000
0000
0000
0100
0000
0010
0000
,  // measure 20
0001
1000
0001
0010
1000
0010
0100
0010
,  // measure 21
0110
0000
0110
0000
0000
0000
1001
0000
0000
0000
0100
0010
0001
0000
1000
0000
,  // measure 22
1001
0000
0001
0000
0101
0000
0100
0010
1000
0000
0100
0000
0011
0000
0100
0000
,  // measure 23
1000
0000
0001
0100
0010
0100
0001
0000
1000
0000
0001
0010
0100
0010
0001
0000
,  // measure 24
1000
0000
0100
0000
0001
0000
1000
0000
0010
0001
1000
0000
0101
0000
0010
0000
,  // measure 25
1000
0000
0010
0001
0010
1000
0010
0000
1000
0000
0100
0001
0100
1000
0100
0000
,  // measure 26
0011
0001
0100
0202
0000
0000
0303
0000
,  // measure 27
1010
0010
1000
2002
0000
0000
3003
0000
,  // measure 28
1001
0100
0010
2002
0000
0000
3003
0000
,  // measure 29
1000
0100
0010
1000
0010
0001
0100
0001
,  // measure 30
1000
0000
0010
0000
1000
0000
0002
0000
0000
0000
0103
0001
0100
0000
0001
0000
,  // measure 31
1000
0000
0100
0000
0010
0000
0002
0000
0000
0000
1003
0100
0010
0000
0100
0000
,  // measure 32
1000
0000
0010
0000
0100
0000
0020
0000
0000
0000
0130
0010
0100
0000
0001
0000
,  // measure 33
1000
0100
0001
0100
1000
0010
0100
0001
,  // measure 34
1000
0100
1000
0100
0010
0001
0010
0001
,  // measure 35
1000
0010
1000
0010
0100
0001
0100
0001
,  // measure 36
1000
0100
0010
0001
1000
0010
0100
0001
,  // measure 37
1000
0100
1000
0001
0100
0001
1000
0010
,  // measure 38
1000
0100
0001
0100
1000
0001
0000
0101
,  // measure 39
0000
0100
1000
0000
0100
0001
1000
0000
,  // measure 40
2002
0000
0000
0000
,  // measure 41
0000
0000
0000
0000
,  // measure 42
0000
0000
0000
3003
,  // measure 43
1001
0000
0100
0000
0010
0000
1000
0000
0101
0000
0010
1000
0100
0000
0010
0000
,  // measure 44
0011
0000
0100
0000
1000
0000
0001
0000
0101
0000
0100
0010
1000
0001
0010
0010
,  // measure 45
0200
0000
0000
0300
1001
0000
0010
0000
1010
0000
0100
0010
0001
0000
0100
0000
,  // measure 46
1100
0000
1000
0000
0101
0000
0010
0000
0001
0000
0101
0000
0000
0110
0000
0000
,  // measure 47
2001
0000
0000
0000
3100
0000
1000
0000
0101
0000
0010
0100
1001
0000
0220
0000
,  // measure 48
0330
0000
0000
0000
0001
1000
0001
1000
0001
0000
0000
0000
0100
0000
0000
0000
0011
0000
0000
0000
0100
0000
0010
0000
0011
0000
0000
0000
1100
0000
0000
0000
,  // measure 49
1001
0000
0100
0000
1010
0000
0100
0000
0010
1000
0001
0000
0011
0000
0100
0000
,  // measure 50
2002
0000
0000
0000
0000
0000
0000
0000
3003
0000
0000
0000
0000
0000
0000
0000
1001
0000
0000
0000
0110
0000
0000
0000
1001
0000
0000
0000
1000
0000
0001
1000
,  // measure 51
0001
0000
0001
0000
1000
0010
0000
0110
,  // measure 52
0000
0000
2002
0000
0000
0000
0000
0000
3003
0000
0000
0000
0001
0000
0100
0001
,  // measure 53
0100
0000
0010
0000
1000
0100
0000
0011
,  // measure 54
0000
0000
2200
0000
0000
0000
0000
0000
3300
0000
0000
0000
1000
0000
0001
1000
,  // measure 55
0001
0000
0010
0000
0001
0010
0000
1001
,  // measure 56
0000
0000
1000
0000
1010
0000
0000
0000
0110
0000
0000
0000
0100
0000
0001
1000
,  // measure 57
0100
0000
0100
0010
0001
0100
0010
1010
,  // measure 58
0000
0000
1000
0000
0100
0000
0000
0000
1000
0000
0001
1000
0001
0000
1000
0100
,  // measure 59
1000
0000
0000
0000
1000
0000
0000
0000
0100
0000
0101
0000
0000
0000
1001
0000
0000
0000
2200
0000
0000
0000
0000
0000
3300
0000
0000
0000
1000
0100
0010
0001
,  // measure 60
0010
0000
0000
0000
0100
0000
0000
0000
0010
0000
0000
0000
0001
0100
0010
1000
0010
0000
0200
0000
0000
0000
0000
0000
0300
0000
0000
0000
0110
0000
0000
0000
,  // measure 61
0001
0010
0000
0010
1000
0000
1000
0020
0000
0000
0031
0000
0100
0010
1000
0000
,  // measure 62
2002
0000
0000
0000
0000
0000
0000
0000
3003
0000
0000
0000
0000
0000
0000
0000
1010
0000
0000
0000
1100
0000
0000
0000
0101
0000
0000
0000
1000
0000
0100
0010
,  // measure 63
0001
0100
0001
1000
0100
0010
0001
0100
,  // measure 64
1000
0000
0100
0000
0010
0000
1000
0000
0100
0000
0010
0000
0001
0000
1000
0010
,  // measure 65
1000
0100
0010
0100
1000
0001
0100
1000
,  // measure 66
0100
0000
0010
0000
1000
0000
0001
0000
0010
0001
0010
0000
1000
0000
0100
0010
,  // measure 67
0001
0100
0010
1000
0100
1000
0001
1001
,  // measure 68
0000
0000
1000
0000
0010
0000
0100
0000
0001
0000
0010
0000
0100
0000
0010
0001
,  // measure 69
0010
0001
1000
0100
0001
0100
1000
1100
,  // measure 70
0000
0000
0100
0000
0101
0000
0000
0000
1000
0100
1000
0000
0001
0010
0001
0000
,  // measure 71
1000
0100
1000
0001
0100
1000
0100
0001
,  // measure 72
1000
0000
0001
0000
0010
0000
0100
0000
0010
0000
0001
0000
1000
0000
0010
0100
,  // measure 73
0001
1000
0100
1000
0010
0100
0001
0010
,  // measure 74
0100
0001
0100
1000
0010
0001
0010
1000
,  // measure 75
0001
0010
0000
0010
1000
0000
1000
0100
,  // measure 76
0000
0100
0001
0000
0001
0010
1000
0001
,  // measure 77
2002
3003
0220
0330
,  // measure 78
0011
0000
0000
0000
1100
0000
0000
0000
1000
0001
1000
0001
0100
0000
0000
0000
,  // measure 79
2001
0000
0000
0000
3100
0000
1000
0001
0000
0001
0100
0000
0010
1000
0001
0000
,  // measure 80
1000
0000
0100
1000
0100
0010
0001
0010
0001
0100
0010
1000
0010
0100
0001
1000
,  // measure 81
0200
0000
0000
0000
,  // measure 82
0020
0000
0000
0000
0000
0000
0000
0000
0330
0000
0000
0000
0000
0000
0000
0000
0110
0000
0000
0000
0110
0000
0000
0000
1000
0001
1000
0001
1000
0000
0000
0000
,  // measure 83
0001
0100
0010
1000
0100
0010
0001
0101
,  // measure 84
0000
0000
0010
1000
0100
0000
0010
0000
0001
0000
0100
0000
1000
0000
0100
0000
,  // measure 85
0001
0010
0100
0001
0100
1000
0001
0101
,  // measure 86
0000
0000
0010
1000
0100
0000
1000
0000
0001
0010
0001
0000
1000
0000
0001
0000
,  // measure 87
0100
0010
1000
0100
1000
0001
0010
0110
,  // measure 88
0000
0000
0010
0001
0100
0000
0010
0000
0001
0000
0010
0000
1000
0000
0001
0000
,  // measure 89
0100
0010
1000
0100
1000
0001
0010
0001
,  // measure 90
1000
0000
0001
0000
0100
0000
0001
0100
0010
0000
0010
0100
0001
0000
0000
0000
,  // measure 91
1000
0000
0001
0100
0001
0000
1000
0000
0001
0010
0001
0000
1000
0000
0001
0000
,  // measure 92
0000
0000
1000
0100
1000
0000
0001
0000
0020
0000
0000
0000
0000
0000
0000
0000
,  // measure 93
0031
0000
1000
0010
0100
0000
0001
0000
1000
0100
0010
0000
0001
0000
1001
0000
,  // measure 94
0000
0000
1000
0010
0100
0000
0001
0000
0102
0000
0000
0000
1003
0000
0000
0000
,  // measure 95
0110
0000
0001
0000
1000
0100
0001
2000
,  // measure 96
0000
3010
0001
1000
0001
0000
0100
0010
,  // measure 97
1010
0000
0100
0000
0011
0010
0100
1100
,  // measure 98
0000
0000
1000
0000
0100
0000
0010
0000
0001
0010
0001
0000
1000
0100
1000
0000
,  // measure 99
0001
0000
0000
0000
0100
0000
0000
0000
0001
0000
0100
0000
0010
0000
1000
0000
0000
0000
0001
1000
0001
0000
0100
0000
0010
0000
0000
0000
2002
0000
0000
0000
,  // measure 100
0000
3003
0000
0000
0000
0000
0000
0000
;
