#TITLE:Run The Night;
#SUBTITLE:;
#ARTIST:Gigi Rowe;
#TITLETRANSLIT:;
#SUBTITLETRANSLIT:;
#ARTISTTRANSLIT:;
#CREDIT:SupremeX;
#BANNER:Run The Night-bn.png;
#BACKGROUND:Run The Night-bg.png;
#LYRICSPATH:;
#CDTITLE:cdtitle.png;
#MUSIC:Run The Night.ogg;
#OFFSET:-0.463;
#SAMPLESTART:41.400;
#SAMPLELENGTH:12.000;
#SELECTABLE:YES;
#BPMS:0.000=113.960;
#STOPS:;
#BGCHANGES:;

//---------------dance-single - ----------------
#NOTES:
     dance-single:
     :
     Hard:
     11:
     0.427,0.436,0.115,0.167,0.162:
0000
0000
0000
0000
,
0000
0000
0000
0000
,
0000
0000
0000
0000
,
0000
0000
1000
0100
,
1000
0001
1000
0100
1000
0000
0101
0000
,
0010
0000
1010
0000
0001
0010
0100
0000
,
1000
0100
0010
0000
1000
0001
1000
0010
,
0100
0000
0001
0001
0000
1000
0010
0100
,
0010
1000
0010
0000
0100
0000
0110
0000
,
0001
0000
1001
1000
0000
0010
0100
0000
,
0010
1000
0010
0100
0000
0000
0001
0000
,
0001
1000
2000
0100
,
0100
0000
3100
0000
0010
0001
0010
0100
,
0010
0000
0011
0000
0100
1000
0100
0000
,
1000
0001
1000
0000
0010
0100
0010
1000
,
0001
0000
1000
1000
0000
0010
0100
0000
,
0010
0100
0010
0000
1000
0001
1000
0000
,
0001
1000
0010
0000
1000
0001
0010
0100
,
1000
0001
1000
1000
0200
0000
0000
0000
,
1300
0010
2002
0000
,
3003
0000
0000
0000
0000
0000
0010
0100
0010
0000
0100
0010
0100
0000
0010
0100
,
0010
0000
1000
1000
0001
0000
0100
0010
,
0100
0000
0010
0000
0100
0000
0001
1000
0001
0000
1000
0001
1000
0000
0001
1000
,
0001
1000
0100
0020
0000
0130
0100
0000
,
0001
0000
0010
0000
0100
0000
1000
0100
1000
0000
0100
1000
0100
0000
1000
0100
,
1000
0100
0010
0002
0000
0103
0100
0000
,
0001
1000
0010
0200
0000
0010
0310
0000
,
0110
0000
0000
0000
0101
0000
0000
0000
2020
0000
0000
0000
3000
0030
0000
0000
,
1001
0000
0000
0000
1001
0000
0100
0010
0100
0000
0010
0100
0010
0000
0100
0010
,
0100
0001
1000
0010
0200
0000
0010
0000
,
0010
0000
0310
0000
1000
0000
0010
1000
0010
0000
1000
0010
1000
0000
0010
1000
,
0010
1000
0001
0200
0000
0000
0320
0000
,
1000
0000
0000
0000
1030
0000
0001
0100
0001
0000
0100
0001
0100
0000
0001
0100
,
0001
0010
0100
1000
0000
0100
1000
0000
,
0100
0000
1000
0000
0001
0000
0020
0000
0000
0000
0000
0230
0000
0000
0000
0000
,
2300
0000
0000
0000
3001
0000
0000
0000
1000
0000
0001
0000
0100
0000
0000
0100
,
0000
0000
0001
0000
1000
0000
0001
0000
0000
0000
1000
0000
0010
0000
0000
0010
,
0000
0000
0100
0000
0001
0000
0100
0000
0010
0000
1000
0000
0001
0000
0000
0001
,
0000
0000
1000
0000
0100
0000
0010
0000
0001
0000
1000
0000
0100
0000
1000
0100
,
1000
0000
0001
0000
0100
0000
0001
0000
0000
0100
0000
0001
0000
0000
1000
0000
,
0000
0000
0001
0000
0100
0000
0010
0000
0100
0000
0010
0000
1000
0000
0000
1000
,
0000
0000
0001
0000
0100
0000
0010
0000
1000
0000
0001
0000
0100
0000
0000
0100
,
0000
0000
0010
0000
0001
0000
0010
0000
0000
1000
0100
1000
0000
0100
0010
0100
,
0010
0001
1000
0002
0000
0000
0000
0000
,
0003
0000
0000
0000
;

//---------------dance-single - ----------------
#NOTES:
     dance-single:
     :
     Medium:
     7:
     0.286,0.271,0.063,0.052,0.000:
0000
0000
0000
0000
,
0000
0000
0000
0000
,
0000
0000
0000
0000
,
0000
0000
1000
0010
,
1000
0000
0001
0000
0100
0010
1000
0000
,
0001
0100
0010
0000
1000
0000
1000
0000
,
0001
0000
0001
0000
1000
0010
1000
0000
,
0001
0100
0001
0000
1000
0000
1000
0000
,
0010
0000
0010
0000
0100
0001
0100
0000
,
0010
1000
0100
0000
0001
0010
0010
0000
,
0100
0100
1000
0000
0001
0000
1000
0000
,
0001
1000
0010
0110
,
1000
0001
0100
0010
,
1000
0001
1000
0010
,
0100
0000
0001
1000
0001
0000
0100
0000
,
0010
0000
1000
1000
0000
0001
0100
0000
,
0010
1000
0010
0000
0100
0000
0100
0000
,
0100
0000
0001
0000
1000
0010
1000
0000
,
0001
0100
0001
1000
0020
0000
0000
0000
,
0100
0130
0200
0000
,
0000
0300
0000
0000
0001
0000
1000
0000
,
0001
0000
1000
1000
0000
0000
0010
0000
,
0100
0001
1000
0010
,
1000
0000
0010
0010
0000
0100
0001
0000
,
1000
0010
0100
0100
,
0100
0001
1000
0000
0001
1000
0001
0000
,
0100
0000
0010
2000
0000
0000
0001
0000
,
0001
3001
2002
0000
,
0000
3003
0000
0000
0100
0000
0010
0000
,
0100
0000
0010
0010
0000
1000
0001
0000
,
1000
1000
0001
0001
,
0001
0000
0100
0010
0000
0100
0010
0000
,
1000
0000
1000
0000
0001
0100
0001
0000
,
1000
0010
1000
1000
0000
0001
0100
0000
,
0010
0000
1000
1000
0000
0001
0001
0000
,
0100
0110
0000
0001
,
1000
1001
0010
0100
,
0001
1000
0010
1000
,
0001
1001
1000
0010
,
0100
0100
0010
0100
0000
0001
1000
0000
,
0010
0000
0010
0000
0010
1000
0010
0000
,
0100
0000
0100
0000
0100
0001
0100
0000
,
0010
0010
1000
0001
,
1000
0001
1000
1001
0000
0000
0000
0000
;

//---------------dance-single - ----------------
#NOTES:
     dance-single:
     :
     Easy:
     5:
     0.207,0.203,0.042,0.010,0.000:
0000
0000
0000
0000
,
0000
0000
0000
0000
,
0000
0000
0000
0000
,
0000
0000
0001
1000
,
0001
0001
1000
0001
,
1000
0001
1000
1000
,
0010
0010
0100
0001
,
0100
0010
0000
1000
,
0001
1000
0010
0100
,
0001
1000
1000
0010
,
0100
0000
0001
0001
0000
0000
0000
0000
,
0000
0000
1000
0010
,
1000
0001
0100
0010
,
1000
0001
1000
1000
,
0010
0010
0100
0100
,
0001
1000
1000
1000
,
0010
0010
0100
0001
,
0100
0010
2000
0000
,
0000
0000
0000
0000
,
3000
0000
1001
0000
,
0010
0000
0100
0100
,
0100
0000
0001
0001
0000
0000
1000
0000
,
0000
0001
1000
1000
,
1000
0000
0100
0100
0000
0000
0000
0000
,
0000
0010
0001
0001
,
0001
0000
1000
1000
0000
0000
0000
0000
,
0010
0000
0000
0100
0000
0000
0001
0000
,
1000
0001
1001
0000
,
0100
0000
0010
0010
,
0010
0000
0000
0100
0100
0000
0001
0000
,
1000
0001
1000
1000
,
1000
1000
0001
0100
,
0010
0010
1000
1000
,
0001
0000
0100
0100
0000
0000
0000
0000
,
0010
0000
0010
0010
0000
0000
0100
0000
,
0010
0100
0000
0001
,
1000
0001
0000
1000
,
0010
1000
1000
0010
,
1000
0010
0000
0000
,
0100
0101
0000
0010
,
0010
0100
0100
0001
,
0001
0100
0100
0010
,
0010
1000
0010
1000
,
0010
1010
0000
0000
;

//---------------dance-single - Copied from ----------------
#NOTES:
     dance-single:
     Copied from:
     Beginner:
     3:
     0.086,0.112,0.021,0.010,0.000: // measure 1
0000
0000
0000
0000
,  // measure 2
0000
0000
0000
0000
,  // measure 3
0000
0000
0000
0000
,  // measure 4
0000
0000
1000
0000
,  // measure 5
0000
0000
0001
0000
,  // measure 6
0000
0000
1000
0000
,  // measure 7
0000
0000
0001
0000
,  // measure 8
0000
0000
1000
0000
,  // measure 9
0000
0000
0010
0000
,  // measure 10
0000
0000
0010
0000
,  // measure 11
0000
0100
0000
0000
,  // measure 12
0000
0000
0001
0000
,  // measure 13
0000
1000
0000
0000
,  // measure 14
0000
0001
0000
1000
,  // measure 15
0000
0000
0000
0001
,  // measure 16
0000
1000
0000
0000
,  // measure 17
0000
0000
0001
0000
,  // measure 18
1000
0000
0020
0000
,  // measure 19
0000
0000
0000
0030
,  // measure 20
0000
0000
0100
0000
,  // measure 21
0000
0000
0010
0100
,  // measure 22
0010
0100
0000
0000
,  // measure 23
0000
0000
0001
1000
,  // measure 24
0001
1000
0000
0000
,  // measure 25
0000
0000
0010
0100
,  // measure 26
0010
0100
0000
0000
,  // measure 27
0001
0000
0000
1000
0000
0000
0000
0000
,  // measure 28
0000
0000
1001
0000
,  // measure 29
0000
0000
0010
0100
,  // measure 30
0010
0000
0000
0100
,  // measure 31
0000
0000
0010
0100
,  // measure 32
0010
0000
0000
0100
,  // measure 33
0000
0000
0001
1000
,  // measure 34
0001
0000
0000
1000
0000
0000
0000
0000
,  // measure 35
0000
0000
0000
1001
0000
0000
0000
0000
,  // measure 36
0000
0000
0010
0000
,  // measure 37
0000
0000
0000
0100
,  // measure 38
0000
0000
0000
0010
,  // measure 39
0000
0000
0000
0000
,  // measure 40
0100
0000
0000
0100
0000
0000
0010
0000
,  // measure 41
0000
0000
0000
0100
,  // measure 42
0000
0000
0000
0010
,  // measure 43
0000
0000
0000
0000
,  // measure 44
1000
0000
0000
0000
;
