#VERSION:0.83;
#TITLE:Quiver;
#SUBTITLE:;
#ARTIST:Darren Styles;
#TITLETRANSLIT:;
#SUBTITLETRANSLIT:;
#ARTISTTRANSLIT:;
#GENRE:;
#ORIGIN:;
#CREDIT:;
#BANNER:quiver-bn.png;
#BACKGROUND:quiver-bg.png;
#PREVIEWVID:;
#JACKET:quiver-jacket.png;
#CDIMAGE:;
#DISCIMAGE:;
#LYRICSPATH:;
#CDTITLE:pecd.png;
#MUSIC:Quiver.ogg;
#OFFSET:0.002000;
#SAMPLESTART:83.989998;
#SAMPLELENGTH:12.000000;
#SELECTABLE:YES;
#BPMS:0.000=160.000;
#STOPS:;
#DELAYS:;
#WARPS:;
#TIMESIGNATURES:0.000=4=4;
#TICKCOUNTS:0.000=4;
#COMBOS:0.000=1;
#SPEEDS:0.000=1.000=0.000=0;
#SCROLLS:0.000=1.000;
#FAKES:;
#LABELS:0.000=Song Start;
#BGCHANGES:;
#KEYSOUNDS:;
#ATTACKS:
;

//---------------dance-single - ----------------
#NOTEDATA:;
#CHARTNAME:;
#STEPSTYPE:dance-single;
#DESCRIPTION:;
#CHARTSTYLE:;
#DIFFICULTY:Beginner;
#METER:2;
#RADARVALUES:0.098669,0.160623,0.024093,0.000000,0.000000,86.000000,83.000000,3.000000,0.000000,0.000000,0.000000,0.000000,0.000000,0.000000,0.098669,0.160623,0.024093,0.000000,0.000000,86.000000,83.000000,3.000000,0.000000,0.000000,0.000000,0.000000,0.000000,0.000000;
#CREDIT:SHAYMIN;
#NOTES:
0000
0000
0000
0000
,
0000
0000
0000
0000
,
0000
0000
0000
0000
,
0000
0000
0000
0000
,
0000
0000
0000
0000
,
0000
0000
0000
0000
,
0000
0000
0000
0000
,
0000
0000
0000
0000
,
1000
0000
0000
0000
,
1000
0000
0000
0000
,
0001
0000
0000
0000
,
0001
0000
0000
0000
,
1000
0000
0000
0000
,
0000
0000
0000
0000
,
0001
0000
0000
0000
,
0000
0000
0000
0000
,
1000
0000
0010
0000
,
1000
0000
0000
0000
,
0001
0000
1000
0000
,
0001
0000
0000
0000
,
0010
0000
0000
0000
,
0100
0000
0000
0000
,
0010
0000
0000
0000
,
0100
0000
0000
0000
,
1000
0000
0001
0000
,
1000
0000
0000
0000
,
0010
0000
0100
0000
,
0010
0000
0000
0000
,
1000
0000
1000
0000
,
1000
0000
0000
0000
,
0001
0000
0001
0000
,
0001
0000
0000
0000
,
1000
0000
0100
0000
,
1000
0000
0000
0000
,
0001
0000
0100
0000
,
0001
0000
0000
0000
,
1000
0000
0000
0000
,
0010
0000
0000
0000
,
0100
0000
0000
0000
,
0000
0000
0000
0000
,
1001
0000
0000
0000
,
0100
0000
0000
0000
,
0010
0000
0000
0000
,
0100
0000
0000
0000
,
1001
0000
0000
0000
,
0010
0000
0000
0000
,
0100
0000
0000
0000
,
0010
0000
0000
0000
,
1000
0000
1000
0000
,
1000
0000
0000
0000
,
1000
0000
1000
0000
,
1000
0000
0000
0000
,
0001
0000
1000
0000
,
0001
0000
0000
0000
,
1000
0000
0001
0000
,
1000
0000
0000
0000
,
1001
0000
0001
0000
,
0001
0000
0000
0000
,
1000
0000
0000
0000
,
0001
0000
0000
0000
,
0010
0000
0010
0000
,
0010
0000
0000
0000
,
0100
0000
0000
0000
,
0010
0000
0000
0000
,
0001
0000
0100
0000
,
0010
0000
0000
0000
,
1000
0000
0000
0000
,
1000
0000
0000
0000
,
1000
0000
0100
0000
,
0010
0000
0000
0000
,
0001
0000
0000
0000
,
0001
0000
0000
0000
,
1000
0000
0000
0000
,
0000
0000
0000
0000
,
0001
0000
0000
0000
,
0000
0000
0000
0000
,
1000
0000
0000
0000
,
0000
0000
0000
0000
,
0001
0000
0000
0000
,
1000
0000
0000
0000
,
0001
0000
0000
0000
;

//---------------dance-single - ----------------
#NOTEDATA:;
#CHARTNAME:;
#STEPSTYPE:dance-single;
#DESCRIPTION:;
#CHARTSTYLE:;
#DIFFICULTY:Easy;
#METER:5;
#RADARVALUES:0.196190,0.289122,0.072280,0.112436,0.000000,171.000000,162.000000,9.000000,14.000000,0.000000,0.000000,0.000000,0.000000,0.000000,0.196190,0.289122,0.072280,0.112436,0.000000,171.000000,162.000000,9.000000,14.000000,0.000000,0.000000,0.000000,0.000000,0.000000;
#CREDIT:SHAYMIN;
#NOTES:
0000
0000
0000
0000
,
0000
0000
0000
0000
,
0000
0000
0000
0000
,
0000
0000
0000
0000
,
0000
0000
0000
0000
,
0000
0000
0000
0000
,
0000
0000
0000
0000
,
0000
0000
0000
0000
,
1000
1000
0000
0000
,
0001
0000
1000
0000
,
0010
0010
0010
0000
,
0100
0000
0010
0000
,
2000
0000
0000
0000
0000
3000
0000
0000
,
0000
0000
0001
0000
,
0002
0000
0000
0000
0000
0003
0000
0000
,
1000
0000
0000
0000
,
0001
0100
0001
0000
,
1000
0000
0001
0000
,
1000
0100
1000
0000
,
0010
0000
0100
0000
,
0002
0000
0000
0000
0000
0003
0000
0000
,
0100
0000
1000
0000
,
2000
0000
0000
0000
0000
3000
0000
0000
,
0100
0100
0100
0000
,
0110
0000
0010
0000
,
0001
1000
0001
0000
,
0100
0000
0100
0000
,
0010
0100
0010
0000
,
1000
1000
0100
0000
,
1000
0001
1000
0000
,
0001
0001
0100
0000
,
0001
1000
0001
0000
,
1000
1000
0100
1000
,
0001
0100
0001
0000
,
0001
0001
0100
0001
,
1000
0100
0010
0000
,
0100
1000
0010
0000
,
0100
0000
0010
0000
,
0100
0000
0000
0000
,
0000
0000
0010
0010
,
0010
0000
1000
1000
,
1000
0000
0001
0010
,
0001
0000
1000
0100
,
1000
0000
0001
0001
,
0001
0000
0100
0100
,
0100
0000
0010
1000
,
0010
0000
0100
0001
,
0100
0000
0000
0000
,
0020
0000
0030
0000
,
2000
0000
3000
0000
,
0100
0000
0010
0000
,
0100
0000
0010
0000
,
0002
0000
0003
0000
,
0200
0000
0300
0000
,
0010
0000
1000
0000
,
0002
0000
0000
0003
,
1001
0000
1000
0001
,
1001
0000
0010
0100
,
0010
0010
1000
0001
,
1000
0000
0100
0010
,
0110
0000
0010
0100
,
0110
0000
1000
0001
,
1000
1000
0100
1000
,
0001
0000
0010
1000
,
1010
0000
1000
0010
,
1010
0000
1000
0001
,
0010
0010
0001
0100
,
0001
0000
0001
0010
,
0011
0000
0010
0001
,
0011
0000
1000
0010
,
0100
0100
0010
1000
,
0001
0000
0000
0000
,
2000
0000
0000
0000
,
3000
0000
0000
0000
,
0002
0000
0000
0000
,
0003
0000
0000
0000
,
0020
0000
0000
0000
,
0030
0000
0000
0000
,
0200
0000
0300
0000
,
0020
0000
0000
0000
,
0030
0000
0000
0000
;

//---------------dance-single - ----------------
#NOTEDATA:;
#CHARTNAME:;
#STEPSTYPE:dance-single;
#DESCRIPTION:;
#CHARTSTYLE:;
#DIFFICULTY:Medium;
#METER:8;
#RADARVALUES:0.348782,0.481870,0.273059,0.120467,0.000000,304.000000,270.000000,34.000000,15.000000,0.000000,0.000000,0.000000,0.000000,0.000000,0.348782,0.481870,0.273059,0.120467,0.000000,304.000000,270.000000,34.000000,15.000000,0.000000,0.000000,0.000000,0.000000,0.000000;
#CREDIT:SHAYMIN;
#NOTES:
0000
0000
0000
0000
,
0000
0000
0000
0000
,
0000
0000
0000
0000
,
0000
0000
0000
0000
,
0000
0000
0000
0000
,
0000
0000
0000
0000
,
0000
0000
0000
0000
,
0000
0000
0000
0000
,
0010
0010
0000
1000
,
0001
0100
0001
0000
,
1000
0100
1000
0100
,
0010
0001
1000
0000
,
0002
0000
0000
0000
0100
0103
0000
0000
,
0010
0000
0000
1000
0000
0001
0000
0000
,
2000
0000
0000
0000
0100
3100
0000
0020
,
0000
0000
0000
0030
,
0001
0100
0000
0010
,
1000
0001
1000
0000
,
0100
0010
0001
0100
,
0001
0010
0100
0000
,
2000
0000
0000
0000
0010
3010
0000
0000
,
0100
0000
0000
0001
0000
1000
0000
0000
,
0002
0000
0000
0000
0010
0013
0000
0200
,
0000
0000
0300
1000
,
0001
0100
0010
1000
,
0010
0100
0001
0000
,
1000
0100
0010
0001
,
0010
0100
1000
0000
,
0001
0000
1000
0001
1000
0000
0001
0000
,
1000
0100
0010
0000
,
0001
0000
0100
0010
0100
0000
0001
0000
,
1000
0100
0010
0000
0001
0000
0000
0000
,
1000
1000
0100
0100
,
1000
0001
0100
0001
,
0010
0010
0001
0001
,
0100
0010
1000
0001
,
0010
0001
0100
0010
,
1000
0100
1000
0010
,
0100
0000
0000
0000
,
0000
0000
0110
1001
,
0110
0000
1001
0011
,
0110
0000
0000
0000
1000
0100
1000
0100
,
1000
0000
0000
0000
0001
0100
0001
0100
,
0001
0000
1001
0110
,
1001
0000
1010
0110
,
0101
0000
0000
0000
1000
0100
1000
0100
,
0010
0000
0000
0001
0100
0001
0100
0001
,
1000
0000
0000
0000
,
1000
0100
0010
0000
0001
0000
0100
0000
,
0010
1000
0100
0000
0010
0000
0001
0000
,
0100
0000
0001
1000
0000
1000
0001
0000
,
1000
0001
1000
0001
,
0010
0100
1000
0000
0010
0000
0100
0000
,
0001
0010
0100
0000
1000
0000
0010
0000
,
1000
0001
1000
0000
0001
1000
0001
0000
,
1000
0000
0001
0101
,
0110
1000
1100
0110
,
1100
0000
0001
0000
0100
0001
0100
0001
,
1000
0000
0100
0000
1000
0100
1000
0100
,
0010
0001
0101
0110
,
0101
0001
1001
0011
,
0110
0000
1000
0000
1000
0100
0010
0001
,
0010
0000
0001
0010
0001
0010
0100
1000
,
0100
1000
0000
1001
,
1001
0001
0011
0110
,
1100
0000
1000
0000
0010
0100
0010
0100
,
0010
0000
1000
0000
0100
0010
0100
0010
,
0100
1000
1001
0011
,
0110
0100
0110
0011
,
1001
0000
1000
0000
0010
1000
0010
1000
,
0001
0000
0010
0001
0100
0010
1000
0001
,
1000
0000
0000
0000
,
0002
0000
0000
0003
,
0200
0000
0010
0000
0000
0310
0000
0000
,
2000
0000
0000
3000
,
0200
0000
0010
0000
0000
0310
0000
0000
,
0002
0000
0000
0003
,
2000
0000
0010
0000
0000
3010
0000
0000
,
0002
0010
1003
0000
,
2000
0010
0002
0000
,
3003
0000
0000
0000
;

//---------------dance-single - ----------------
#NOTEDATA:;
#CHARTNAME:;
#STEPSTYPE:dance-single;
#DESCRIPTION:;
#CHARTSTYLE:;
#DIFFICULTY:Hard;
#METER:11;
#RADARVALUES:0.425652,0.546119,0.128499,0.088343,0.000000,371.000000,355.000000,16.000000,11.000000,0.000000,0.000000,0.000000,0.000000,0.000000,0.425652,0.546119,0.128499,0.088343,0.000000,371.000000,355.000000,16.000000,11.000000,0.000000,0.000000,0.000000,0.000000,0.000000;
#CREDIT:SHAYMIN;
#NOTES:
0000
0000
0000
0000
,
0000
0000
0000
0000
,
0000
0000
0000
0000
,
0000
0000
0000
0000
,
0000
0000
0000
0000
,
0000
0000
0000
0000
,
0000
0000
0000
0000
,
0000
0000
0000
0000
,
1000
0100
0000
1000
,
0001
0100
0010
0000
,
0100
0001
1000
0001
,
0010
0100
1000
0000
,
0001
0000
0100
0001
0100
0001
0000
0000
,
1000
0000
0000
0100
0000
0100
1000
0100
,
1000
0000
1000
0100
1000
0100
0000
2000
,
0000
0000
3000
0001
,
0100
0010
0000
1000
,
0001
0010
0001
0000
,
1000
0100
0010
0001
,
0100
0010
1000
0000
,
1000
0000
0100
1000
0100
1000
0000
0000
,
0001
0000
0000
0100
0000
0100
0001
0100
,
0001
0000
0001
0100
0001
0100
0000
0002
,
0000
0000
0003
1000
,
0100
1000
0010
0100
,
0001
0010
0001
0000
0100
0000
0000
0000
,
0001
0010
0001
0100
,
0010
1000
0010
0100
0000
0000
0100
0000
,
0001
0000
1000
0100
0010
0000
0001
0000
,
1000
0010
0100
0000
0001
0000
0000
0000
,
0001
0000
0100
0010
1000
0000
0001
0000
,
0010
0100
1000
0000
0001
0000
0000
0000
,
1000
1000
0100
1000
,
0010
0100
0001
0000
2000
0000
3001
0000
,
0010
0010
0001
0100
,
0010
1000
0001
0010
0002
0000
0103
0000
,
0010
0000
1000
0100
1000
0010
0100
0000
,
0001
0000
1000
0000
0001
0010
0100
1000
,
0001
0000
0000
0000
,
0000
0000
1100
0101
,
1001
1000
0011
1010
,
1001
0000
0001
0000
0010
0001
0010
0001
,
1000
0000
0001
0000
1000
0010
1000
0010
,
1000
0001
0011
1010
,
1001
0001
1100
0101
,
1001
0000
1000
0000
0100
1000
0100
1000
,
0001
0000
0100
0100
0001
0100
0001
0100
,
0001
1000
0100
1000
,
0001
0100
0001
0100
0001
1000
0001
1000
,
0010
1000
0010
1000
0001
1000
0001
1000
,
0001
0010
0001
0100
0001
0010
0001
0100
,
0010
1000
0010
0100
0010
1000
0010
0100
,
0001
0010
0100
1000
0100
0010
0001
1000
,
0010
0100
0001
0100
0010
1000
0001
0010
,
0100
1000
0001
1000
0100
1000
0001
0100
,
0010
0000
1001
0110
,
1001
0000
0001
0000
1000
0100
0010
0100
,
1000
0000
0001
0000
0100
0010
0100
0010
,
1000
0000
0100
0000
0010
0100
0010
0100
,
1000
0000
0001
0000
0100
0001
1000
0010
,
0100
0000
0001
0000
1000
0100
0010
0001
,
1000
0000
0001
0000
1000
0100
1000
0100
,
0010
0000
0001
0100
0001
0010
0100
1000
,
0001
0000
1000
0000
0100
0010
1001
0000
,
0100
0000
0100
0001
1000
0100
0010
0001
,
1000
0100
1000
0100
1000
0010
0100
0001
,
0010
0001
0010
0001
0100
0010
1000
0010
,
0100
0001
0100
0001
1000
0100
0010
0100
,
1000
0001
0010
0001
1000
0001
0100
0001
,
1000
0100
0010
0100
1000
0010
0100
0010
,
1000
0100
0010
0001
1000
0010
0100
0001
,
1000
0000
0000
0000
,
0002
0000
1000
0000
,
0010
0000
0010
0000
0000
1000
0000
0000
,
0203
0000
0010
0000
,
1000
0000
1000
0000
0000
0010
0000
0000
,
0302
0000
0010
0000
,
1000
0000
1000
0000
0000
0100
0000
0000
,
2003
0010
0200
3300
,
0002
0000
0010
0000
0100
0200
0000
0000
,
0303
0000
0000
0000
;

//---------------dance-single - ----------------
#NOTEDATA:;
#CHARTNAME:;
#STEPSTYPE:dance-single;
#DESCRIPTION:;
#CHARTSTYLE:;
#DIFFICULTY:Challenge;
#METER:13;
#RADARVALUES:0.474986,0.610368,0.192748,0.112436,0.012047,414.000000,390.000000,24.000000,14.000000,0.000000,0.000000,0.000000,0.000000,0.000000,0.474986,0.610368,0.192748,0.112436,0.012047,414.000000,390.000000,24.000000,14.000000,0.000000,0.000000,0.000000,0.000000,0.000000;
#CREDIT:SHAYMIN;
#NOTES:
// measure 0
0000
0000
0000
0000
,  // measure 1
0000
0000
0000
0000
,  // measure 2
0000
0000
0000
0000
,  // measure 3
0000
0000
0000
0000
,  // measure 4
0000
0000
0000
0000
,  // measure 5
0000
0000
0000
0000
,  // measure 6
0000
0000
0000
0000
,  // measure 7
0000
0000
0000
0000
,  // measure 8
1000
0000
0001
0000
0000
1000
0001
0000
,  // measure 9
0100
0010
0100
0000
0001
0000
0000
0000
,  // measure 10
1000
0000
0100
0010
0001
0000
0001
0000
,  // measure 11
0100
0001
1000
0000
0100
0000
0000
0000
,  // measure 12
0100
0000
1000
0100
0010
0001
0000
0000
,  // measure 13
0100
0000
0000
0001
0000
1000
0001
1000
,  // measure 14
0001
0000
1000
0010
0100
0001
0000
2000
,  // measure 15
0000
0000
3000
0100
,  // measure 16
1000
0001
0100
0000
0000
0001
1000
0000
,  // measure 17
0100
0010
0100
0000
1000
0000
0100
0000
,  // measure 18
1000
0000
0001
0100
0010
0000
0100
0000
,  // measure 19
0010
1000
0100
0000
1000
0000
0001
0000
,  // measure 20
1000
0000
0100
0010
0001
1000
0000
0000
,  // measure 21
0010
0000
0000
0100
0000
0010
0100
0010
,  // measure 22
0100
0000
0010
1000
0100
0010
0000
0002
,  // measure 23
0000
0000
0003
2000
,  // measure 24
3100
1000
0001
1000
0100
0010
0001
0000
,  // measure 25
0100
0001
1000
0001
0100
0000
0100
0000
,  // measure 26
0010
1000
0100
0000
0010
0001
0100
0001
,  // measure 27
1000
0100
0010
0001
1000
0000
0002
0000
,  // measure 28
0103
0000
0010
1000
0100
0000
1000
0000
,  // measure 29
0010
1000
0100
0000
0010
0000
0000
0000
,  // measure 30
0001
0000
0010
0001
0100
0000
0001
0000
,  // measure 31
0010
0001
0100
0000
0010
1000
0001
1000
,  // measure 32
0001
1000
0010
0000
0010
1000
0001
0000
,  // measure 33
0010
0100
0010
0000
0001
0000
1000
0000
,  // measure 34
0001
0000
1000
0010
0100
0000
0010
0000
,  // measure 35
0100
0001
0010
0001
1000
0000
0001
0000
,  // measure 36
0010
0000
0100
1000
0001
0100
0010
0000
,  // measure 37
0100
0010
0100
0010
1000
0001
0010
0100
,  // measure 38
1000
0000
0000
0000
,  // measure 39
0000
0000
0101
1100
,  // measure 40
1001
1000
0011
1010
,  // measure 41
1001
0000
0001
0000
1000
0100
1000
0100
,  // measure 42
1000
0000
1000
0000
0001
0100
0001
0100
,  // measure 43
0001
0001
1010
0011
,  // measure 44
1001
0001
1100
0101
,  // measure 45
1001
0000
1000
0000
0001
0010
0001
0010
,  // measure 46
0001
0000
1000
0100
1000
0010
1000
0010
,  // measure 47
1000
0100
1000
0010
,  // measure 48
0100
0001
0100
0001
1000
0100
0010
0001
,  // measure 49
1000
0010
1000
0010
1000
0001
0010
0100
,  // measure 50
1000
0001
0100
0001
0010
0001
0100
0010
,  // measure 51
1000
0100
1000
0010
1000
0100
0010
0001
,  // measure 52
1000
1000
0100
1000
0010
0100
0001
1000
,  // measure 53
0001
0001
0010
0001
0100
0010
1000
0100
,  // measure 54
1000
1000
0001
0001
0010
0100
1000
0001
,  // measure 55
0200
0000
0300
1001
,  // measure 56
1000
0100
0010
0000
1001
0000
0101
0000
,  // measure 57
0001
0100
0010
0000
1000
0010
0100
0001
,  // measure 58
0001
0000
1001
0000
0001
0010
0100
1000
,  // measure 59
1000
1001
1010
0110
,  // measure 60
0001
1000
0100
0000
0011
0000
1001
0000
,  // measure 61
1000
0010
0100
0000
0100
0100
0001
1000
,  // measure 62
0100
0000
0110
0010
0001
0001
1000
0010
,  // measure 63
0100
0000
0010
0000
0100
0010
0110
0000
,  // measure 64
1000
0000
1000
0010
1000
0100
1000
0010
,  // measure 65
0100
0000
0001
0000
0010
0000
0001
0000
1000
0001
1000
0000
0010
0000
0100
0000
,  // measure 66
0001
0000
1000
0000
0001
0000
0010
0000
0001
1000
0001
0000
0100
0000
0010
0000
,  // measure 67
1000
0100
0010
0100
1000
0010
0100
0001
,  // measure 68
1000
0100
0001
0100
1000
0010
0001
0010
,  // measure 69
1000
0100
1000
0010
0100
0001
0010
0001
,  // measure 70
0100
0010
0100
0000
0010
0000
0010
0000
0100
0000
0001
0000
1000
0000
0100
0000
,  // measure 71
0110
0000
0000
0000
,  // measure 72
2000
0010
0001
3000
,  // measure 73
0002
0000
0010
0000
0000
1000
0000
0000
,  // measure 74
0203
0000
0000
0020
0000
0000
0330
0000
,  // measure 75
1000
0001
0020
0000
0000
0130
0000
0000
,  // measure 76
2000
0100
0010
3000
,  // measure 77
0020
0000
0100
0000
0000
1000
0030
0000
,  // measure 78
0100
0000
0001
1000
0100
0000
0100
1000
,  // measure 79
0001
0000
0100
0010
2000
0002
0000
0000
,  // measure 80
3003
0000
0000
0000
;
