#VERSION:0.83;
#TITLE:Prove Your Love;
#SUBTITLE:;
#ARTIST:Taylor Dayne;
#TITLETRANSLIT:;
#SUBTITLETRANSLIT:;
#ARTISTTRANSLIT:;
#GENRE:;
#CREDIT:;
#MUSIC:Prove Your Love .ogg;
#BANNER:;
#BACKGROUND:;
#CDTITLE:;
#SAMPLESTART:40.700;
#SAMPLELENGTH:16.111;
#SELECTABLE:YES;
#OFFSET:-0.422;
#BPMS:0.000=119.173;
#STOPS:;
#BGCHANGES:;
#FGCHANGES:;

//--------------- dance-single - ----------------
#NOTEDATA:;
#STEPSTYPE:dance-single;
#DESCRIPTION:;
#DIFFICULTY:Hard;
#METER:11;
#RADARVALUES:0,0,0,0,0;
#NOTES:
0000
0000
0000
0000
,
0000
0000
0000
0000
,
0000
0000
0000
0000
,
0000
0000
0000
0000
2002
0000
0000
3003
,
1000
0000
0000
0000
0001
0000
0000
1000
0000
0000
0010
0000
1000
0000
0100
0000
,
0020
0000
0031
0200
0000
0310
0100
0001
,
1000
0000
0000
0100
0000
0000
1000
0000
1010
0000
0000
0000
0011
0000
0000
0000
,
0001
0000
0000
0100
0000
0000
1000
0000
0100
0000
0001
0000
1000
0100
1000
0100
,
1000
0000
0020
0100
0000
0100
0000
0200
0000
0000
0330
0000
0101
0000
0000
0000
,
0100
0000
0002
0010
0000
0010
0000
0020
0000
0000
0033
0000
0011
0000
0001
1000
,
0001
0000
2000
0001
0000
0001
0000
0002
0000
0000
3003
0000
1001
0000
0000
0000
,
2000
3200
0302
0023
,
1030
0000
0200
0010
0000
0010
0000
0020
0000
0000
0330
0000
0011
0000
0000
0000
,
0001
0000
2000
0010
0000
0010
0000
0020
0000
0000
3030
0000
1010
0000
1000
0100
,
0010
0000
0002
0100
0000
0100
0000
0200
0000
0000
0303
0000
0110
0000
0000
0000
,
2000
0000
0000
0000
3200
0000
0000
0000
0302
0000
0000
0000
0013
0000
0001
1000
,
0001
0000
1000
0100
0000
0100
0000
0010
0000
0010
0000
0001
0000
0001
0100
0010
,
0100
0000
0002
0010
0000
0010
0000
0020
0000
0000
0033
0000
0011
0000
0001
1000
,
0001
0000
0100
0010
0000
0010
0000
0100
0000
0100
0000
0001
0000
0010
0000
0011
,
0000
0001
0000
1001
0000
1000
0000
2200
0000
0000
0000
0000
0000
3300
0000
0000
,
0010
0000
0000
0000
1000
0000
0000
0002
0000
0000
0000
0000
0013
0000
0000
0000
,
0100
0000
1000
0010
0000
1000
0000
0001
0000
1000
0010
0000
1010
0000
0000
0000
,
1000
0000
0001
0010
0001
0000
1010
0000
,
1000
0000
0100
0010
0000
0001
0000
0100
0000
0001
1000
0001
1000
0001
0010
0001
,
0010
0000
0000
0000
0001
0000
0000
0200
0000
0000
0000
0000
0310
0000
0000
0000
,
0110
0000
1000
0010
0000
1000
0000
0100
0000
1000
0001
0000
1100
0000
0000
0000
,
1000
0010
0001
0010
2000
0000
3200
0000
,
0320
0000
0000
0032
0000
0000
0000
0000
2003
0000
0000
0000
3010
0000
0000
0000
,
0220
0000
0000
0000
,
0000
0000
0000
0000
0330
0000
0000
0000
0000
0000
1000
0001
1000
0001
1000
0000
,
0000
0000
0010
0100
0010
0100
0000
0010
0000
1000
0001
0000
1000
0000
0100
2000
,
0000
0000
0000
0000
0000
0000
0000
3000
0000
0001
1000
0001
1000
0010
1000
0010
,
1000
0000
0001
0010
0001
0010
0000
0001
0000
0100
0010
0000
0100
0000
0001
0010
,
0000
0000
0220
0000
0000
0000
0000
0000
0330
0000
0001
1000
0100
1000
0100
0000
,
0000
0000
1000
0010
1000
0001
0000
1000
0000
0001
0010
0000
0001
0000
0100
0020
,
0000
0000
0000
0000
0130
0000
0001
1000
0001
0000
0010
0100
0000
0100
0000
1000
,
0000
1000
0000
0001
0000
0001
1000
0001
1000
0000
0200
1000
0000
1000
0000
2000
,
0000
0000
3300
0000
1100
0000
0001
1000
0001
0000
0100
0010
0000
0010
0000
1000
,
0000
1000
0000
0001
0000
0010
0000
0011
0000
0001
0000
1001
0000
1000
0000
2200
,
0000
0000
0000
0000
0000
3300
0000
0000
0010
0000
0000
0000
1000
0000
0000
0002
,
0000
0000
0000
0000
0013
0000
0000
0000
0100
0000
1000
0010
0000
0100
0000
0001
,
0000
1000
0010
0000
1010
0000
0000
0000
1000
0000
0000
0000
0001
0000
0010
0000
,
0001
0000
0000
0000
0101
0000
0000
0000
1000
0000
0100
1000
0000
0001
0000
0100
,
0000
0001
1000
0001
1000
0100
1000
0100
1000
0000
0000
0000
0001
0000
0000
0200
,
0000
0000
0000
0000
0310
0000
0000
0000
0110
0000
1000
0010
0000
0100
0000
0001
,
0000
1000
0001
0000
1100
0000
0000
0000
1000
0000
0010
0000
0001
0000
0010
0000
,
2000
0000
0000
0000
3200
0000
0000
0000
0320
0000
0000
0032
0000
0000
0000
0000
,
2003
0000
0000
0000
3020
0000
0000
0000
0130
0000
0000
0000
0001
0000
0000
2000
,
0000
0000
0000
0000
3100
0000
0000
0000
0010
0000
0001
0100
0000
0001
0000
1000
,
0000
0001
0100
0000
0101
0000
0000
0000
0001
0000
0000
0000
1000
0000
0100
0000
,
1000
0000
0000
0000
0101
0000
0000
0000
0001
0000
0010
0100
0000
1000
0000
0010
,
0000
1000
0001
1000
0001
1000
0100
1000
0100
0000
0000
0000
1000
0000
0000
0020
,
0000
0000
0000
0000
0130
0000
0000
0000
0110
0000
0001
0100
0000
0001
0000
0010
,
0000
0001
1000
0000
0011
0000
0000
0000
0001
0000
0100
0000
1000
0000
0100
0000
,
0002
0000
0023
0000
0230
0000
1300
2000
,
0000
0000
0001
0000
3002
0000
0000
0000
0103
0000
0000
0000
0110
0000
0000
0010
,
0000
0000
0000
0000
0000
0000
0000
0000
1000
0000
0100
1000
0000
0010
0000
0100
,
0000
0001
0100
0000
0001
0000
0000
0000
0010
0000
0000
0000
0001
0000
1000
0000
,
0001
0000
0000
0000
0010
0000
0000
0000
0001
0000
0000
1000
0000
0100
0000
1000
,
0000
0001
0001
0100
0100
0000
0010
0000
,
1010
0000
0000
0000
;
