#TITLE:Physical;
#SUBTITLE:;
#ARTIST:Dua Lipa;
#TITLETRANSLIT:;
#SUBTITLETRANSLIT:;
#ARTISTTRANSLIT:;
#GENRE:;
#CREDIT:;
#BANNER:Physical.png;
#BACKGROUND:Physical-bg.png;
#LYRICSPATH:;
#CDTITLE:;
#MUSIC:Physical.ogg;
#OFFSET:1.322000;
#SAMPLESTART:42.754002;
#SAMPLELENGTH:15.000000;
#LASTBEATHINT:0.788900;
#SELECTABLE:YES;
#DISPLAYBPM:147.000000;
#BPMS:0.000000=147.000000
;
#STOPS:
;
#BGCHANGES:;
#KEYSOUNDS:;
#ATTACKS:;

//---------------dance-single - ----------------
#NOTES:
     dance-single:
     :
     Hard:
     11:
     0.533391,0.544747,0.320868,0.175019,0.000000,512.000000,468.000000,44.000000,24.000000,0.000000,0.000000,0.533391,0.544747,0.320868,0.175019,0.000000,512.000000,468.000000,44.000000,24.000000,0.000000,0.000000:
// measure 0
0000
0000
0000
0000
,  // measure 1
0000
0000
0000
0000
,  // measure 2
0000
0000
0000
0000
,  // measure 3
0000
0000
0000
0000
,  // measure 4
0000
0000
0000
0000
,  // measure 5
0000
0000
0000
0000
,  // measure 6
0000
0000
0000
0000
,  // measure 7
0000
0000
0000
0000
,  // measure 8
0000
0000
0000
0000
,  // measure 9
0001
1000
0200
0000
0310
0100
1000
0010
,  // measure 10
0100
0100
0010
1000
0001
0010
0010
0000
,  // measure 11
0100
0010
0001
1000
0010
0100
0010
1000
,  // measure 12
0100
0010
0001
0000
1000
0010
0100
0001
,  // measure 13
2000
0000
0100
0000
0001
0001
3002
0000
,  // measure 14
0100
0000
1000
0000
0010
0010
0023
0000
,  // measure 15
0001
0000
1000
0000
0100
0100
0230
0000
,  // measure 16
1000
0000
0001
0000
0010
0010
0310
0000
,  // measure 17
0100
1000
0002
0000
0103
0010
0100
0001
,  // measure 18
0010
0100
1000
0100
0010
0010
0001
0000
,  // measure 19
0100
0010
1000
0001
0010
0100
1000
0010
,  // measure 20
0100
0001
0010
0000
0100
1000
0001
0100
,  // measure 21
0020
0000
1000
0000
0100
0100
0230
0000
,  // measure 22
1000
0000
0010
0000
0001
0001
0302
0000
,  // measure 23
0010
0000
0100
0000
1000
1000
2003
0000
,  // measure 24
0001
0000
0100
0000
0010
0010
3020
0000
,  // measure 25
0130
0100
0100
0100
,  // measure 26
0001
0001
0001
0010
,  // measure 27
0110
0000
1100
0000
0011
0000
1001
0001
,  // measure 28
1000
0010
0100
0010
1000
1000
0100
0010
,  // measure 29
0001
1000
0001
0010
0100
1000
0010
1000
,  // measure 30
0001
1000
0100
0010
0001
1000
1001
0001
,  // measure 31
0200
0000
0310
1000
0002
0000
0013
0100
,  // measure 32
2000
0000
3100
1000
0002
0000
0103
0010
,  // measure 33
2000
0100
0001
3010
,  // measure 34
0100
0000
0010
0000
1000
0001
1001
0000
,  // measure 35
0110
0000
0101
0000
1010
0000
1001
1000
,  // measure 36
0001
0100
0010
1000
0001
0001
0010
0100
,  // measure 37
1000
0100
0001
0100
1000
0010
0100
0001
,  // measure 38
0010
1000
0010
0001
1000
0010
0110
0100
,  // measure 39
0001
0000
0011
0100
1000
0000
1010
0100
,  // measure 40
0001
0000
0101
0001
0010
0000
1100
1000
,  // measure 41
0002
0100
1000
0013
,  // measure 42
0110
0000
1001
0000
1000
1000
0001
0001
,  // measure 43
1000
0010
0100
0100
0001
0010
0100
1000
,  // measure 44
0001
0100
1000
0100
0001
0100
0010
0010
,  // measure 45
1000
0100
0010
0010
0001
1000
0001
0100
,  // measure 46
0010
1000
0100
0010
0100
1000
0001
0001
,  // measure 47
0100
0010
1000
1000
0100
0010
0100
0100
,  // measure 48
0010
0001
1000
0010
0100
0001
1000
0100
,  // measure 49
0020
1000
0100
0031
,  // measure 50
0010
0000
0100
0000
1000
0001
1001
0000
,  // measure 51
0001
0010
0100
0100
1000
0010
0100
0001
,  // measure 52
1000
0100
0001
0100
1000
0100
0010
0010
,  // measure 53
0001
0100
0010
0010
1000
0001
1000
0100
,  // measure 54
0010
0001
0100
0010
0100
0001
1000
1000
,  // measure 55
0100
0010
0001
0001
0100
0010
0100
0100
,  // measure 56
0010
1000
0001
0010
0100
1000
0001
0100
,  // measure 57
0020
0001
0100
1030
,  // measure 58
0010
0000
0100
0000
0001
1000
1001
0000
,  // measure 59
0001
0101
1000
1100
,  // measure 60
0100
0000
0110
0000
0100
1000
1001
0000
,  // measure 61
0001
0011
1000
1010
,  // measure 62
0100
0000
0110
0000
0100
0001
1001
0000
,  // measure 63
0001
0000
0100
0100
0010
1000
0100
0000
,  // measure 64
1000
0000
0100
0100
0010
0001
0100
0000
,  // measure 65
2002
0000
0000
3003
,  // measure 66
1000
0000
0001
0000
1000
0001
1001
0000
,  // measure 67
0110
0000
1010
0000
0101
0000
1001
0001
,  // measure 68
1000
0010
0100
0001
1000
1000
0100
0010
,  // measure 69
0001
0010
1000
0010
0001
0100
0010
1000
,  // measure 70
0100
0001
0100
1000
0001
0100
0110
0010
,  // measure 71
1000
0000
1100
0010
0001
0000
0101
0010
,  // measure 72
1000
0000
1010
1000
0100
0000
0011
0001
,  // measure 73
2000
0010
0001
3100
,  // measure 74
0110
0000
1001
0000
0001
0001
1000
1000
,  // measure 75
0010
0100
0001
0010
0100
0010
0001
1000
,  // measure 76
0010
0100
0001
0100
0010
1000
1001
0000
,  // measure 77
1000
0100
0010
0100
1000
0010
0100
0010
,  // measure 78
1000
0001
0100
0010
0100
0001
1001
0000
,  // measure 79
0001
0010
0100
0010
0001
0100
0010
0100
,  // measure 80
0001
1000
0100
0010
0100
1000
1001
0000
,  // measure 81
0001
0100
0010
1000
0100
0010
0001
0010
,  // measure 82
0100
1000
1000
0001
0001
0100
0220
0000
,  // measure 83
0330
0000
0000
0000
;

//---------------dance-single - ----------------
#NOTES:
     dance-single:
     :
     Medium:
     8:
     0.371915,0.423692,0.160434,0.328161,0.000000,357.000000,335.000000,22.000000,45.000000,0.000000,0.000000,0.371915,0.423692,0.160434,0.328161,0.000000,357.000000,335.000000,22.000000,45.000000,0.000000,0.000000:
0000
0000
0000
0000
,
0000
0000
0000
0000
,
0000
0000
0000
0000
,
0000
0000
0000
0000
,
0000
0000
0000
0000
,
0000
0000
0000
0000
,
0000
0000
0000
0000
,
0000
0000
0000
0000
,
0000
0000
0000
0000
,
0001
0101
1000
1100
,
0100
0000
0110
0000
0010
0100
0010
0000
,
0001
0011
1000
1010
,
0010
0000
0110
0000
0100
0010
0100
0000
,
0001
0000
1000
0000
0100
1000
0100
0000
,
1000
0000
0001
0000
0010
0001
0010
0000
,
0001
0000
1000
0000
0010
1000
0010
0000
,
1000
0000
0001
0000
0100
0001
0100
0000
,
0010
1000
0100
0000
0010
0000
0001
0000
,
0010
0001
0100
0000
0010
0000
1000
0000
,
0100
1000
0100
0000
0010
0001
0010
0000
,
1000
0100
0010
0001
0010
0000
0110
0000
,
1000
0000
0100
0000
0010
0001
0010
0000
,
0001
0000
0100
0000
0010
1000
0010
0000
,
1000
0000
0010
0000
0100
0001
0100
0000
,
0001
0000
0010
0000
0100
1000
0100
0000
,
1000
1000
1000
1000
,
0001
0001
0001
0001
,
2000
0000
0100
0000
3100
0000
0010
0001
,
0010
0000
0001
0000
1000
0001
1000
0000
,
0001
0002
0103
0200
,
0310
0000
1000
0001
1000
0000
0001
0200
,
0000
0300
0001
0200
0000
0300
0001
0020
,
0000
0030
0001
0020
0000
0030
0100
2000
,
0000
3000
0100
2000
0000
0000
3000
0000
,
1001
0000
0110
0000
1000
0001
1000
0000
,
0002
0000
0100
0000
0103
0000
0010
1000
,
0010
0000
1000
0000
0001
1000
0001
0000
,
1000
2000
3100
0200
,
0310
0000
0001
1000
0001
0000
1000
0200
,
0000
0300
1000
0200
0000
0300
0100
0020
,
0000
0030
0100
0020
0000
0030
0010
0002
,
0000
0000
0000
0003
,
1001
0000
0110
0000
0001
1000
0001
0000
,
1000
0000
0100
0200
0000
0000
0300
0010
,
0000
0001
0010
0000
0100
0000
1000
0002
,
0000
0003
0100
0020
0000
0030
0000
1000
,
0000
0100
0010
0000
0100
1000
0100
0200
,
0000
0300
0010
0020
0000
0030
0001
0002
,
0000
0003
1000
0010
1000
0000
0001
0000
,
2002
0000
0000
3003
,
1001
0000
0110
0000
0001
1000
0001
0000
,
0001
0000
0010
0020
0000
0000
0030
0100
,
0000
1000
0100
0000
0010
0000
0001
2000
,
0000
3000
0010
0200
0000
0300
0000
0001
,
0000
0010
0100
0000
0010
0001
0010
0020
,
0000
0030
0100
0200
0000
0300
1000
2000
,
0000
3000
0001
0100
0001
0000
1000
0000
,
2002
0000
0000
3003
,
1001
0000
0110
0000
1000
0001
1000
0000
,
0100
0000
0010
0000
0001
0010
0001
0000
,
0100
0000
0010
0000
1000
0010
1000
0000
,
0010
0000
0100
0000
0001
1000
0001
0000
,
0010
0000
0100
0000
1000
0001
1000
0010
,
0100
0000
0001
0010
0100
1000
0100
0000
,
1000
0000
0100
0010
0001
1000
0010
0000
,
0220
0000
0000
0330
,
0110
0000
1001
0000
1000
0001
1000
0000
,
0002
0000
0010
0000
0013
0000
0100
1000
,
0100
0000
1000
0000
0001
1000
0001
0000
,
1000
2000
3010
0020
,
0130
0000
0001
1000
0001
0000
1000
0020
,
0000
0030
1000
0020
0000
0030
1000
0200
,
0000
0300
1000
0200
0000
0300
0010
0002
,
0000
0000
0000
0003
,
1001
0000
0110
0000
0001
1000
0001
0000
,
1000
0100
1000
0000
0100
0010
0100
0000
,
0001
0000
1000
0000
0001
1000
0001
0000
,
0100
0001
0100
0000
0010
0100
0010
0000
,
1000
0000
0001
0000
1000
0001
1000
0000
,
0100
0010
0001
0000
0010
0100
1000
0000
,
0010
0100
0010
0000
1000
0001
1000
0000
,
0100
0000
0010
0020
0000
0000
0000
0000
,
0030
0001
0010
0001
0010
0001
2000
0000
,
3000
0000
0000
0000
;

//---------------dance-single - ----------------
#NOTES:
     dance-single:
     :
     Easy:
     6:
     0.281280,0.362070,0.153142,0.226066,0.000000,270.000000,249.000000,21.000000,31.000000,0.000000,0.000000,0.281280,0.362070,0.153142,0.226066,0.000000,270.000000,249.000000,21.000000,31.000000,0.000000,0.000000:
0000
0000
0000
0000
,
0000
0000
0000
0000
,
0000
0000
0000
0000
,
0000
0000
0000
0000
,
0000
0000
0000
0000
,
0000
0000
0000
0000
,
0000
0000
0000
0000
,
0000
0000
0000
0000
,
0000
0000
0000
0000
,
1000
0200
0310
0010
,
0001
0100
0010
1000
,
0001
0001
0010
0010
,
0100
0100
1000
1000
,
0002
0100
0000
0103
,
2000
0100
0000
3100
,
0002
0010
0000
0013
,
2000
0010
0000
3010
,
0001
0100
0010
1000
,
0100
0010
0010
0100
,
1000
0100
0010
0001
,
0010
0100
0010
0001
,
2000
0010
0000
3010
,
0002
0010
0000
0013
,
2000
0100
0000
3100
,
0002
0100
0000
0103
,
0010
0010
0010
0010
,
0010
0010
0010
0010
,
1000
1000
0001
0000
,
0010
0010
0100
0000
,
1000
0100
0010
0001
,
0100
0100
0100
0000
,
0020
0030
0020
0030
,
0200
0300
0200
0300
,
0002
0003
2000
3000
,
0001
1000
1001
1001
,
0001
0010
0010
0000
,
1000
0010
0010
0000
,
0001
0001
0100
0100
,
1000
0100
0001
0010
,
0200
0300
0200
0300
,
0020
0030
0020
0032
,
2000
0000
0000
3003
,
1000
0001
1001
1001
,
0001
0100
0100
0010
,
1000
1000
1000
0100
,
0100
0010
0010
0001
,
1000
0001
0100
0010
,
0010
1000
1000
0100
,
0100
0010
0001
1000
,
0001
0100
0010
1000
,
0100
0010
0110
0110
,
1000
0010
0010
0100
,
0001
0001
0001
0010
,
0010
0100
0100
1000
,
0001
1000
0010
0100
,
0100
0001
0001
0010
,
0010
0100
1000
0001
,
1000
0010
0100
0001
,
0010
0100
0110
0110
,
1000
0001
0000
0001
,
0000
1000
0000
1000
,
0000
0010
0000
0010
,
0000
0100
0000
0100
,
0000
0001
0000
1000
,
0000
0010
0000
0100
,
2002
0000
0000
3003
,
1000
0001
1001
1001
,
1000
0100
0100
0000
,
0001
0100
0100
0000
,
1000
1000
0010
0010
,
0001
0010
1000
0100
,
0020
0030
0020
0030
,
0200
0300
0200
2300
,
0002
0000
0000
3003
,
0001
1000
1001
1001
,
1000
1000
0001
0001
,
0100
0010
0110
0110
,
0001
0001
1000
1000
,
0010
0100
1001
1001
,
0010
0010
0100
0100
,
1000
0001
1001
1001
,
0020
0130
0200
0310
,
1000
0001
1001
1001
;

//---------------dance-single - ----------------
#NOTES:
     dance-single:
     :
     Beginner:
     3:
     0.136473,0.211208,0.058340,0.065632,0.000000,131.000000,123.000000,8.000000,9.000000,0.000000,0.000000,0.136473,0.211208,0.058340,0.065632,0.000000,131.000000,123.000000,8.000000,9.000000,0.000000,0.000000:
0000
0000
0000
0000
,
0000
0000
0000
0000
,
0000
0000
0000
0000
,
0000
0000
0000
0000
,
0000
0000
0000
0000
,
0000
0000
0000
0000
,
0000
0000
0000
0000
,
0000
0000
0000
0000
,
0000
0000
0000
0000
,
1000
0000
0000
0000
,
1000
0000
0000
0000
,
0001
0000
0000
0000
,
0001
0000
0000
0000
,
0020
0000
0000
0000
,
0030
0000
0000
0000
,
0020
0000
0000
0000
,
0030
0000
0000
0000
,
0100
0000
0100
0000
,
0100
0000
0000
0000
,
1000
0000
1000
0000
,
1000
0000
0000
0000
,
0020
0000
0000
0000
,
0030
0000
0000
0000
,
0020
0000
0000
0000
,
0030
0000
0000
0000
,
0110
0000
0000
0000
,
1001
0000
0000
0000
,
0000
1000
1000
0000
,
0100
0100
0100
0000
,
0010
0000
0010
0000
,
0010
0000
0000
0000
,
0001
0000
0000
0000
,
1000
0000
0000
0000
,
0001
0000
0000
0000
,
1000
1000
1000
0000
,
0000
0010
0010
0000
,
0100
0100
0100
0000
,
0001
0000
0001
0000
,
1000
0000
1000
0000
,
0100
0000
0100
0000
,
0010
0000
0010
0000
,
0002
0000
0000
0003
,
0001
0001
0001
0000
,
0000
0010
0000
0010
,
0000
0010
0000
0000
,
0000
0100
0000
0100
,
0000
0100
0000
0000
,
0000
1000
0000
0001
,
0000
1000
0000
0001
,
0000
0100
0000
0100
,
0000
0000
0010
0010
,
0000
1000
0000
0001
,
0000
1000
0000
0001
,
0000
0010
0000
0100
,
0000
0010
0000
0100
,
0000
1000
0000
0001
,
0000
0100
0000
0010
,
0000
1000
0000
0001
,
0000
0000
0010
0010
,
0000
1001
0000
0000
,
0000
0000
0000
0000
,
1001
0000
0000
0000
,
0110
0000
0000
0000
,
0110
0000
0000
0000
,
1001
0000
0000
0000
,
2002
0000
0000
3003
,
1000
1000
1000
0000
,
0000
0100
0100
0000
,
0010
0010
0010
0000
,
1000
0000
1000
0000
,
0001
0000
0001
0000
,
0010
0000
0010
0000
,
0100
0000
0100
0000
,
2000
0000
0000
3000
,
1000
1000
1000
0000
,
0001
0000
0001
0000
,
0100
0100
0100
0000
,
0010
0000
0010
0000
,
1000
0000
0001
0001
,
0010
0000
0010
0000
,
0100
0100
0100
0000
,
0020
0000
0000
0030
,
0100
0100
0100
0100
;
