#TITLE:PhonDrome!;
#SUBTITLE:;
#ARTIST:Micelle;
#TITLETRANSLIT:;
#SUBTITLETRANSLIT:;
#ARTISTTRANSLIT:;
#GENRE:;
#CREDIT:;
#BANNER:banner.png;
#BACKGROUND:background.png;
#LYRICSPATH:;
#CDTITLE:;
#MUSIC:PhonDrome!.ogg;
#OFFSET:-0.140000;
#SAMPLESTART:87.297890;
#SAMPLELENGTH:15.157890;
#SELECTABLE:YES;
#BPMS:0.000000=190.000000
,135.000000=126.667000
,171.000000=190.000000
,389.000000=126.667000
;
#STOPS:73.000000=0.632000,
88.000000=0.316000,
351.500000=0.316000,
352.500000=0.316000
;
#BGCHANGES:0.000=PhonDrome!-BGA.mp4=1.000=0=0=1=====,
99999=-nosongbg-=1.000=0=0=0 // don't automatically add -songbackground-
;
#KEYSOUNDS:;
#ATTACKS:;

//---------------dance-single - ----------------
#NOTES:
     dance-single:
     :
     Hard:
     16:
     0.682300,0.974030,0.334400,0.283513,0.552486,657.000000,611.000000,46.000000,39.000000,0.000000,0.000000,0.682300,0.974030,0.334400,0.283513,0.552486,657.000000,611.000000,46.000000,39.000000,0.000000,0.000000:
// measure 0
0000
0000
0000
0000
,  // measure 1
0000
0000
0000
0000
,  // measure 2
0000
0000
0000
0000
,  // measure 3
0000
0000
0000
0000
,  // measure 4
0000
0000
0000
0000
,  // measure 5
0000
0000
0000
0000
,  // measure 6
0000
0000
0000
0000
,  // measure 7
0011
0000
0000
1010
0000
0011
0000
2002
,  // measure 8
0000
0000
0000
0000
,  // measure 9
0000
0000
0000
0000
,  // measure 10
3003
0000
0000
1002
0000
0013
2001
0000
,  // measure 11
3000
0000
0011
0000
2000
0000
3001
0001
,  // measure 12
0100
0000
0010
0000
1000
0010
0100
0010
2000
0000
0000
0000
3002
0000
0000
0000
,  // measure 13
0023
0000
0130
0000
0010
0001
0100
0010
,  // measure 14
1000
0000
1000
0000
0001
0000
0010
0000
1000
0000
0010
0000
0000
0100
0000
0000
,  // measure 15
1000
0000
0000
0000
0200
0000
0000
0000
0310
0001
0010
0001
0100
0001
0100
0001
,  // measure 16
0100
0010
1000
0010
0100
0000
0000
0000
1001
0000
0000
0000
1001
0000
0000
0000
,  // measure 17
0001
0000
0100
0010
0000
0010
0100
0010
1000
0001
0000
1000
,  // measure 18
0100
0010
0100
0010
0100
0000
0000
0000
1000
0000
0000
0000
0010
0000
0000
0000
,  // measure 19
0100
0001
0010
0100
,  // measure 20
1000
0000
0001
1000
0001
0000
1000
0000
0001
0000
0000
0000
1000
0000
0000
0000
,  // measure 21
0010
1000
0100
0010
,  // measure 22
0000
0100
1000
0001
,  // measure 23
0100
0001
1000
0010
,  // measure 24
1000
0000
0100
0010
0001
0010
1000
0010
,  // measure 25
0100
0000
1000
0000
0001
0100
0001
0000
0100
0000
0010
1000
0000
0100
0010
0000
,  // measure 26
0000
0000
1001
0000
1000
0000
0010
1000
,  // measure 27
0001
0010
0001
1000
0100
1000
0001
0010
,  // measure 28
0100
0000
0011
0000
0010
0001
0100
0010
,  // measure 29
1000
0001
1001
0000
1000
0010
0100
0100
,  // measure 30
0001
0000
0000
0000
1010
0000
0000
1010
0000
0000
1010
0000
0000
1010
0000
0000
,  // measure 31
0000
0000
0000
0000
0101
0000
0001
0100
0000
0001
0100
0000
0001
0100
0000
0000
,  // measure 32
0000
0000
0000
0000
1001
0000
1000
0100
0000
0100
0010
0000
0010
0001
0000
0001
,  // measure 33
0100
0000
0100
0010
0000
0010
1000
0000
1000
0001
0000
0001
1000
0000
0000
0000
,  // measure 34
0000
0000
0000
0000
0000
0000
0001
0010
,  // measure 35
0100
0000
1000
0000
0001
0100
0001
1000
0100
0010
0100
1000
0001
0000
0100
0000
,  // measure 36
0001
0000
1000
0010
0000
1000
0100
0000
0010
0100
0000
0100
1000
0000
0001
0000
0000
0000
1010
0000
0000
0010
0000
0000
,  // measure 37
1000
0000
0100
0000
0010
0001
0100
0010
1000
0100
0010
0001
1000
0000
0000
0001
,  // measure 38
0100
0000
0010
0100
0000
0100
0010
0000
1000
0100
0000
0100
0010
0000
0100
0000
0000
0000
0010
0000
0000
0001
0000
1000
,  // measure 39
0000
0000
0000
0000
0100
0000
1000
0000
0000
0000
0000
0000
0010
0000
0000
0100
0000
0000
0000
0000
0000
0002
0000
0000
0000
0000
0000
0000
0000
0000
0000
0000
0000
0000
0000
0000
0013
0000
0000
0000
0100
0000
1000
0000
0000
0000
1000
0000
,  // measure 40
0020
0000
0000
0000
0000
0000
0130
0000
0000
0001
0000
1000
0001
0000
0001
1000
0000
0000
0010
0000
0000
0000
0000
0000
,  // measure 41
1000
0000
0001
0000
0000
0000
0101
0000
0001
0000
1000
0000
0100
0010
0100
1000
0000
0000
0002
0000
0000
0000
0000
0000
,  // measure 42
0103
0010
1000
0001
0001
1000
0010
0010
0100
2002
0000
0000
,  // measure 43
0000
0000
0000
3003
,  // measure 44
0000
0000
0001
0200
,  // measure 45
0000
0310
0000
0000
1000
0000
0002
0000
,  // measure 46
0000
0023
0000
0000
0230
0000
0000
0000
,  // measure 47
0000
0000
0300
1000
,  // measure 48
0001
0000
1000
0001
0000
1000
0000
0001
,  // measure 49
1000
0000
1000
0001
0000
0000
0110
0000
,  // measure 50
0000
1010
0000
0101
0000
2020
0000
0000
,  // measure 51
0000
3000
0200
0000
0000
0330
1001
0000
,  // measure 52
0110
0000
0100
1001
0000
0110
0000
0100
,  // measure 53
0010
0000
0001
0000
1000
0001
0100
0001
1000
0100
1000
0001
1000
0000
0000
0000
,  // measure 54
0101
0000
0001
1001
0000
1200
0000
0000
,  // measure 55
0000
0000
0000
0000
0310
0000
0000
0100
0000
0000
1000
0000
0002
0000
0000
0000
,  // measure 56
0000
0000
0013
0000
0000
0000
0001
0000
0010
0000
0001
0000
1000
0000
0000
0100
,  // measure 57
0000
0000
1000
0001
0100
0000
0010
0000
1000
0000
0001
0000
0020
0000
0000
0000
,  // measure 58
0000
0230
0000
0000
0000
0000
0310
0001
,  // measure 59
1000
0100
0010
0100
1000
0010
0000
0101
,  // measure 60
0000
0000
1001
0000
0000
0000
1100
0000
0000
0000
1001
0000
0000
1010
0000
0000
,  // measure 61
0101
0000
0000
0011
0000
0000
0110
0000
0000
1100
0000
0000
0100
0000
0010
0000
,  // measure 62
0001
0000
0100
0000
0010
0100
0010
0100
0001
1000
0001
1000
0000
0000
0000
0000
,  // measure 63
0000
2001
0000
3010
1002
0000
0013
0000
,  // measure 64
0001
0000
0100
0010
0000
1000
0000
0100
,  // measure 65
0001
0100
0010
0001
1000
0010
0000
0100
,  // measure 66
1000
0000
0100
0000
0001
0000
0010
0000
0000
0000
0100
0010
0001
0000
1000
0000
,  // measure 67
0001
0100
0000
0010
1000
0001
0000
1000
,  // measure 68
0100
0000
0010
0100
1000
0001
0100
1000
,  // measure 69
0100
0000
0010
0000
0000
0000
1000
0010
1000
0000
0001
0000
0010
0100
0010
0100
,  // measure 70
0010
0000
0001
0012
0000
1000
0000
0010
,  // measure 71
0000
0100
0203
0000
0320
0000
1030
0000
,  // measure 72
0100
0000
0010
0100
0000
1000
0000
0100
,  // measure 73
0001
0100
0010
0001
0100
1000
0000
0100
,  // measure 74
0010
0000
1000
0000
0100
0000
0010
0000
0000
0000
0100
0010
0001
0000
1000
0000
,  // measure 75
0010
1000
0000
0001
0010
0001
0000
1000
,  // measure 76
0010
0000
0100
0001
0010
1000
0010
0100
,  // measure 77
0010
0000
0001
0000
0000
0000
1000
0000
0001
0100
0001
0000
0000
0000
0100
0000
,  // measure 78
0001
0000
0010
0000
0001
1000
0001
0000
1000
0000
0020
0000
0000
0000
0000
0000
,  // measure 79
0000
0000
0000
0000
0000
0000
0130
0100
,  // measure 80
0001
0000
0000
0001
0000
0000
1000
0000
0100
0000
0010
0000
0001
0000
0010
0000
0100
0000
0020
0000
0000
0000
0000
0000
,  // measure 81
0000
0130
0000
2001
,  // measure 82
3001
0000
1000
0010
0000
0100
0001
0000
0010
0000
0100
0000
0010
0000
0001
0010
,  // measure 83
0001
0000
0010
0001
0000
1000
0010
0000
0200
0000
0000
0000
0310
0000
1000
0100
,  // measure 84
1000
0000
0001
0100
0000
0010
0100
0000
0001
1000
0001
0000
1000
0010
1000
0010
,  // measure 85
1000
0000
0010
1000
0001
0000
0000
0001
0000
0000
0001
0000
1000
0000
0100
0000
,  // measure 86
0010
0000
0100
1000
0000
0010
0100
0000
0001
0000
1000
0000
0100
0000
0010
0001
,  // measure 87
0010
0000
0100
0010
0100
0000
1000
0100
1000
0000
0100
0000
0010
0000
0100
0000
,  // measure 88
1000
0000
0001
0000
0100
0000
0000
0010
0000
0000
1000
0000
0000
0001
0000
0000
,  // measure 89
0000
0000
0000
0000
1000
0000
0010
0000
0100
0000
0001
0010
0000
0100
0010
0000
,  // measure 90
0001
0000
0001
0000
1000
0000
0001
0000
0010
0100
0010
0001
0000
1000
0010
0000
,  // measure 91
0100
0010
1000
0100
1000
0000
0100
0010
0100
1000
0001
1000
0000
0001
0100
0000
,  // measure 92
0010
0000
1000
0000
0100
0000
0010
0001
0010
0000
0100
1000
0100
0000
1000
0001
,  // measure 93
1000
0000
0001
0000
0100
0000
0010
1000
0001
0010
0100
0000
0010
0001
0000
0000
,  // measure 94
1000
0000
0010
0000
0100
0000
0010
1000
0010
0000
0100
0010
1000
0000
0001
0010
,  // measure 95
0100
0000
0010
0001
1000
0001
1000
0001
0020
0000
0000
0000
0031
1000
0001
1000
,  // measure 96
0200
0000
0000
0000
1300
0100
0010
0001
0010
0001
0100
0010
0100
0010
1000
0010
,  // measure 97
0100
0001
1000
0100
0020
0000
0000
0000
0000
0000
0000
0000
0000
0000
0000
0000
,  // measure 98
0000
0000
0000
0000
0000
0000
0000
0000
0000
0000
0000
0000
0000
0000
0000
0000
0000
0000
0000
0000
0000
0000
0000
0000
0000
0000
0000
0000
0000
0000
0000
0000
0000
0000
0000
0000
0000
0000
0000
0000
0000
0000
0000
0000
0000
0000
0000
0000
0000
0000
0000
0000
0000
0000
0000
0000
0000
0000
0000
0000
0000
0000
0000
0000
0000
0000
0000
0000
0000
0000
0000
0000
0000
0000
0000
0000
0000
0000
0000
0000
0000
0000
0000
0000
0000
0000
0000
0000
0000
0000
0000
0000
0000
0000
0000
0000
0000
0000
0000
0000
0000
0000
0000
0000
0000
0000
0000
0000
0000
0000
0000
0000
0000
0000
0000
0000
0000
0000
0000
0000
0000
0000
0000
0000
0000
0000
0000
0000
0000
0000
0000
0000
0000
0000
0000
0000
0000
0000
0000
0000
0000
0000
0000
0000
0030
0000
0000
0000
0000
0000
0000
0000
0100
0000
0000
0000
0000
0000
0000
0000
0000
0000
1000
0000
0000
0000
0000
0000
0000
0000
0000
0000
0000
0000
0000
0000
2002
0000
0000
0000
0000
0000
0000
0000
0000
0000
0000
0000
0000
0000
0000
0000
,  // measure 99
0000
3003
0000
0000
;

//---------------dance-single - ----------------
#NOTES:
     dance-single:
     :
     Medium:
     13:
     0.497445,0.613278,0.210817,0.174469,0.138122,479.000000,450.000000,29.000000,24.000000,0.000000,0.000000,0.497445,0.613278,0.210817,0.174469,0.138122,479.000000,450.000000,29.000000,24.000000,0.000000,0.000000:
0000
0000
0000
0000
,
0000
0000
0000
0000
,
0000
0000
0000
0000
,
0000
0000
0000
0000
,
0000
0000
0000
0000
,
0000
0000
0000
0000
,
0000
0000
0000
0000
,
1001
0000
0000
0010
0000
0010
0000
0020
,
0000
0000
0000
0000
,
0000
0000
0000
0000
,
0030
0000
0000
1001
0000
0010
1001
0000
,
0000
0001
0100
0010
,
1000
0000
0100
0010
0002
0000
2003
0000
,
3010
1000
0001
0010
,
0100
0000
0010
0000
0001
0000
1000
0000
0010
0000
0100
0000
0000
0100
0000
0000
,
0100
0000
0020
0000
1030
0010
1000
0010
,
0100
0001
0011
1100
,
1001
0000
1000
0001
0000
0001
1000
0000
1000
0010
0000
0010
,
0200
0300
0010
1000
,
0000
1000
0000
1000
,
0001
1000
0001
0000
0000
0000
0100
0000
,
0000
0010
1000
0010
,
0000
0000
0100
0000
0010
0000
0000
0010
,
1000
0100
0000
0010
0001
0010
0001
0000
,
0010
0001
1000
0010
,
0100
0000
0010
0010
0100
0010
1000
0001
,
0010
0000
0100
0000
0010
0000
0001
0010
,
0001
0000
0100
0000
0010
0000
1000
0010
,
0100
0000
0010
0000
1000
0000
0001
0010
,
0100
0000
0010
0000
0001
0000
0100
0100
,
0100
0000
0000
0000
0010
0000
0000
1000
0000
0000
0001
0000
0000
0010
0000
0000
,
0000
0000
0000
0000
0100
0000
0000
0010
0000
0000
0001
0000
0000
1000
0000
0000
,
0000
0000
0000
0000
0001
0000
0000
0100
0000
0000
1000
0000
0000
0100
0000
0000
,
0010
0000
0000
1000
0000
0000
0001
0000
0000
0010
0000
0000
1001
0000
0000
0000
,
0000
0000
0000
0000
0000
0000
1000
0010
,
0001
0010
2000
0000
3100
0000
0010
0000
,
0100
0000
0010
0001
0100
0001
1000
0000
,
0001
0000
1000
0010
0100
0001
0010
0000
,
0100
0000
0010
0000
0001
0000
0000
0000
1000
0000
0000
0000
0001
0000
0000
0100
,
0000
0000
0010
0000
1000
0000
0000
0001
0000
0000
0000
0000
1000
0000
0001
0000
,
0010
0000
0100
0010
0001
0000
1200
0000
,
0310
0000
0100
1000
0010
0010
0200
0000
,
0310
0000
1000
0000
0010
0000
0100
0000
0000
0001
0000
0000
0010
0000
0000
0100
0000
0000
2000
0000
0000
0000
0000
0000
,
0000
0000
0000
3000
,
0000
0000
0001
0100
,
0000
0100
0000
0000
0010
0000
1000
0000
,
0000
0002
0000
0000
0200
0000
0000
0000
,
0000
0000
0303
0001
,
0100
0000
0010
1000
0000
0010
0000
1000
,
0010
0000
0100
0010
0000
0000
1001
0000
,
0000
0110
0000
0110
0000
0220
0000
0000
,
0000
0330
0000
0001
,
1000
0000
0010
1000
0000
1010
0000
0000
,
0000
0000
1000
0010
0100
0001
0011
0000
,
0110
0000
1000
0100
0000
1100
0000
0000
,
0000
0000
0000
0000
0100
0000
0000
0100
0000
0000
0100
0000
1000
0000
0000
0000
,
0000
0000
0001
0000
0000
0000
0100
0000
0010
0000
1000
0000
0001
0000
0000
1000
,
0000
0001
0010
1000
0010
0001
0020
0000
,
0000
0230
0000
0000
0000
0000
0000
0000
,
0000
0000
0000
0000
0000
0300
0000
0011
,
0000
0000
1100
0000
0000
0000
0101
0000
0000
0000
1010
0000
0000
1000
0000
0000
,
0010
0000
0000
0100
0000
0000
0001
0000
0000
0010
0000
0000
0100
0000
1000
0000
,
0001
0100
0010
0001
0010
1000
0010
0000
,
0000
1001
0000
0010
1001
0000
1000
0000
,
0001
0000
0010
0100
0000
0010
0000
0001
,
0100
0001
1000
0100
0010
0001
0000
0010
,
0001
0100
0001
1000
0000
0001
0100
1000
,
0100
0001
0000
1000
0010
1000
0000
0010
,
1000
0000
0010
0100
0001
0010
0100
0010
,
0001
1000
0000
0001
1000
0100
0000
0000
,
1100
0000
0010
0011
0000
0101
0000
1010
,
0000
0010
0110
0000
0002
0000
0013
0000
,
0100
0000
0010
0001
0000
1000
0000
0010
,
0100
0001
1000
0100
1000
0001
0000
1000
,
0010
1000
0001
0010
0000
0001
0010
1000
,
0010
0100
0000
0010
0001
1000
0000
0001
,
0100
0000
0001
0100
0010
1000
0100
0010
,
0100
1000
0000
0001
1000
0010
0000
0100
,
0010
1000
0001
0010
0100
0020
0000
0000
,
0000
0000
0000
0000
0000
0030
0001
1000
,
0001
0000
0000
1000
0000
0000
0001
0000
1000
0000
0001
0000
1000
0000
0001
0000
1000
0000
0020
0000
0000
0000
0000
0000
,
0000
0130
0000
0010
,
1001
0000
0000
1000
0000
0100
0000
0000
0010
0000
0100
0000
1000
0000
0001
0000
,
0100
0000
0000
0001
0000
0010
0000
0000
0200
0000
0000
0000
0310
0000
0001
0000
,
0100
0000
0000
0001
0000
1000
0000
0000
0100
0000
1000
0000
0010
0000
0100
0000
,
0001
0000
1000
0000
0100
0000
0000
1000
0000
0000
0001
0000
1000
0000
0010
0000
,
0100
0000
0000
0010
0000
1000
0000
0000
0001
0000
0000
0000
0010
0000
0001
0000
,
0100
0010
1000
0001
1000
0010
1000
0100
,
0010
0000
0001
0000
0010
0000
0000
0100
0000
0000
1000
0000
0000
0001
0000
0000
,
0000
0000
1000
0010
1000
0010
0100
0001
,
0010
0100
1000
0001
1000
0010
1000
0010
,
0100
0001
0010
0100
0010
0100
0010
0001
,
0100
0010
1000
0100
1000
0100
0010
0001
,
0100
0010
1000
0100
1000
0100
0010
0001
,
0010
0001
1000
0100
0010
0001
1000
0100
,
0010
0001
1000
0010
0200
0000
0310
1000
,
0002
0000
1003
0100
0001
0100
1000
0010
,
0001
0010
2000
0000
0000
0000
0000
0000
,
0000
0000
0000
0000
0000
0000
0000
0000
0000
3000
0000
0220
,
0000
0330
0000
0000
;

//---------------dance-single - ----------------
#NOTES:
     dance-single:
     :
     Easy:
     10:
     0.364516,0.539310,0.174469,0.130852,0.007270,351.000000,327.000000,24.000000,18.000000,0.000000,0.000000,0.364516,0.539310,0.174469,0.130852,0.007270,351.000000,327.000000,24.000000,18.000000,0.000000,0.000000:
0000
0000
0000
0000
,
0000
0000
0000
0000
,
0000
0000
0000
0000
,
0000
0000
0000
0000
,
0000
0000
0000
0000
,
0000
0000
0000
0000
,
0000
0000
0000
0000
,
1001
0000
0000
0010
0000
0010
0000
0020
,
0000
0000
0000
0000
,
0000
0000
0000
0000
,
0030
0000
0000
0110
0000
0000
1001
0000
,
0000
1000
0100
1000
,
0010
0000
0100
0000
0002
0003
0002
0003
,
1000
0001
0010
0100
,
0010
0000
0001
0000
0100
0000
0010
0000
1000
0000
0001
0000
0000
0001
0000
0000
,
0001
1000
0100
1000
,
0010
0100
1001
1001
,
2000
3010
0200
0301
,
0010
0100
0010
0000
0100
0000
1000
0000
,
0000
1000
0000
1000
,
0001
1000
0000
0010
,
0000
0010
0100
0001
,
0000
0000
0001
0000
,
0001
0000
1000
0000
,
1000
0010
0100
0010
,
1000
0202
0000
0000
,
0303
0001
0100
0010
,
1000
0010
0100
0001
,
0010
1100
0100
1000
,
0010
0000
0110
0000
0100
0000
0010
0010
,
0010
1001
0000
0000
,
0000
0110
0000
0000
,
0000
0000
1010
0000
0000
0101
0000
0000
,
0011
0000
0000
0110
0000
0000
1100
0000
,
0000
0000
0000
1000
,
0001
0000
0100
0001
0100
0000
0001
0000
,
0010
0000
0100
0010
0001
0100
0010
0000
,
1000
0000
0001
1000
0001
0000
1000
0000
,
0010
0000
0100
0010
0100
0000
0010
1000
,
0010
1000
0010
1000
0020
0000
0130
0000
,
0010
1000
0100
0000
0010
0000
0100
0000
,
1000
0000
0001
1000
0010
0000
0100
0000
,
0001
0010
0100
0000
0010
0000
2002
0000
,
0000
0000
0000
3003
,
0000
0000
0001
0100
,
0000
0010
0000
0000
1000
0000
0010
0000
,
0000
0010
0000
0000
0020
0000
0000
0000
,
0000
0000
0030
0000
,
0000
0000
0100
0010
,
0000
1000
0000
0000
0001
0000
1001
0000
,
0000
0110
0000
0110
0000
0220
0000
0000
,
0000
0330
0000
1000
,
0010
0000
0100
0001
0000
0010
0000
0000
,
0000
0000
0100
0010
0100
0010
0100
0000
,
0010
0000
0001
1000
0000
0010
0000
0000
,
0000
1001
0000
0001
,
0000
1000
0000
0000
0010
0000
1000
0000
,
0000
0010
0100
0001
,
0000
2000
0000
0000
0000
0000
0000
0000
,
0000
0000
0000
0000
0000
3000
0000
0001
,
0000
1000
0000
0010
0000
1000
0010
0000
,
1000
0001
0010
0100
,
1000
0000
0100
0010
0001
1000
0000
0000
,
0000
0110
0000
0000
1001
0000
0001
0000
,
1000
0010
1000
0100
,
1000
0010
0100
0001
,
0010
0100
0010
0001
,
0100
0010
1000
0001
,
0010
0001
1000
0100
,
0010
0100
1000
0000
,
0010
0000
0100
0010
0000
1000
0000
0001
,
0000
0010
0100
0000
1000
0000
0100
0000
,
1000
0010
0100
0001
,
0010
0100
0010
0001
,
1000
0010
1000
0100
,
1000
0001
0100
0000
,
0001
0010
0100
0010
,
0001
1000
0010
0000
,
0100
0000
0010
0000
1000
0002
0000
0000
,
0000
0000
0000
0000
0000
0000
1003
0100
,
0010
0001
1000
0100
0010
0001
0010
0000
,
0000
0200
0000
0300
,
1000
0000
0010
0000
0100
0010
0100
0000
,
0010
0000
1000
0010
1000
0000
0010
0000
,
0100
0000
0001
0010
0100
0000
0010
0000
,
0001
1001
0000
0001
,
0100
0000
0010
0100
0010
0000
0100
0000
,
0010
0000
1000
0010
0100
0000
0010
0000
,
0100
0000
0020
0000
0000
0000
0000
0030
,
0000
0000
1000
0000
0001
0000
0100
0001
,
0100
0000
0001
0000
0010
0000
0100
1000
,
0100
0000
1000
0000
0010
0000
0100
0010
,
0100
0000
0010
0000
1000
0000
0001
1000
,
0001
0000
1000
0100
0010
0001
0010
0000
,
0001
0000
0010
0100
1000
0010
0100
0000
,
0001
0000
1000
0001
0100
0000
0001
1000
,
0010
0000
1000
0100
0010
0001
0010
0100
,
0010
0001
2000
0000
0000
0000
0000
0000
,
0000
0000
0000
0000
0000
0000
0000
0000
0000
0000
0000
3001
;

//---------------dance-single - ----------------
#NOTES:
     dance-single:
     :
     Beginner:
     4:
     0.123582,0.251678,0.087235,0.000000,0.003635,119.000000,107.000000,12.000000,0.000000,0.000000,0.000000,0.123582,0.251678,0.087235,0.000000,0.003635,119.000000,107.000000,12.000000,0.000000,0.000000,0.000000:
0000
0000
0000
0000
,
0000
0000
0000
0000
,
0000
0000
0000
0000
,
0000
0000
0000
0000
,
0000
0000
0000
0000
,
0000
0000
0000
0000
,
0000
0000
0000
0000
,
1001
0000
0000
0000
,
0000
0000
0000
0000
,
0000
0000
0000
0000
,
0000
0000
0000
0000
,
0000
0010
0000
0000
,
0000
0100
0000
0000
,
0001
0000
0000
0000
,
1000
0000
1000
0000
0000
0001
0000
0000
,
0000
1000
0000
0000
,
0000
0010
0000
0000
,
0100
0000
0010
0000
,
1000
0000
0001
0000
,
0000
0000
1000
0000
,
0000
0000
0010
0000
,
0000
0000
0100
0000
,
0000
0010
0000
0000
,
0000
1000
0000
0000
,
0000
0001
0000
0000
,
0000
1001
0000
0000
,
0000
0010
0000
0000
,
0000
0000
0000
0000
,
0000
0100
0000
0000
,
0000
0010
0000
0000
,
0000
1001
0000
0000
,
0000
0110
0000
0000
,
0000
1001
0000
0000
,
0000
0000
0000
0000
,
0000
0000
0000
0010
,
0000
1000
0000
0001
,
0000
1000
0000
0001
,
0000
0100
0000
0010
,
0000
1000
0000
0001
,
0001
0001
0001
1000
,
0000
0010
0000
0100
,
0000
0010
0000
1000
,
0000
0001
0000
0110
,
0000
0000
0000
1001
,
0000
0000
0000
0000
,
0000
0000
0000
0000
,
0000
0000
0000
0000
,
0000
0000
0000
1000
,
0000
0000
0000
0000
,
0000
0000
0000
0110
,
0000
0000
0000
0000
0000
0010
0000
0000
,
0000
0000
0000
1001
,
0000
0000
0000
0000
,
0000
0001
0000
1001
,
0000
0000
0000
0000
,
0000
0010
0000
0100
,
0000
0000
0000
0010
,
0000
0000
0000
1000
,
0000
1000
0000
0000
0000
0000
0000
0000
,
0000
0000
0000
0001
,
0000
0000
0000
1000
,
0000
0000
0000
0010
,
0000
0100
0000
0000
,
0000
0000
0000
1001
,
0000
0000
0000
1000
,
0000
0000
0000
0001
,
0000
0000
0000
0100
,
0000
0000
0000
0001
,
0000
0000
0000
0010
,
0000
0000
0000
0001
,
0000
0000
0000
0000
,
0000
0000
0000
1000
,
0000
0000
0000
0010
,
0000
0000
0000
1000
,
0000
0000
0000
0100
,
0000
0000
0000
1000
,
0000
0000
0000
0001
,
0000
0000
0000
0100
,
0000
0010
0000
0100
,
0000
0000
0000
0010
,
0000
0000
0000
0000
,
0000
0000
0000
1000
,
0001
0000
0000
1000
,
0000
0000
0000
0010
,
0000
0000
0000
0100
,
0000
0010
0000
0100
,
0000
0000
0000
0001
,
0000
0000
0000
1000
,
0001
1000
0000
0000
,
0000
0010
0000
0010
,
0000
0100
0000
0100
,
0000
0001
0000
0001
,
0000
1000
0000
1000
,
0000
0010
0000
1000
,
0000
0001
0000
0100
,
0000
0010
0000
1000
,
0000
0001
0000
1000
,
0000
0110
0000
0000
,
0000
0000
0000
0000
0000
0000
0000
0000
0000
0000
0000
0100
;
