#TITLE:Party of the Year;
#SUBTITLE:;
#ARTIST:cranky feat. Kate Lesing;
#TITLETRANSLIT:;
#SUBTITLETRANSLIT:;
#ARTISTTRANSLIT:;
#CREDIT:;
#BANNER:;
#BACKGROUND:;
#LYRICSPATH:;
#CDTITLE:;
#MUSIC:Party of the Year.mp3;
#OFFSET:-0.020;
#SAMPLESTART:74.340;
#SAMPLELENGTH:12.380;
#SELECTABLE:YES;
#BPMS:0.000=155.000;
#STOPS:;
#BGCHANGES:;

//---------------dance-single - ----------------
#NOTES:
     dance-single:
     :
     Hard:
     14:
     0.702,0.652,0.278,0.196,0.531:
0000
0000
0000
0000
,
0000
0000
0000
0000
,
0000
0000
0000
0000
,
0000
0000
0000
0000
,
0000
0000
0000
0000
,
1001
0000
0100
0000
1010
0000
0100
0001
,
0010
0100
0010
0000
1100
0000
1001
0000
,
0101
0010
1001
0100
,
1000
0000
0000
0010
0000
0000
0100
0000
0001
0000
0000
0010
0000
0000
0100
0000
,
0010
0000
0000
0001
0000
0000
1000
0000
1001
0000
0000
0000
0110
0000
0000
0000
,
2002
0000
0000
0000
,
3003
0000
1001
0110
,
1000
0000
0100
0000
1000
0000
0001
0100
0000
0010
0000
1000
0001
0000
1000
0000
,
0001
0010
0000
0010
0001
0000
1000
0100
0000
1000
0000
0100
1000
0000
0001
0000
,
0100
0000
0010
0000
1000
0000
0001
1000
0000
0100
0000
0010
0001
0000
0100
0000
,
0010
1000
0000
0001
0100
0000
0001
0010
0000
0100
1000
0000
0001
0100
0001
0000
,
1000
0000
0100
0000
0010
0000
0001
0100
0000
0010
0000
1000
0001
0000
0010
0000
,
0100
0010
0000
0001
1000
0000
0001
0100
0000
0010
0000
1000
0001
0000
1000
0000
,
0001
0000
0100
0000
0001
0000
0010
0100
0000
0010
0000
0001
1000
0000
0001
0000
,
1000
0100
0000
0010
0001
0000
1000
0010
0000
0100
0001
0000
1000
0000
0001
0000
,
1100
0011
0101
1010
,
0010
0000
1000
0000
0100
0000
0010
0000
0001
0010
0001
0010
0100
1000
0100
1000
,
0002
0010
2000
3003
,
1001
0000
0001
0010
0100
0010
0001
0100
,
0010
0000
1000
0010
0100
1000
0100
0010
,
1000
0000
0000
0000
0001
0000
0010
0000
0001
0000
0000
1000
0000
0000
0010
0000
,
1000
0000
0100
0000
1000
0000
0001
0000
0100
0000
0001
0010
0001
0000
1000
0000
,
1100
0000
0010
0001
0100
1000
0100
0001
,
1000
0000
0001
0010
1000
0010
0001
0100
,
0010
0000
0000
0000
0100
0000
0010
0000
1000
0000
0000
0001
0000
0000
1000
0000
,
0100
0000
0010
0000
0100
0000
1000
0001
0000
0000
0001
0100
0001
0000
1000
0000
,
0001
0000
0100
0000
0001
1000
0001
1000
0000
0000
0001
0000
0010
0000
0100
0000
,
0010
0000
0001
0000
1000
0100
1000
0100
0000
0000
0010
0000
0001
0000
1000
0000
,
0001
0000
0100
0000
0010
1000
0010
1000
0000
0000
0001
0000
0100
0000
0010
0000
,
1000
0000
0001
0000
0100
0010
0100
0010
1000
0000
0100
0000
0010
0000
0001
0000
,
1000
0000
0100
0000
0010
0001
1000
0001
0000
0000
0100
0000
0001
0000
0100
0000
,
0010
0000
1000
0000
0001
0100
0010
0100
0000
0000
0001
0000
1000
0000
0100
0000
,
1100
0000
0000
0000
0010
0001
0010
0001
0100
0000
0000
0000
1010
0000
0010
0000
,
0101
0000
0000
0000
0001
1000
0001
1000
0100
0000
0010
0001
1000
0000
0001
0000
,
0100
0010
1000
0001
1000
0100
0010
0100
,
2002
3003
0110
1001
,
0101
0000
0000
0010
1000
0000
0001
1000
0010
0000
1000
0001
0010
0000
0001
0000
,
2002
3003
0011
1100
,
1001
0001
0100
0010
1000
1000
0001
0001
,
2002
3003
1010
1100
,
0100
0001
0100
1000
0010
0001
0010
1000
,
0001
0000
0010
0000
0001
0000
1000
0000
0001
0000
1000
0100
0010
0000
0001
0000
,
0100
0000
0010
0100
0010
0000
0100
0001
1000
0000
0010
0000
1000
0000
0001
0010
,
0200
0000
0001
0000
0010
0000
1000
2000
,
3300
0000
1000
0000
0001
0000
0100
0001
0100
0000
0000
0001
0000
0000
0010
0000
,
0001
0000
0010
0000
0100
0000
0010
0000
0001
0000
1000
0000
0001
0000
0100
0010
,
0000
1000
0000
0001
0100
0000
0010
1000
0000
0001
0000
0010
0001
0000
0001
0000
,
2000
0000
0010
0000
0001
0000
0100
0200
,
3300
0000
0010
0000
0001
0100
0001
0100
0010
0000
0000
0100
0000
0000
0001
0000
,
1000
0100
1000
0100
0001
0100
0001
0100
,
1000
0000
0100
0000
0010
0000
0001
0100
0000
0010
1000
0010
0000
0100
0001
1000
,
0002
0000
0010
0000
1000
0000
0100
0200
,
0303
0000
0010
0000
1000
0000
0001
0010
0100
0000
0000
0010
0000
0000
0001
0000
,
1000
0000
0100
0000
0010
0000
0100
0000
0001
0000
0100
0000
0010
0000
0001
0100
,
0000
1000
0000
0100
0001
0000
1000
0100
0000
0001
0000
0100
1000
0000
0001
0000
,
0200
0000
1000
0000
0010
0000
0001
0002
,
0303
0000
0001
0000
1000
0001
0010
0001
0010
0000
0000
0001
0000
0000
1000
0000
,
0100
0001
0100
0010
0001
0100
1000
0100
,
0010
1000
0001
0100
0001
0010
0100
1000
,
0001
0010
0100
0000
0010
0000
0001
0000
1100
0000
0000
0000
1001
0000
0000
0000
,
0001
0000
0100
0000
0010
0000
1000
0001
0000
1000
0000
0001
1000
0000
0100
0000
,
0010
0001
0000
0001
0010
0000
0100
1000
0000
0100
0000
1000
0100
0000
0010
0000
,
0001
0000
0100
0000
0010
0000
1000
0001
0000
0010
0000
0100
0010
0000
0001
0000
,
1000
0010
0000
0100
0010
0000
0100
0001
0000
0010
0001
0000
1000
0100
1000
0000
,
0001
0000
0100
0000
0010
0000
1000
0001
0000
0010
0000
0001
0100
0000
0010
0000
,
1000
0100
0000
0100
1000
0000
0001
0100
0000
0010
0000
0100
0001
0000
1000
0000
,
0010
0000
0100
0000
0001
0000
0010
0001
0000
1000
0000
0001
0100
0000
0010
0000
,
1000
0100
0000
0001
0100
0000
1000
0010
0000
0001
0010
0000
1000
0000
0001
0000
,
2000
3200
0320
0032
,
1003
0000
0010
0000
0100
0000
0001
0000
1000
0100
1000
0100
0010
0001
0020
0002
,
0033
0001
0100
0010
,
1001
0000
0000
0000
;

//---------------dance-single - ----------------
#NOTES:
     dance-single:
     :
     Medium:
     10:
     0.531,0.528,0.237,0.196,0.078:
0000
0000
0000
0000
,
0000
0000
0000
0000
,
0000
0000
0000
0000
,
0000
0000
0000
0000
,
0000
0000
0000
0000
,
1001
0100
0011
0100
,
1001
0010
0101
1010
,
1001
0100
0110
0010
,
1000
0000
0000
0001
0000
0000
1000
0000
0001
0000
0000
0100
0000
0000
0001
0000
,
0100
0000
0000
0010
0000
0000
0100
0000
0010
0000
0000
0000
1001
0000
0000
0000
,
0220
0000
0000
0000
,
0330
0000
1001
0110
,
1000
0001
1000
0000
0001
0100
0001
0000
,
0100
0010
1000
0001
0010
0100
0010
0001
,
0100
0001
1000
0000
0010
0100
0001
0000
,
1000
0000
0000
0100
0000
0000
1000
0000
0000
0001
0000
0000
0100
0000
0001
0000
,
0010
0001
0100
0000
0010
1000
0100
0010
,
0001
0010
0100
0000
0010
0001
0100
0010
,
1000
0100
0010
0000
0010
0100
1000
0001
,
1000
0000
0000
0100
0000
0000
1000
0000
0000
0001
0000
0000
0100
0000
0001
0000
,
1000
0001
1000
0001
,
0100
0010
0100
0010
1000
0001
1000
0001
,
2002
0000
0000
3003
,
1001
0000
0100
0010
0100
0000
0010
0000
,
1000
0000
0001
0010
0100
0000
0010
0000
,
0101
0000
0010
1000
0001
0000
1000
0000
,
0100
1000
0100
0010
0001
0010
0001
0100
,
0010
0000
1000
0010
0100
0000
0001
0000
,
1000
0000
0100
0010
0001
0000
1000
0010
,
0100
0000
0001
0010
0100
0000
1001
0000
,
0010
0000
0001
0000
1000
0000
0000
0001
0000
0000
1001
0000
0000
0000
0001
0000
,
0100
0000
0010
1000
0100
0000
0010
0001
,
1000
0000
0001
0100
0010
1000
0100
0010
,
0001
0000
1000
0100
1000
0000
0001
0010
,
0100
0000
0010
0001
1000
0001
0100
0010
,
0100
0000
0010
1000
0001
0000
0010
0001
,
0100
0000
0001
1000
0100
0010
0001
1000
,
0100
1001
0010
1001
,
0100
0000
1001
0000
0010
1000
1001
0000
,
0001
0100
0001
1000
0100
1000
0010
0010
,
0020
0000
1000
0130
,
1001
0000
0001
0010
0001
1000
0100
0100
,
0200
0000
0001
0310
,
0100
0010
0001
1000
0001
0100
0010
0010
,
0020
0000
1000
0130
,
0010
1000
0001
0000
0010
0001
1000
0000
,
0001
0010
0001
0010
0100
1000
0100
1000
,
0001
0100
0010
1000
0010
0100
0001
0000
,
2001
0000
0010
0000
0001
0000
0100
3100
,
0000
0000
1000
0000
0100
0000
0010
0000
0001
0000
0000
0101
0000
0000
0100
0000
,
0002
0000
0023
0000
2030
0000
3010
0001
,
0000
0010
0001
0100
0010
1000
0010
0000
,
0102
0000
1000
0000
0010
0000
1000
1003
,
0000
0000
1000
0000
0100
0000
1000
0000
0001
0000
0000
0011
0000
0000
0010
0000
,
0001
0000
1000
0000
0001
0100
0010
1000
,
0100
1000
0001
0000
0010
0001
0100
0001
,
2000
0000
0010
0000
0001
0000
0100
3100
,
0000
0000
0100
0000
0010
0000
0001
0000
1000
0000
0000
1001
0000
0000
0001
0000
,
0200
0000
2300
0000
3200
0000
0301
1000
,
0000
1000
0100
0010
0001
0100
0010
1000
,
0002
0000
0010
0000
1000
0000
0100
0103
,
0000
0000
0001
0000
0100
0000
0010
0000
1000
0000
0000
1001
0000
0000
0001
0000
,
0100
0000
0000
0000
0010
0000
0000
1000
0100
0000
0000
0000
0010
0000
0000
0001
,
0100
0000
0000
0000
0001
0000
0000
0001
0100
0000
0010
0000
1000
0000
0001
0000
,
1000
0001
1000
0000
2002
0000
3003
0000
,
1000
0010
1000
0000
0001
0100
0001
0000
,
1000
0100
0010
0001
0100
0010
0100
0000
,
0001
0100
0010
0000
1000
0100
0010
0000
,
1000
0000
0000
0100
0000
0000
0010
0000
0000
0100
0000
0000
0010
0000
0001
0000
,
1000
0001
0100
0000
0010
1000
0001
0000
,
0100
0010
0100
0001
1000
0100
0010
0000
,
0001
0100
1000
0000
0001
0010
1000
0000
,
0001
0000
0000
0010
0000
0000
0001
0000
0000
1000
0000
0000
0100
0000
1000
0000
,
0002
0203
0320
2030
,
3001
0100
0010
1000
0001
0100
0010
1000
,
0002
0010
1000
0103
,
1001
0000
0000
0000
;

//---------------dance-single - ----------------
#NOTES:
     dance-single:
     :
     Easy:
     7:
     0.356,0.466,0.212,0.245,0.000: // measure 1
0000
0000
0000
0000
,  // measure 2
0000
0000
0000
0000
,  // measure 3
0000
0000
0000
0000
,  // measure 4
0000
0000
0000
0000
,  // measure 5
0000
0000
0000
0000
,  // measure 6
1001
0000
0110
0000
,  // measure 7
1001
0000
1001
0110
,  // measure 8
1001
0001
0100
0010
,  // measure 9
0110
0100
1001
0010
,  // measure 10
0110
1000
1001
0110
,  // measure 11
2002
0000
0000
0000
,  // measure 12
3003
0000
0000
0000
,  // measure 13
1000
0100
0001
0100
,  // measure 14
1000
0001
1000
0001
,  // measure 15
0001
0100
1000
0100
,  // measure 16
0001
0010
0100
0010
,  // measure 17
0001
0001
1000
1000
,  // measure 18
0010
0100
0010
1000
,  // measure 19
0100
0010
0001
0100
,  // measure 20
0001
1000
0100
0010
,  // measure 21
0100
0100
0010
0010
,  // measure 22
0001
1000
0001
1000
,  // measure 23
2002
0000
0000
3003
,  // measure 24
1001
0000
0001
0100
,  // measure 25
0010
0000
1000
0001
,  // measure 26
1000
0000
0001
0010
,  // measure 27
0100
0010
0001
1000
,  // measure 28
0100
0000
1000
0001
,  // measure 29
0100
0000
0010
0100
,  // measure 30
0001
0000
1000
0100
,  // measure 31
1000
0001
0100
0001
,  // measure 32
2002
3003
1000
0001
,  // measure 33
0200
0300
0010
1000
,  // measure 34
0002
0003
1000
0100
,  // measure 35
0010
0100
1000
0001
,  // measure 36
2002
3003
0001
0100
,  // measure 37
0020
0030
1000
0001
,  // measure 38
1000
0100
0001
0100
,  // measure 39
1000
0001
0010
0100
,  // measure 40
0110
0010
0001
1000
,  // measure 41
1002
0000
1000
1003
,  // measure 42
1001
0001
0100
0010
,  // measure 43
0210
0000
0010
0310
,  // measure 44
1001
0001
0100
0010
,  // measure 45
2001
0000
0001
3001
,  // measure 46
0001
0100
1000
0100
,  // measure 47
0001
0010
0100
0010
,  // measure 48
0001
1000
2002
3003
,  // measure 49
0001
0100
0010
1000
,  // measure 50
0200
0000
0310
0001
,  // measure 51
2000
3002
2003
3002
,  // measure 52
0103
0010
1000
0001
,  // measure 53
0100
0010
1000
0001
,  // measure 54
2000
0000
3001
1000
,  // measure 55
0100
0010
0100
1000
,  // measure 56
0010
0100
0001
1000
,  // measure 57
0001
0010
0100
0010
,  // measure 58
0002
0000
1003
0001
,  // measure 59
0200
0320
2030
3002
,  // measure 60
1003
0100
0010
0001
,  // measure 61
1000
0100
0010
0100
,  // measure 62
2000
0000
3001
1000
,  // measure 63
0010
0100
0001
0010
,  // measure 64
0100
0010
0001
1000
,  // measure 65
0001
0100
0220
0330
,  // measure 66
0001
0100
0001
0100
,  // measure 67
0010
1000
0010
1000
,  // measure 68
0001
0010
0100
0010
,  // measure 69
0001
1000
0001
0100
,  // measure 70
0001
0010
0001
1000
,  // measure 71
0010
1000
0001
0100
,  // measure 72
0010
1000
0100
0010
,  // measure 73
0100
0100
0010
0010
,  // measure 74
0001
1000
0001
1000
,  // measure 75
0010
0010
0100
0100
,  // measure 76
0110
0000
0000
0000
,  // measure 77
1001
0000
0000
0000
;

//---------------dance-single - ----------------
#NOTES:
     dance-single:
     :
     Beginner:
     4:
     0.165,0.217,0.114,0.000,0.000: // measure 1
0000
0000
0000
0000
,  // measure 2
0000
0000
0000
0000
,  // measure 3
0000
0000
0000
0000
,  // measure 4
0000
0000
0000
0000
,  // measure 5
0000
0000
0000
0000
,  // measure 6
1001
0000
0001
0000
,  // measure 7
1000
0000
0010
0000
,  // measure 8
0110
0000
0100
0000
,  // measure 9
1001
0000
0000
0000
,  // measure 10
0000
0000
0000
0000
,  // measure 11
1001
0000
0000
0000
,  // measure 12
0000
0000
0000
0000
,  // measure 13
1000
0000
0001
0000
,  // measure 14
0100
0000
0010
0000
,  // measure 15
0100
0000
0001
0000
,  // measure 16
1000
0000
0001
0001
,  // measure 17
0001
0000
1000
0000
,  // measure 18
0100
0000
0010
0000
,  // measure 19
0100
0000
0010
0000
,  // measure 20
1001
0000
0000
0000
,  // measure 21
1000
0000
0001
0000
,  // measure 22
0100
0000
0010
0010
,  // measure 23
0010
0000
0000
0000
,  // measure 24
1001
0000
0000
0000
,  // measure 25
0001
0000
0000
0000
,  // measure 26
0100
0000
0000
0000
,  // measure 27
0001
0000
1000
0000
,  // measure 28
0100
0000
0000
0000
,  // measure 29
0010
0000
0000
0000
,  // measure 30
0100
0000
0000
0000
,  // measure 31
0010
0000
0001
0000
,  // measure 32
1001
0000
0100
0000
,  // measure 33
0001
0000
0100
0000
,  // measure 34
0010
0000
0100
0000
,  // measure 35
1000
0000
0100
0000
,  // measure 36
0001
0000
0010
0000
,  // measure 37
0100
0000
0010
0000
,  // measure 38
1000
0000
0010
0000
,  // measure 39
0001
0000
1000
0000
,  // measure 40
0001
0000
0001
0000
,  // measure 41
1001
0000
0000
0000
,  // measure 42
0100
0000
0100
0000
,  // measure 43
0110
0000
0000
0000
,  // measure 44
0010
0000
1000
0000
,  // measure 45
1001
0000
0000
0000
,  // measure 46
0001
0000
1000
0000
,  // measure 47
0001
0000
0100
0000
,  // measure 48
0001
0000
1000
0000
,  // measure 49
1001
0000
0001
0000
,  // measure 50
0100
0000
0000
0000
,  // measure 51
0001
0000
0010
0000
,  // measure 52
0100
0000
0010
0000
,  // measure 53
0001
0000
1000
0000
,  // measure 54
0100
0000
0000
0000
,  // measure 55
1000
0000
0001
0000
,  // measure 56
0100
0000
0010
0000
,  // measure 57
0110
0000
0100
0000
,  // measure 58
0010
0000
0000
0000
,  // measure 59
0100
0000
0001
0000
,  // measure 60
1000
0000
0100
0000
,  // measure 61
0010
0000
0001
0000
,  // measure 62
1000
0000
0000
0000
,  // measure 63
0001
0000
0100
0000
,  // measure 64
0010
0000
1000
0000
,  // measure 65
0001
0000
1000
1000
,  // measure 66
1000
0000
0001
0000
,  // measure 67
0010
0000
0100
0000
,  // measure 68
0010
0000
0001
0000
,  // measure 69
1000
0000
0100
0100
,  // measure 70
0100
0000
1000
0000
,  // measure 71
0001
0000
0010
0010
,  // measure 72
0010
0000
0001
0000
,  // measure 73
1001
0000
0000
0000
,  // measure 74
1000
0000
0001
0000
,  // measure 75
0100
0100
0100
0100
,  // measure 76
0100
0000
0000
0000
,  // measure 77
1001
0000
0000
0000
;
