#VERSION:0.83;
#TITLE:Particle Arts;
#SUBTITLE:;
#ARTIST:Virtual Self;
#TITLETRANSLIT:;
#SUBTITLETRANSLIT:;
#ARTISTTRANSLIT:;
#GENRE:;
#CREDIT:;
#MUSIC:Particle Arts.ogg;
#BANNER:Particle Arts.png;
#BACKGROUND:Particle Arts-bg.png;
#CDTITLE:;
#SAMPLESTART:100.520;
#SAMPLELENGTH:15.342;
#SELECTABLE:YES;
#OFFSET:1.095;
#BPMS:0.000=162.000
,54.000=163.500
,56.000=165.000
,58.000=166.500
,60.000=168.000
,64.000=169.000
,68.000=170.000
,72.000=171.000
,76.000=172.000
,80.000=173.000
,84.000=175.000
,99.000=174.850
,162.000=175.000
,226.000=350.000
,227.000=175.000
,249.000=350.000
,251.000=175.000
,281.000=87.625
,284.000=175.000
,333.000=171.500
,337.000=168.000
;
#STOPS:98.000=0.343
,161.000=0.343
,222.000=0.343
,226.000=0.171
,249.000=0.343
,284.000=0.342
;
#DISPLAYBPM:162.000:175.000;
#BGCHANGES:;
#FGCHANGES:;

//--------------- dance-single - Talkion ----------------
#NOTEDATA:;
#STEPSTYPE:dance-single;
#DESCRIPTION:Talkion;
#DIFFICULTY:Beginner;
#METER:3;
#RADARVALUES:0,0,0,0,0;
#NOTES:
0000
0000
0000
0000
,
0000
0000
0000
0000
,
0000
0000
0000
0000
,
0000
0000
0000
0000
,
0000
0000
0000
0000
,
0000
0000
0000
0000
,
0000
0000
0000
0000
,
0000
0000
0000
0000
,
0000
0000
0000
0000
,
2000
0000
3000
0000
,
0002
0000
0003
0000
,
2000
0000
0000
0000
,
0000
0000
3000
0000
,
0002
0000
0003
0000
,
2000
0000
3000
0000
,
0002
0000
0000
0000
,
0000
0000
0003
0000
,
1000
0000
0000
0000
,
0001
0000
0000
0000
,
1000
0000
0000
0000
,
0000
0000
0000
0000
,
0001
0000
0000
0000
,
1000
0000
0000
0000
,
0001
0000
0000
0000
,
0000
0000
0000
0010
,
0000
0010
0000
0010
,
0000
0000
0000
0100
,
0000
0100
0000
0100
,
0000
0000
0000
0010
,
0000
0010
0000
0010
,
0000
0000
0000
0100
,
0000
0100
0000
0100
,
0000
0000
0000
0001
,
0000
0001
0000
1000
,
0000
1000
0000
0001
,
0000
0001
0000
1000
,
0000
1000
0000
0001
,
0000
1000
0000
0001
,
0000
1000
0000
0002
,
0000
0000
0000
0003
,
0000
0000
0000
0000
,
1001
0000
0000
0000
,
1001
0000
0000
0000
,
0110
0000
0000
0000
,
0110
0000
0000
0000
,
1001
0000
0000
0000
,
1001
0000
0000
0000
,
0110
0000
0000
0000
,
0110
0000
0000
1000
,
1000
0000
0000
0000
,
1001
0000
0000
0000
,
1001
0000
0000
0000
,
1001
0000
0000
0000
,
0110
0000
0000
0000
,
0110
0000
0000
0000
,
0110
0000
0000
0000
,
0000
0000
0000
0001
,
0000
1000
0000
1000
,
0000
0020
0000
0030
,
0100
0200
0000
0300
,
0010
0010
0000
1000
,
0000
1000
0000
0001
,
0000
0001
0000
0000
,
0000
0010
0000
0010
,
0000
0000
0110
0000
,
0110
0000
0110
0000
,
1000
2000
0000
3000
,
0001
0002
0000
0003
,
1000
1000
0000
1000
,
0000
0001
0000
0001
,
0000
0100
0000
0000
,
0000
0010
0000
0010
,
0000
0100
0000
0100
,
0000
0001
0000
0001
,
0000
1000
0000
1000
,
0000
0100
0000
0100
,
0000
0010
0000
0010
,
0000
0001
0000
0001
,
0000
0100
0000
0100
,
0000
1000
0000
1000
,
0000
0001
0000
0001
,
0000
0010
0000
0010
,
0000
1000
0000
1000
,
0000
0200
0000
0300
,
0000
0020
0000
0030
,
0000
0002
0000
0003
,
0000
2000
0000
3000
;

//--------------- dance-single - Talkion ----------------
#NOTEDATA:;
#STEPSTYPE:dance-single;
#DESCRIPTION:Talkion;
#DIFFICULTY:Easy;
#METER:7;
#RADARVALUES:0,0,0,0,0;
#NOTES:
0000
0000
0000
0000
,
0000
0000
0000
0000
,
0000
0000
0000
0000
,
0000
0000
0000
0000
,
0000
0000
0000
0000
,
0000
0000
0000
0000
,
0000
0000
0000
0000
,
0000
0000
0000
0000
,
0000
0000
0000
0000
,
2000
0000
0000
3000
,
0200
0000
0000
0300
,
0020
0000
0000
0000
,
0000
0000
0000
0030
,
0002
0000
0000
0003
,
0020
0000
0000
0030
,
0200
0000
0000
0000
,
0000
0000
0000
0300
,
1000
0000
0000
1000
,
0001
0000
0000
0001
,
0100
0000
0000
0100
,
0010
0000
0000
0010
,
1000
0000
0000
1000
,
0100
0000
0000
0100
,
0010
0000
0000
0010
,
0002
0000
0003
1000
,
1000
1000
0000
0001
,
0001
0001
0000
0100
,
0100
0100
0000
0010
,
0010
0010
0000
1000
,
1000
1000
0000
0001
,
0001
0001
0000
0010
,
0010
0100
0100
1000
,
0000
2000
0000
0000
3001
0000
0100
0000
,
0100
0100
0000
0010
,
0010
0010
0000
1000
,
1000
1000
0000
0001
,
0001
0001
0000
0010
,
0010
0100
0100
0010
,
0010
0100
0100
1000
,
0001
1000
0001
0200
,
0000
0300
0100
0000
,
1010
0000
1000
0000
,
1001
0000
0001
0000
,
0011
0000
0010
0000
,
0110
0000
0100
0000
,
1001
0000
0010
0000
,
1001
0000
0001
0001
,
1000
1000
0010
0010
,
0200
0300
0100
0100
,
1001
0000
0001
0000
,
0011
0000
0010
0000
,
0110
0000
0100
0000
,
1100
0000
1000
0000
,
1010
0000
0010
0000
,
0110
0000
0100
0100
,
0010
0020
0030
0000
,
0000
2000
3001
0002
,
1003
0200
0310
0020
,
0130
2000
0000
0000
,
3100
1000
0002
0000
0000
0000
0000
0000
,
0103
0001
2000
0000
3001
0000
0002
0000
,
1003
0200
0310
0020
,
0130
0000
0000
1001
,
0000
0001
0100
0002
,
0003
0000
1100
0000
,
0101
0000
1100
0000
,
0101
0200
0000
0000
,
0310
0100
0020
0000
0000
0000
0000
0000
,
0130
0010
2000
0000
3100
0000
0002
0000
,
0103
2000
3010
0002
,
0013
2000
0000
0000
,
3000
0001
0010
0001
,
0001
1000
0010
1000
,
1000
0001
0100
0010
,
0010
0100
0010
1000
,
1000
0100
0010
0100
,
0100
1000
0001
1000
,
1000
0001
0100
0010
,
0010
0100
0010
1000
,
1000
0001
0010
1000
,
1000
0010
0001
0100
,
0100
1000
0100
0001
,
0001
1000
0100
0010
,
0010
0002
0000
0000
,
0003
0200
0000
0000
,
0300
0020
0000
0000
,
0030
2000
0000
0000
,
3000
0000
0000
0000
;

//--------------- dance-single - Talkion ----------------
#NOTEDATA:;
#STEPSTYPE:dance-single;
#DESCRIPTION:Talkion;
#DIFFICULTY:Medium;
#METER:10;
#RADARVALUES:0,0,0,0,0;
#NOTES:
0000
0000
0000
0000
,
0000
0000
0000
0000
,
0000
0000
0000
0000
,
0000
0000
0000
0000
,
0000
0000
0000
0000
,
0000
0000
0000
0000
,
0000
0000
0000
0000
,
0000
0000
0000
0000
,
0000
0000
0000
0000
,
0002
0000
0000
0000
,
0023
0000
0000
0000
,
0230
0000
0000
0000
,
0000
0000
0000
0000
,
2300
0000
0000
0000
,
3020
0000
0000
0000
,
0230
0000
0000
0000
,
0000
0000
0000
0000
,
0301
0001
1000
1000
,
0100
0100
0010
0010
,
0001
0001
0010
0010
,
0100
0100
1000
1000
,
0010
0010
0100
0100
,
0001
0001
1000
1000
,
0100
0100
0010
0010
,
0002
0000
0003
1000
,
1000
1000
1000
0100
,
0100
0000
0100
0000
0100
0010
0001
0000
,
0001
0001
0001
0100
,
0100
0000
0100
0000
0100
0010
1000
0000
,
1000
1000
1000
0001
,
0001
0000
0000
0000
0001
0000
0000
0000
0001
0000
0010
0000
0100
0000
0000
0100
,
0000
0000
0100
0000
1000
0000
0000
1000
0000
0000
1000
0000
0001
0000
0000
0001
,
0000
0002
0000
0100
0103
0000
0010
0000
,
0010
0110
0110
1000
,
1000
0000
1001
0000
0001
0010
0100
0000
,
0100
0110
0110
1000
,
1000
0000
1001
0000
0001
0100
0010
0100
,
0010
0000
1000
0100
1000
0000
0001
0100
,
0001
0000
1000
0100
1000
0000
0001
1000
,
0001
1000
0001
1000
0010
0000
0200
0000
,
0000
0300
0101
0010
,
1100
0000
1000
0001
0100
0000
0010
0000
,
0110
0000
1000
0100
0010
0000
0001
0000
,
1001
0000
1000
0010
0100
0000
0001
0000
,
1001
1000
1010
0100
,
0011
0000
0001
1000
0010
0000
0100
0000
,
0110
0000
0000
0000
0001
0000
0010
0000
0100
0000
0000
0100
0000
0000
0100
0000
,
1000
0000
0000
1000
0000
0000
1000
0000
0010
0000
0000
0010
0000
0000
0020
0000
,
0000
0100
0130
0000
1001
0000
1001
0000
,
0110
0000
0001
0010
0100
0000
1000
0000
,
1010
0000
0010
0100
0001
0000
0010
0000
,
0011
0000
0001
0010
0100
0000
1000
0000
,
1010
0100
1001
0010
,
1001
0000
0100
0001
0010
0000
0100
0000
,
0110
0000
0000
0000
1000
0000
0010
0000
0100
0000
0000
0100
0000
0000
0100
0000
,
0001
0000
0000
0001
0000
0000
0002
0000
0000
0000
0000
0000
1000
0000
0000
0000
,
1003
0100
0110
0010
,
0110
1000
1001
0001
,
1001
0000
0200
0000
0000
0302
0000
0000
,
0010
0013
0200
0000
0000
2300
0000
0000
,
0010
3010
0100
0000
0110
0000
0010
0000
,
0110
1000
1001
0001
,
1001
0000
0000
0000
0000
0000
1000
0100
,
0000
0100
0010
0000
0001
0000
1000
0001
,
0001
0100
1010
0100
,
0011
0100
1010
0100
,
0011
0000
2000
0000
0000
3200
0000
0000
,
0010
0310
0002
0000
0000
0203
0000
0000
,
0010
0310
1000
0000
0110
0000
0001
0000
,
0110
1000
1010
0001
,
0011
2000
3200
0320
,
0031
0000
0001
0100
0010
0000
1000
0100
,
0010
0000
0001
0010
0100
0000
1000
0010
,
0100
0000
0001
0100
1000
0000
0100
0001
,
1000
0000
0001
0010
1000
0000
0010
0001
,
1000
0000
0010
1000
0100
0000
0010
0001
,
0100
0000
0010
0001
0010
0000
1000
0010
,
1000
0000
0001
0010
1000
0000
0010
0100
,
1000
0000
0001
0100
1000
0000
0100
0010
,
1000
0000
0100
0001
1000
0000
0010
0100
,
1000
0000
0001
0100
1000
0000
0001
0010
,
0100
0000
0001
1000
0100
0000
0010
0001
,
0100
0000
0010
1000
0100
0000
0010
0001
,
0100
0010
2000
0000
0000
0000
0000
0000
,
0000
3002
0000
0000
,
0000
0023
0000
0000
,
0000
0200
0000
0000
,
0000
0330
0000
0000
;

//--------------- dance-single - Talkion ----------------
#NOTEDATA:;
#STEPSTYPE:dance-single;
#DESCRIPTION:Talkion;
#DIFFICULTY:Hard;
#METER:14;
#RADARVALUES:0,0,0,0,0;
#NOTES:
0000
0000
0000
0000
,
0000
0000
0000
0000
,
0000
0000
0000
0000
,
0000
0000
0000
0000
,
0000
0000
0000
0000
,
0000
0000
0000
0000
,
0000
0000
0000
0000
,
0000
0000
0000
0000
,
0000
0000
0000
0000
0000
1000
0100
0010
,
0002
0000
0000
0000
0000
0000
1003
0010
,
0200
0000
0000
0000
0000
0301
0100
0010
,
2000
0000
0000
0000
,
0000
0000
0000
0000
0000
0000
3100
0010
,
0002
0000
0000
0000
0000
0000
0013
0100
,
2000
0000
0000
0000
0000
3001
1000
0010
,
0200
0000
0010
0000
,
1000
0000
0000
0001
0000
0000
0310
0100
,
0001
1000
1000
0100
1000
1000
0001
0000
,
1000
0001
0001
0100
0001
0001
1000
0100
,
0010
0001
0001
0010
0100
0100
1000
0000
,
0010
1000
1000
0010
0100
0100
0001
1000
,
0001
0010
0010
1000
0010
0010
0001
0000
,
1000
0010
0010
0001
0010
0010
1000
0001
,
1000
0100
0100
0001
0100
0100
1000
0000
,
2002
0000
3003
0001
,
0001
0001
0001
0010
,
0010
0000
0010
0000
0010
0200
1300
0000
,
1000
1000
1000
0010
,
0010
0000
0000
0000
0010
0000
0000
0000
0010
0100
0010
0100
0001
0000
0000
0000
,
0001
0001
0001
0100
,
0100
0000
0000
0000
0100
0000
0000
0000
0100
0000
0020
0000
2030
0000
0000
3200
,
0000
0000
0301
0000
2000
0000
0000
3002
0000
0000
0103
0000
2000
0000
0000
3002
,
0000
0000
0023
0000
0000
0000
0130
0010
0100
0000
0010
0000
0110
0000
0000
0000
,
0110
0110
0110
1100
,
1100
0000
1100
0000
1100
2000
3001
0000
,
1001
0101
0101
0110
,
0110
0000
0000
0000
0110
0000
0000
0010
0100
0000
0010
0000
1000
0000
0100
0000
,
0010
0100
1000
0100
0001
0100
1000
0100
,
0010
0000
0001
0000
0100
0000
0010
0000
1000
0000
0002
0000
1003
0000
1000
0100
,
0000
0100
0010
0000
0001
0000
0001
0100
0000
0100
0010
0000
1000
0000
0001
0000
,
2000
3100
1200
0310
,
0110
0010
0001
0100
0101
0000
0100
0010
,
2000
3100
0010
0001
1001
0000
0001
0010
,
0200
1300
0010
0100
0101
0000
0001
0100
,
0101
0000
0001
0000
1000
0100
0010
0001
2000
0000
0000
0000
3010
0000
0000
0000
,
0110
0100
0001
1000
1100
0000
0100
0010
,
0002
0000
0103
0000
0010
0000
1000
0000
0002
0000
0000
0023
0000
0000
2030
0000
,
3002
0000
0000
0203
0000
0000
2300
0000
3002
0000
0000
0203
0000
0000
0320
0000
,
0000
0000
1030
0000
0001
1000
0001
1000
0100
0000
0000
0000
0110
0000
0000
0000
,
0011
0001
0100
0010
1010
0000
1000
0010
,
0002
1003
0100
0001
1001
0000
0001
0010
,
2000
3001
0100
1000
1001
0000
0001
0100
,
0101
0000
0001
0000
1000
0001
1000
0001
0020
0000
0000
0000
0130
0000
0000
0000
,
0110
0100
1000
0010
0110
0000
0100
1000
,
0200
0000
0301
0000
0100
0000
0010
0000
2000
0000
0000
3002
0000
0000
0023
0000
,
2030
0000
0000
3002
0000
0000
0203
0000
2300
0000
0000
0000
0001
0000
0001
0000
,
3001
0000
0001
1000
0010
0000
0110
0100
,
0001
1000
0100
0010
0110
0000
0110
0010
,
0001
0100
0010
1000
1000
0010
0100
0100
,
0010
0001
0010
0100
0100
0010
1000
1000
,
0001
1000
0100
0010
0011
0000
0011
0010
,
0100
1000
0001
0100
0110
0000
0110
0100
,
0001
1000
0200
0000
0300
0000
0100
0010
,
0001
1000
0100
0010
0001
1000
0002
0100
,
0103
0000
0010
1000
1010
0000
1010
0010
,
0001
0010
1000
0100
0110
0000
0110
0100
,
0001
0100
0010
0100
0100
1000
0100
0100
,
0001
0100
1000
0001
0001
0010
0001
0001
,
1000
0010
1000
0100
1100
0000
1100
0100
,
0001
0100
1000
0010
0110
0000
0110
0010
,
0100
0001
2000
0000
3002
0000
0023
0230
,
1300
0000
0000
0000
1000
0000
0001
0000
1000
0100
0020
0000
0030
0000
0010
0000
,
0001
1000
0020
0000
0030
0000
0010
0000
1000
0001
0020
0000
0030
0000
0010
0000
,
0100
1000
0002
0000
0003
0000
0001
0000
0100
0010
2000
0000
3000
0000
1000
0000
,
0010
0100
0002
0000
0003
0000
0001
0000
1000
0001
0020
0000
0030
0000
0010
0000
,
0001
1000
0010
0000
0100
0000
0100
0000
0010
0100
0002
0000
0003
0000
0001
0000
,
0010
0100
2000
0000
3000
0000
1000
0000
0010
1000
0200
0000
0300
0000
0100
0000
,
0010
0001
0200
0000
0300
0000
0100
0000
0010
0001
0020
0000
0030
0000
0010
0000
,
1000
0010
2000
0000
3000
0000
1000
0000
0100
0010
0002
0000
0003
0000
0001
0000
,
0010
0100
0010
0000
0001
0000
0001
0000
1000
0010
0200
0000
0300
0000
0100
0000
,
1000
0100
0020
0000
0030
0000
0010
0000
1000
0100
0020
0000
0030
0000
0010
0000
,
0001
0100
0020
0000
0030
0000
0010
0000
0001
0010
0200
0000
0300
0000
0100
0000
,
0010
1000
0200
0000
0300
0000
0100
0000
0010
0001
1000
0000
0001
0000
1000
0000
,
0010
0100
0010
0100
0002
0000
0000
0000
0000
0000
0000
0000
0000
0000
0000
0000
,
1003
0100
0020
0000
0000
0000
0000
0000
,
0000
0032
0000
0000
,
0000
2000
0000
0000
,
0000
3003
0000
0000
;

//--------------- dance-single - Talkion ----------------
#NOTEDATA:;
#STEPSTYPE:dance-single;
#DESCRIPTION:Talkion;
#DIFFICULTY:Challenge;
#METER:15;
#RADARVALUES:0,0,0,0,0;
#NOTES:
0000
0000
0000
0000
,
0000
0000
0000
0000
,
0000
0000
0000
0000
,
0000
0000
0000
0000
,
0000
0000
0000
0000
,
0000
0000
0000
0000
,
0000
0000
0000
0000
,
0000
0000
0000
0000
,
0000
0000
0000
0000
0000
0001
0010
0100
,
2000
0000
0000
0000
0000
0000
3001
0100
,
0020
0000
0000
0000
0000
1030
0010
0100
,
0002
0000
0000
0000
,
0000
0000
0000
0000
0000
0000
0013
0100
,
2000
0000
0000
0000
0000
0000
3100
0010
,
0002
0000
0000
0000
0000
1003
0001
0100
,
0020
0000
0100
0000
,
0001
0000
0000
1000
0000
0000
0130
0010
,
1000
0000
0001
0000
1000
0000
0001
0010
0100
0010
0001
0000
1000
0001
1000
0000
,
0010
0000
0100
0000
0010
0000
0100
0001
1000
0001
0100
0000
0001
0000
0001
0000
,
0010
0000
0100
0000
0010
0000
0001
1000
0010
1000
0001
0000
0100
0010
0100
0000
,
0010
0000
1000
0000
0010
0000
0100
0001
1000
0001
0100
0000
0001
0000
0000
0000
,
0001
0000
1000
0000
0001
0000
1000
0001
0010
0001
1000
0000
0010
0100
0010
0000
,
1000
0000
0001
0000
1000
0000
0100
0010
0001
0010
0100
0000
1000
0000
1000
0000
,
0010
0000
0100
0000
0010
0000
1000
0001
0010
0001
1000
0000
0001
0010
0100
1000
,
0002
0000
0103
0010
,
0010
0010
0010
1000
,
1000
0000
1000
0000
1000
0400
0310
0000
,
0010
0010
0010
0001
,
0001
0000
0000
0000
0001
0000
0000
0100
0010
1000
0001
0100
0010
0000
0000
0000
,
0010
0010
0010
1000
,
1000
0000
0000
0000
1000
0000
0000
0000
1000
0000
0004
0000
0023
0000
0000
2030
,
0000
0000
3002
0000
0203
0000
0000
2300
0000
0000
3020
0000
0032
0000
0000
2003
,
0000
0000
3200
0000
0000
0000
0301
0100
0001
0000
0100
0000
0101
0000
0000
0000
,
0101
1100
1100
0101
,
0101
0000
0110
0000
0110
4000
3001
0000
,
1001
0101
0101
1100
,
1100
0000
0000
0000
0110
0000
0000
0010
0100
1000
0001
0010
0100
0000
1000
0000
,
0001
1000
0010
0001
0010
1000
0010
0001
,
0010
0000
0100
0000
0010
0000
1000
0000
0100
0000
0040
0000
0031
1000
0001
1000
,
0001
0100
0001
0100
0010
0100
0010
0100
0010
1000
0010
1000
0001
0000
1000
0000
,
0001
0010
0100
0010
0002
0000
0003
0000
1002
0000
0000
0000
0103
0000
0000
0000
,
0110
0000
0010
0000
1000
0000
0100
0000
1100
0000
0000
0000
1000
0000
0100
1000
,
0001
0000
0100
0000
0010
0000
1000
0000
1010
0000
0000
0000
0010
0000
0100
0001
,
1000
0100
0010
0001
0011
0000
0010
0100
,
0110
0000
0010
0000
0001
0010
0100
1000
0002
0000
0000
0000
0103
0000
0000
0000
,
0110
0010
0100
0001
0011
0000
0010
0100
,
1100
0000
1000
0000
0001
0100
0010
0000
2000
0000
3100
0010
0000
0100
1000
0000
,
0020
0000
0130
0001
0000
0100
0010
0000
2000
0000
3001
0010
0000
0100
1000
0000
,
0001
0000
0001
0000
1000
0100
0010
0001
2000
0000
0000
0000
3100
0000
0000
0000
,
1100
0000
1000
0000
0100
0000
0010
0000
0011
0000
0000
0000
0001
0000
0010
0100
,
1000
0000
0001
0000
0100
0000
0010
0000
0110
0000
0000
0000
1000
0000
0010
0100
,
0001
1000
0100
0010
0110
0000
0001
1000
,
1001
0000
0001
0000
1000
0010
0100
0001
2000
0000
0000
0000
3100
0000
0000
0000
,
1100
1000
0001
0100
0110
0000
0010
1000
,
1100
0000
0100
0000
0010
0001
1000
0000
0002
0000
0103
1000
0000
0100
0010
0000
,
0200
0000
0301
1000
0000
0100
0010
0000
0110
0000
0000
0000
0010
0000
0010
0000
,
0001
1000
0001
0000
0100
0000
0010
0000
1010
0000
0000
0000
1010
0000
0010
0000
,
0100
0001
0010
0100
1100
0000
1100
1000
,
0010
0000
0100
0000
0001
0000
0100
0010
0100
0010
1000
0000
0001
1000
0100
1000
,
0001
0000
0001
0000
1000
0000
0100
0010
0100
0010
0001
0000
1000
0010
0100
0001
,
1000
1000
0100
0010
0011
0000
0011
0010
,
0100
1000
0010
0100
0110
0000
0120
0000
,
1030
0010
0100
0000
2001
0000
0000
0000
0100
0000
0000
0000
3100
0000
0010
0001
,
0010
0001
1000
0000
0001
0100
0010
0100
0002
0000
0000
0000
1003
0000
0400
0000
,
0340
0130
1000
0001
1001
0000
1001
0001
,
0100
0010
1000
0001
0011
0000
0011
0010
,
0001
0000
0100
0000
0010
0000
1000
0010
0100
0001
1000
0000
0001
0010
0100
1000
,
0001
0000
0001
0000
0100
0000
0010
1000
0100
0010
0001
0000
0010
0001
0100
0010
,
1000
1000
0010
0100
0101
0000
0101
0100
,
0010
1000
0100
1000
1001
0000
1001
0001
,
0100
0000
0000
0000
0010
0000
0000
0000
2000
0000
0000
0000
0000
0000
0000
0000
3002
0000
0000
0000
0000
0000
0000
0000
1003
0100
0010
0001
1000
0100
0010
0001
,
2000
0000
3000
0000
1001
0000
0001
0000
0010
0100
1000
0000
0002
0000
1003
0000
,
0010
0100
0001
0000
0101
0000
0100
0000
0010
1000
0100
0000
0020
0000
0130
0000
,
0010
0001
0100
0000
0110
0000
0010
0000
1000
0001
0010
0000
0200
0000
0310
0000
,
0001
1000
0010
0000
1010
0000
1000
0000
0001
0010
0100
0000
2000
0000
3100
0000
,
0010
0001
0100
0000
0110
0000
0010
0000
1000
0010
0100
0000
0002
0000
0013
0000
,
0100
1000
0001
0000
1001
0000
1000
0000
0010
1000
0100
0000
0020
0000
0031
0000
,
0010
0001
0100
0000
0101
0000
0001
0000
1000
0100
0010
0000
0200
0000
1300
0000
,
0001
0100
0010
0000
1010
0000
1000
0000
0010
0100
0001
0000
0200
0000
0010
0000
,
0310
0000
0000
0000
1010
0000
1000
0000
0100
0010
0001
0000
0020
0000
1030
0000
,
0010
0100
1000
0000
1001
0000
0001
0000
0100
0010
0001
0000
0020
0000
0130
0000
,
0010
1000
0100
0000
0110
0000
0010
0000
0001
0010
0100
0000
0002
0000
0103
0000
,
1000
0010
0100
0000
0101
0000
0001
0000
1000
0100
0010
0000
0002
0000
1003
0010
,
0100
0001
0010
0100
2000
0000
0000
0000
0000
0000
0000
0000
0000
0000
0000
0000
,
3001
0100
0020
0000
0000
0000
0000
0000
,
0000
2030
0000
0000
,
0000
0002
0000
0000
,
0000
3003
M00M
0000
0000
0000
0000
0000
;

//--------------- dance-double - Talkion ----------------
#NOTEDATA:;
#STEPSTYPE:dance-double;
#DESCRIPTION:Talkion;
#DIFFICULTY:Edit;
#METER:15;
#RADARVALUES:0,0,0,0,0;
#NOTES:
00000000
00000000
00000000
00000000
,
00000000
00000000
00000000
00000000
,
00000000
00000000
00000000
00000000
,
00000000
00000000
00000000
00000000
,
00000000
00000000
00000000
00000000
,
00000000
00000000
00000000
00000000
,
00000000
00000000
00000000
00000000
,
00000000
00000000
00000000
00000000
,
00000000
00000000
00000000
00000000
00000000
00010000
00001000
00000100
,
00000020
00000000
00000000
00000000
00000000
00000000
00010030
00001000
,
00000200
00000000
00000000
00000000
00000000
00000301
00000010
00000100
,
00002000
00000000
00000000
00000000
,
00000000
00000000
00000000
00000000
00000000
00000000
00013000
00100000
,
02000000
00000000
00000000
00000000
00000000
00000000
03100000
00010000
,
00002000
00000000
00000000
00000000
00000000
00003100
00010000
00001000
,
00200000
00000000
10000000
00000000
,
01000000
00000000
00000000
00010000
00000000
00000000
00301000
00100000
,
00010000
00000000
10000000
00000000
00010000
00000000
01000000
00100000
01000000
00000000
00010000
00000000
00100000
00001000
00010000
00000000
,
00001000
00000000
00000100
00000000
00001000
00000000
00010000
00000100
00010000
00000000
00001000
00000000
00000010
00000000
00000010
00000000
,
00000001
00000000
00001000
00000000
00000001
00000000
00000100
00000010
00000100
00000000
00000001
00000000
00001000
00000100
00010000
00000000
,
00001000
00000000
00100000
00000000
00001000
00000000
01000000
00010000
01000000
00000000
00100000
00000000
10000000
00000000
10000000
00000000
,
00010000
00000000
00100000
00000000
00010000
00000000
10000000
00100000
10000000
00000000
01000000
00000000
00100000
00001000
00010000
00000000
,
00001000
00000000
00000010
00000000
00001000
00000000
00010000
00000010
00010000
00000000
00001000
00000000
00000100
00000000
00000100
00000000
,
00000010
00000000
00001000
00000000
00000010
00000000
00010000
00001000
00010000
00000000
00001000
00000000
00100000
00010000
00100000
00010000
,
20000000
00000000
30000000
00100000
,
00010000
00001000
00000010
00000001
,
00000100
00000000
00001000
00000000
00010000
00004000
00013000
00000000
,
01000000
10000000
00100000
00010000
,
00001000
00000000
00000000
00000000
00000010
00000000
00000000
00000001
00000010
00000100
00001000
00000001
00000010
00000000
00000000
00000000
,
00000001
00000100
00001000
00010000
,
01000000
00000000
00000000
00000000
10000000
00000000
00000000
00000000
00100000
00000000
04000000
00000000
03200000
00000000
00000000
00302000
,
00000000
00000000
00003020
00000000
00020030
00000000
00000000
00032000
00000000
00000000
00003020
00000000
00000032
00000000
00000000
00002003
,
00000000
00000000
00023000
00000000
00000000
00000000
00031000
00000100
00001000
00000000
00000100
00000000
00000110
00000000
00000000
00000000
,
00000110
00000011
00001010
00001100
,
00001100
00000000
00011000
00000000
01010000
04000000
03100000
00000000
,
01100000
01010000
01010000
00110000
,
00110000
00000000
00000000
00000000
00101000
00000000
00000000
00100000
01000000
10000000
00010000
00100000
01000000
00000000
10000000
00000000
,
00010000
10000000
00100000
00010000
00001000
00000010
00000001
00000100
,
00001000
00000000
00010000
00000000
01000000
00000000
10000000
00000000
00010000
00000000
04000000
00000000
03100000
01000000
00100000
01000000
,
00100000
01000000
00010000
01000000
00001000
00010000
00001000
00010000
00001000
00010000
00000100
00010000
00001000
00000000
00000100
00000000
,
00000010
00000100
00000010
00000100
00000002
00000000
00000003
00000000
00001002
00000000
00000000
00000000
00000103
00000000
00000000
00000000
,
00000110
00000000
00000100
00000000
00001000
00000000
00010000
00000000
00011000
00000000
00000000
00000000
00010000
00000000
01000000
00100000
,
00010000
00000000
10000000
00000000
00100000
00000000
00010000
00000000
00011000
00000000
00000000
00000000
00001000
00000000
00000010
00000100
,
00001000
00000001
00000100
00001000
00011000
00000000
00010000
00001000
,
00001010
00000000
00000010
00000000
00000100
00000010
00000100
00000010
00000002
00000000
00000000
00000000
00000103
00000000
00000000
00000000
,
00000110
00000100
00001000
00010000
00011000
00000000
00010000
01000000
,
01100000
00000000
00100000
00000000
00010000
00000000
01000000
00000000
00100000
00000000
00010000
00002000
00000000
00000000
00003010
00000000
,
00001000
00000000
00010000
00200000
00000000
00000000
10300000
00000000
01000000
00000000
00010000
00002000
00000000
00000000
00003100
00000000
,
00000010
00000000
00000010
00000000
00001000
00000010
00000100
00000001
00002000
00000000
00000000
00000000
00003100
00000000
00000000
00000000
,
00011000
00000000
00010000
00000000
01000000
00000000
10000000
00000000
10100000
00000000
00000000
00000000
00100000
00000000
00010000
00001000
,
00010000
00000000
00001000
00000000
00000010
00000000
00000100
00000000
00000110
00000000
00000000
00000000
00000010
00000000
00001000
00010000
,
00001000
00010000
00100000
01000000
01100000
00000000
01000000
00010000
,
10010000
00000000
10000000
00000000
01000000
00100000
01000000
00100000
00020000
00000000
00000000
00000000
01030000
00000000
00000000
00000000
,
01100000
00100000
00010000
00001000
00001010
00000000
00000010
00000001
,
00000011
00000000
00000010
00000000
00000100
00000000
00001000
00000000
00000001
00000000
00000100
00002000
00000000
00000000
00013000
00000000
,
01000000
00000000
00100000
02000000
00000000
00000000
13000000
00000000
10010000
00000000
00000000
00000000
10000000
00000000
10000000
00000000
,
00100000
01000000
00100000
00000000
00010000
00000000
00001000
00000000
00011000
00000000
00000000
00000000
00011000
00000000
00001000
00000000
,
00000010
00000001
00000100
00001000
00011000
00000000
00011000
00001000
,
00010000
00000000
01000000
00000000
00100000
00000000
01000000
10000000
01000000
10000000
00010000
00000000
01000000
00010000
10000000
00000000
,
00100000
00000000
00100000
00000000
00010000
00000000
00001000
00010000
00001000
00010000
00000100
00000000
00010000
00000100
00001000
00000000
,
00000100
00000100
00000010
00000001
00001001
00000000
00001001
00000001
,
00000100
00001000
00010000
01000000
01100000
00000000
02100000
00000000
,
13000000
00000000
01000000
00000000
01200000
00000000
00000000
00000000
00001000
00000000
00000000
00000000
00301000
00000000
00010000
00000100
,
00010000
00000100
00001000
00000000
00000100
00000000
00001000
00000000
00001002
00000000
00000000
00000000
00000103
00000000
00000040
00000000
,
00000430
00000310
00010000
00000100
00011000
00000000
00001000
01000000
,
00011000
00000000
00100000
01000000
10010000
00000000
00100000
00001000
,
00011000
00000000
00000000
00000000
00001000
00000000
00000010
00000100
00000010
00000100
00001000
00000000
00000010
00000100
00000001
00000000
,
00001000
00000000
00001000
00000000
00000100
00000000
00010000
00001000
00010000
00001000
00100000
00000000
00010000
00100000
00001000
00000000
,
01000000
01000000
00100000
10000000
10010000
00000000
10010000
10000000
,
01000000
00010000
00001000
00000100
00000110
00000000
00000110
00000100
,
00000001
00000000
00000000
00000000
00001000
00000000
00000000
00000000
00000200
00000000
00000000
00000000
00000000
00000000
00000000
00000000
00000320
00000000
00000000
00000000
00000000
00000000
00000000
00000000
00000031
00001000
00000100
00000010
00000001
00001000
00000100
00000010
,
00000001
00000000
00000000
00000000
00001001
00000000
00000001
00000000
00000010
00000100
00000010
00000000
00002000
00000000
00013000
00000000
,
00100000
00000000
01000000
00000000
01100000
00000000
00100000
00000000
10000000
00010000
10000000
00000000
00200000
00000000
00310000
00000000
,
00001000
00000000
00000010
00000000
00000100
00000000
00000010
00000000
00000001
00001000
00000001
00000000
00000200
00000000
00001300
00000000
,
00010000
00000000
00001000
00000000
00000010
00000000
00000100
00000000
00010000
00001000
00010000
00000000
00100000
00000000
01000000
00000000
,
01100000
00000000
00000000
00000000
10010000
00000000
10000000
00000000
01000000
00100000
01000000
00000000
00020000
00000000
00031000
00000000
,
00000100
00000000
00000010
00000000
00000110
00000000
00000100
00000000
00000001
00001000
00000001
00000000
00000020
00000000
00001030
00000000
,
00010000
00000000
00100000
00000000
01000000
00000000
00100000
00000000
10000000
00010000
10000000
00000000
00200000
00000000
00310000
00000000
,
00001000
00000000
00000010
00000000
00000100
00000000
00010000
00000000
00001000
00010000
00001000
00000000
00100000
00000000
00010000
00000000
,
10010000
00000000
00000000
00000000
10100000
00000000
00100000
00000000
01000000
00010000
01000000
00000000
00200000
00000000
00310000
00000000
,
00001000
00000000
00000010
00000000
00000011
00000000
00000001
00000000
00001000
00000010
00001000
00000000
00000002
00000000
00000013
00000000
,
00001000
00000000
00010000
00000000
00110000
00000000
00100000
00000000
01000000
00010000
01000000
00000000
00200000
00000000
10300000
00000000
,
01000000
00000000
00010000
00000000
00011000
00000000
00001000
00000000
00000100
00000010
00000100
00000000
00000001
00000000
00001000
00000000
,
00000001
00000010
00000100
00001000
00000002
00000000
00000000
00000000
00000000
00000000
00000000
00000000
00000000
00000000
00000000
00000000
,
00000013
00000100
00002000
00000000
00000000
00000000
00000000
00000000
,
00000000
00023000
00000000
00000000
,
00000000
20000000
00000000
00000000
,
00000000
30030000
M00M0000
00000000
00000000
00000000
00000000
00000000
;
