#TITLE:PARTY TIME!;
#SUBTITLE:;
#ARTIST:RoughSketch & Hommarju;
#TITLETRANSLIT:;
#SUBTITLETRANSLIT:;
#ARTISTTRANSLIT:;
#GENRE:;
#CREDIT:BadWolf;
#BANNER:PARTY TIME!.png;
#BACKGROUND:PARTY TIME!-bg.png;
#LYRICSPATH:;
#CDTITLE:cdtitle.png;
#MUSIC:PARTY TIME!.ogg;
#OFFSET:0.000000;
#SAMPLESTART:22.725700;
#SAMPLELENGTH:10.105263;
#SELECTABLE:YES;
#BPMS:0.000000=190.000000
;
#STOPS:191.000000=0.157894,
198.500000=0.157898,
202.000000=0.157898,
205.500000=0.157898,
206.750000=0.157898,
208.250000=0.157890,
352.000000=0.157898,
355.500000=0.157898,
356.750000=0.157898,
358.250000=0.157890
;
#BGCHANGES:;
#KEYSOUNDS:;
#ATTACKS:;

//---------------dance-single - ----------------
#NOTES:
     dance-single:
     :
     Hard:
     15:
     0.812817,0.961889,0.144151,0.050877,0.555405,671.000000,654.000000,17.000000,6.000000,0.000000,0.000000,0.812817,0.961889,0.144151,0.050877,0.555405,671.000000,654.000000,17.000000,6.000000,0.000000,0.000000:
0000
0000
0000
0000
,
0000
0000
0000
0000
,
0000
0000
0000
0000
,
0000
0000
0000
0000
,
0000
0000
0000
0000
,
0000
0000
0000
0000
,
0000
0000
0000
0000
,
0000
0000
0000
0000
,
0000
1000
0100
0010
,
1002
1000
1000
1003
,
2000
0000
0001
0000
0001
0000
3001
1000
,
0020
0100
0100
0130
,
1000
0000
0000
0000
1000
0000
0000
0000
0001
1000
0001
1000
0001
0000
0000
0000
,
0110
0000
0010
0000
0010
0000
1000
0001
,
1001
0000
0100
0000
0100
0000
0100
0010
,
1010
1000
1001
0001
,
1000
0000
0100
0000
0010
0000
0000
0000
0100
0000
0000
1000
0001
0000
1000
0000
,
0001
0000
0000
0000
0001
0000
0000
0001
1000
0000
0010
0000
0001
0000
0010
0000
,
1000
0000
0001
0100
0001
0000
1000
0000
0100
0000
0010
0000
0001
0000
0100
0000
,
0000
0000
0100
0000
0010
0000
1000
0001
0010
0000
0100
0000
1000
0000
0001
1000
,
0001
0000
0100
0010
0100
0000
0001
0000
0010
0000
0100
0000
0010
0000
1000
0000
,
0000
0000
0010
0001
1000
0000
0001
0000
0100
0000
0010
0000
1000
0000
0001
1000
,
0001
0000
0010
0100
1000
0000
0010
0000
0001
0000
0010
0000
0100
0000
0001
0000
,
0000
0000
1000
0100
0010
0000
0100
0000
1000
0000
0001
0000
0100
0000
0010
1000
,
0001
0000
1000
0100
1000
0000
0001
0000
0010
0000
0100
0000
1000
0000
0010
0000
,
0000
0000
1000
0001
1000
0000
0010
0000
0001
0000
0010
0000
1000
0000
0000
0000
,
0001
0000
1000
0010
1000
0000
0001
0000
0010
0000
0100
0000
1000
0000
0010
0000
,
0000
0000
0010
0000
0100
0000
0001
1000
0100
0000
0010
0000
0001
0000
1000
0001
,
1000
0000
0010
0100
0010
0000
1000
0000
0100
0000
0010
0000
0100
0000
0001
0000
,
0000
0000
0100
1000
0001
0000
1000
0000
0010
0000
0100
0000
0001
0000
1000
0001
,
1000
0000
0100
0010
0001
0000
0100
0000
1000
0000
0100
0000
0010
0000
1000
0000
,
0000
0000
0001
0010
0100
0000
0010
0000
0001
0000
1000
0000
0010
0000
0100
0001
,
1000
0000
0001
0010
0001
0000
1000
0000
0100
0000
0010
0000
0001
0000
0100
0000
,
0000
0000
0001
1000
0001
0010
0100
1000
0001
0000
1000
0000
0001
0000
0000
0000
,
1000
0000
0000
1000
0000
0000
1000
0000
0100
0000
0010
0000
0001
0000
0100
0000
,
0001
0000
0000
0001
0000
0000
0001
0000
0010
0000
0100
0000
1000
0000
0010
0000
,
0100
0000
0000
0100
0000
0000
0100
0000
0001
0000
1000
0000
0100
0000
0010
0000
,
0001
0000
0000
0000
0001
0000
0000
0001
1000
0000
0010
0000
0001
0000
0010
0000
,
1000
0000
0100
0010
0000
0100
0010
0000
0001
0000
1000
0000
0010
0000
1000
0000
,
0001
0000
0010
0100
0000
0010
0100
0000
1000
0000
0001
0000
0100
0000
0001
0000
,
1000
0000
0001
0010
0000
0001
0010
0000
0100
0000
1000
0000
0010
0000
1000
0000
,
0001
0000
1000
0100
0000
1000
0100
0000
0010
0000
0001
0000
0100
0000
0001
0000
,
1000
0000
0010
0100
0000
0010
0001
0000
0010
0000
0100
0000
0010
0000
1000
0000
,
0001
0000
0010
0100
0000
0010
1000
0000
0010
0000
0100
0000
0010
0000
0001
0000
,
0100
0000
0010
0100
0000
1000
0100
0000
0010
0000
1000
0000
0001
0000
0100
0000
,
0001
0000
0001
0010
0000
0010
0100
0000
1000
0000
0010
0000
0100
0000
0001
0000
,
0010
0000
0100
1000
0000
0001
1000
0000
0010
0000
0100
0000
0001
0000
1000
0000
,
0100
0000
0010
0001
0000
1000
0001
0000
0100
0000
0010
0000
1010
0000
1000
0000
,
0100
0010
0000
0100
1000
0000
0010
0000
0100
0000
0001
0000
1000
0000
0001
0000
,
0001
0010
0000
0010
0100
0000
1000
0000
0001
0000
1001
0000
1000
0000
1000
0001
,
0000
0001
0100
0000
0010
0000
1000
0000
1001
0000
0001
0000
0001
1000
0000
1000
,
0100
0000
0010
0000
0001
0000
1001
0000
1000
0000
0001
1000
0000
0000
0001
0100
,
0010
1000
0000
0000
0001
0000
0010
0100
0000
0010
0100
0000
1000
0000
0010
0000
,
0100
0000
0001
0000
1000
0000
0100
0000
0000
0100
0000
0000
0010
0000
0000
0010
,
0000
0000
0001
0000
0100
0000
0010
0000
0000
1000
0000
0000
0001
0010
0000
0100
,
0000
0000
1000
0000
0001
0000
0100
0000
0000
0100
0000
0000
0010
0000
0000
0010
,
0000
0000
1000
0000
0100
0000
0010
0000
0000
0001
0000
0000
1000
0010
0000
0100
,
0000
0000
0001
0000
1000
0000
0100
0000
0010
0100
0000
0000
1000
0001
0000
0100
,
0000
0000
0100
0000
0001
0000
0010
0000
0100
0010
0000
0000
0001
1000
0000
0010
,
0000
0000
0010
0000
1000
0000
0100
0000
0010
0001
0000
0001
0100
0000
0000
0010
,
0000
0000
1000
0000
0001
0000
0010
0000
0100
1000
0000
1000
0010
0000
0000
0100
,
0000
0001
1002
0000
1000
0000
1000
0000
,
1003
2000
0001
0001
,
3001
1000
0020
0000
0100
0000
0100
0000
,
0130
0000
0000
0000
1000
0000
0000
0000
1000
0000
0000
0000
0001
1000
0001
1000
,
0001
0110
0010
0010
,
1000
0001
1001
0000
0100
0000
0100
0000
,
0100
0010
1010
0000
1000
0000
1001
0000
,
0001
0000
0000
0000
1000
0000
0100
0000
0010
0000
0000
0000
0100
0000
0000
1000
,
0001
0000
1000
0000
0001
0000
0000
0000
0001
0000
0000
0001
1000
0000
0010
0000
,
0001
0010
1000
0100
0010
0001
0010
0100
,
1000
0000
0000
0000
0001
0000
1000
0010
1000
0000
0001
0000
0010
0000
0100
0000
,
1000
0000
0010
0000
0000
0000
0010
0000
0100
0000
0001
1000
0100
0000
0010
0000
,
0001
0000
1000
0001
1000
0000
0010
0100
0010
0000
1000
0000
0100
0000
0010
0000
,
0100
0000
0001
0000
0000
0000
0100
1000
0001
0000
1000
0000
0010
0000
0100
0000
,
0001
0000
1000
0001
1000
0000
0100
0010
0001
0000
0100
0000
1000
0000
0100
0000
,
0010
0000
1000
0000
0000
0000
0001
0010
0100
0000
0010
0000
0001
0000
1000
0000
,
0010
0000
0100
0001
1000
0000
0001
0010
0001
0000
1000
0000
0100
0000
0010
0000
,
0001
0000
0100
0000
0000
0000
0001
1000
0001
0000
0100
0000
1000
0000
0100
0000
,
0001
0000
0000
0000
1000
0000
0001
0010
0100
0010
0001
0000
0100
0000
0010
0000
,
1000
0000
0001
0000
0000
0000
1000
0000
0100
0000
0010
0001
0010
0000
0001
0000
,
0100
0000
0001
1000
0001
0000
0100
0010
0100
0000
0001
0000
1000
0000
1000
0000
,
0001
0000
0001
0000
0000
0000
1000
0100
1000
0100
0010
0001
1000
0001
0010
0100
,
1000
0001
1000
0001
1000
0000
0100
0010
0001
0000
0010
0100
1000
0000
0010
0000
,
0100
0000
0001
0000
0000
0000
1000
0100
0010
0000
0100
0000
1000
0000
0001
0000
,
0100
0000
0010
1000
0001
0000
1000
0100
1000
0000
0001
0000
0100
0000
0100
0000
,
0010
0000
0010
0000
0000
0000
1000
0001
1000
0100
0010
0001
1000
0000
0001
0000
,
1000
0000
0000
0000
0001
0000
0001
1000
0000
1000
0010
0000
0100
0000
0001
0000
,
1001
0000
1000
0000
1000
0001
0000
0001
0010
0000
0100
0000
1000
0000
1001
0000
,
0001
0000
1000
0001
0000
0000
1000
0010
0100
0001
0000
0000
1000
0000
0100
0010
,
0000
0100
0010
0000
0001
0000
0100
0000
0010
0000
1000
0000
1001
0000
0000
0000
;

//---------------dance-single - ----------------
#NOTES:
     dance-single:
     :
     Medium:
     11:
     0.503922,0.692560,0.067836,0.118712,0.089034,416.000000,408.000000,8.000000,14.000000,0.000000,0.000000,0.503922,0.692560,0.067836,0.118712,0.089034,416.000000,408.000000,8.000000,14.000000,0.000000,0.000000:
0000
0000
0000
0000
,
0000
0000
0000
0000
,
0000
0000
0000
0000
,
0000
0000
0000
0000
,
0000
0000
0000
0000
,
0000
0000
0000
0000
,
0000
0000
0000
0000
,
0000
0000
0000
0000
,
0000
1000
0100
0010
,
0001
0001
0001
0001
,
1000
0000
1000
0000
1000
0000
1000
0010
,
0100
0100
0100
0100
,
0010
0000
0010
0000
0010
0100
0010
0000
,
1000
0000
0100
0000
0010
0000
0001
1000
,
0001
0000
0010
0000
0100
0000
1000
0001
,
1000
0010
0110
0100
,
0001
0000
1000
0000
0001
0000
0000
0000
1000
0000
0000
0001
1000
0000
0001
0000
,
1000
0000
0000
0000
1000
0000
0000
0001
1000
0000
0001
0000
1000
0000
0000
0000
,
0001
0000
0100
0000
0010
1000
0001
0000
,
1000
0000
0100
0010
0001
1000
0001
0000
,
1000
0000
0010
0000
0100
0001
1000
0000
,
0001
0000
0010
0100
1000
0001
1000
0000
,
0010
0000
0100
0000
0001
1000
0001
0000
,
0010
0000
0100
0000
1000
0001
1000
0000
,
0010
0100
0010
0100
0001
1000
0100
0010
,
0000
0010
0100
1000
0001
0000
1001
0000
,
1000
0000
0010
0000
0100
0001
1000
0000
,
0001
0000
0010
0100
1000
0001
1000
0000
,
0001
0000
0100
0000
0010
1000
0001
0000
,
1000
0000
0100
0010
0001
1000
0001
0000
,
0100
0000
0010
0000
1000
0001
1000
0000
,
0100
0000
0010
0000
0001
1000
0001
0000
,
0100
0010
0100
0010
1000
0001
0010
0100
,
0000
0100
0010
0001
1000
0000
1001
0000
,
0002
0000
0000
0000
,
0203
0000
0000
0000
,
0320
0000
0000
0000
,
1030
0000
0000
0000
1000
0000
0000
0001
1000
0000
0001
0000
1000
0000
0000
0000
,
0001
0000
0001
0000
1000
0010
1000
0000
,
0100
0000
0100
0000
0010
0001
1000
0001
,
1000
0000
1000
0000
0001
0100
0001
0000
,
0010
0000
0010
0000
0100
1000
0001
1000
,
0001
0000
0001
0000
0100
0010
1000
0000
,
0100
0000
0100
0000
0010
0001
1000
0001
,
1000
0000
1000
0000
0010
0100
0001
0000
,
1000
0000
0001
1000
0000
0001
1000
0000
0002
0000
0000
0000
0000
0000
0000
0000
,
0013
0000
0010
0000
0100
0010
0001
1000
,
0010
0000
0010
0000
0100
0010
0000
1000
,
0000
1000
0000
0001
0010
0100
1000
0001
,
1000
0001
0000
1000
0001
0000
1000
0000
0001
0000
0000
0000
0100
0000
0010
0100
,
0000
0010
0100
0000
0010
0000
0100
0000
0000
0000
0001
0000
1000
0001
0000
1000
,
0001
0000
1000
0000
0001
0000
0000
0000
1000
0000
0001
1000
0000
0000
0001
0000
,
1000
0001
0000
0000
0000
0000
0000
0000
1000
0000
0000
0000
0100
0000
0000
0000
,
0010
0002
0000
0000
,
0000
0203
0000
0000
,
0000
0320
0000
0000
,
0000
2030
0000
0000
,
0000
3200
0000
0000
,
0000
0320
0000
0000
,
0000
0032
0000
0000
,
0000
2003
0000
0000
,
0000
3001
0001
0001
,
0001
1000
1000
1000
,
1000
0010
0100
0000
0100
0000
0100
0000
,
0100
0000
0010
0000
0010
0000
0010
0100
,
0010
1000
0100
0010
,
0001
1000
0001
0000
0010
0000
0100
0000
,
1000
0001
1000
0000
0010
0000
0110
0000
,
0100
0000
0000
0000
0001
0000
1000
0000
0001
0000
0000
0000
1000
0000
0000
0001
,
1000
0000
0001
0000
1000
0000
0000
0000
1000
0000
0000
0001
1000
0000
0001
0000
,
1000
2002
0000
0000
,
3003
0000
0001
0000
0100
0000
0010
1000
,
0001
0000
1000
0000
0100
0010
0001
1000
,
0001
0000
1000
0000
0010
0000
0100
0001
,
1000
0000
0001
0000
0010
0100
1000
0001
,
1000
0000
0010
0000
0100
0000
0001
1000
,
0001
0000
0010
0000
0100
0000
1000
0001
,
1000
0000
0010
0100
0010
0100
0001
1000
,
0100
0010
0000
0010
0100
1000
0001
0000
,
1001
0000
1000
0000
0010
0000
0100
0001
,
1000
0000
0001
0000
0010
0100
1000
0001
,
1000
0000
0001
0000
0100
0000
0010
1000
,
0001
1000
0000
0001
0010
0100
1000
0100
,
0010
0001
0100
0000
0010
0000
1000
0001
,
1000
0000
0100
0000
0010
0000
0001
1000
,
0001
0000
0100
0010
0100
0010
1000
0001
,
0010
0100
0000
0100
0010
0001
1000
0000
,
1001
0000
0000
0000
0100
0000
0010
0100
0000
0010
0100
0000
0010
0000
0100
0000
,
0000
0000
0001
0000
1000
0001
0000
1000
0001
0000
1000
0000
0001
0000
0000
0000
,
1000
0000
0001
1000
0000
0000
0001
0000
1000
0001
0000
0000
1000
0000
0000
0000
,
0100
0010
0001
1001
;

//---------------dance-single - ----------------
#NOTES:
     dance-single:
     :
     Easy:
     8:
     0.353715,0.461707,0.118712,0.237425,0.000000,292.000000,278.000000,14.000000,28.000000,0.000000,0.000000,0.353715,0.461707,0.118712,0.237425,0.000000,292.000000,278.000000,14.000000,28.000000,0.000000,0.000000:
0000
0000
0000
0000
,
0000
0000
0000
0000
,
0000
0000
0000
0000
,
0000
0000
0000
0000
,
0000
0000
0000
0000
,
0000
0000
0000
0000
,
0000
0000
0000
0000
,
0000
0000
0000
0000
,
0000
0000
0000
0000
,
2000
0000
0000
0000
,
3002
0000
0000
0000
0000
0000
0003
1000
,
0020
0000
0000
0000
,
0230
0000
0000
0000
0301
1000
0001
0000
,
0020
0000
0000
0000
0000
0000
0030
0100
,
2000
0000
0000
0000
0000
0000
3001
1000
,
0001
0000
1001
0000
,
1000
0001
1000
0000
0100
0000
0010
0000
,
0001
0001
1000
1000
,
0001
1000
0010
1000
,
0100
0010
0001
1000
,
0010
0010
1000
0100
,
0010
0100
1000
0001
,
1000
0001
0100
0001
,
0010
0100
1000
0001
,
0100
0000
0100
0000
0001
0000
1000
0001
,
0000
0001
1000
0000
0001
0000
1001
0000
,
1000
0001
0100
0001
,
0010
0100
1000
0001
,
0100
0100
0001
0010
,
0100
0010
0001
1000
,
0001
1000
0010
1000
,
0100
0010
0001
1000
,
0010
0000
0010
0000
1000
0000
0001
1000
,
0000
1000
0001
0000
1000
0001
1000
0000
,
2002
0000
0000
3003
,
0220
0000
0000
0330
,
2002
0000
0000
3003
,
0001
0001
0001
1001
,
1000
0100
0010
0100
,
1000
0010
0001
0010
,
1000
0100
0010
0001
,
0100
0000
0010
0000
1000
0001
1000
0000
,
0001
0010
0100
0010
,
0001
0100
1000
0100
,
0001
0010
0100
1000
,
0010
0000
0100
0000
0001
1000
0001
0000
,
1000
0100
0010
0001
,
0010
0000
0100
0000
1000
0001
0000
1000
,
0000
0010
0000
0100
0000
0001
0000
0100
,
0000
0010
0000
1000
0001
0000
1000
0000
,
0100
0000
0010
0001
0000
1000
0000
0010
,
0000
0100
0001
0000
1001
0000
0000
0110
,
0000
0000
0001
0010
,
0100
2000
0000
0000
,
0000
3020
0000
0000
,
0000
0230
0000
0000
,
0000
0302
0000
0000
,
0000
2003
0000
0000
,
0000
3200
0000
0000
,
0000
0320
0000
0000
,
0000
0032
0000
0000
,
0000
2003
0000
0000
,
0000
3002
0000
0000
,
0003
1000
0020
0000
0000
0000
0000
0000
,
0000
0000
0230
0000
0000
0000
0301
1000
,
0001
0020
0000
0000
,
0030
0100
2000
0000
0000
0000
0000
0000
,
3001
1000
0001
0000
0000
0000
1001
0000
,
0000
0000
1000
0001
1000
0000
0100
0000
,
0010
0001
0001
1000
,
1000
2002
0000
0000
,
3003
0001
1000
0010
,
1000
0100
0010
0001
,
1000
0010
0010
1000
,
0100
0010
0100
1000
,
0001
1000
0001
0100
,
0001
0010
0100
1000
,
0001
0100
0100
0001
,
1000
0001
0000
0001
1000
0000
0001
0000
,
1001
1000
0001
0100
,
0001
0010
0100
1000
,
0001
0100
0100
0001
,
1000
0001
0000
1000
0001
0000
1000
0001
,
1000
0001
1000
0010
,
1000
0100
0010
0001
,
1000
0010
0010
1000
,
0001
1000
0000
1000
0001
0000
1000
0001
,
1000
0000
0001
0000
0010
0000
0100
1000
,
0000
0001
0000
0100
0000
0010
1000
0000
,
1001
0000
0000
0110
0000
0000
1000
0000
,
0100
0010
0001
1001
;

//---------------dance-single - ----------------
#NOTES:
     dance-single:
     :
     Beginner:
     4:
     0.118712,0.192378,0.033918,0.000000,0.000000,98.000000,94.000000,4.000000,0.000000,0.000000,0.000000,0.118712,0.192378,0.033918,0.000000,0.000000,98.000000,94.000000,4.000000,0.000000,0.000000,0.000000:
// measure 0
0000
0000
0000
0000
,  // measure 1
0000
0000
0000
0000
,  // measure 2
0000
0000
0000
0000
,  // measure 3
0000
0000
0000
0000
,  // measure 4
0000
0000
0000
0000
,  // measure 5
0000
0000
0000
0000
,  // measure 6
0000
0000
0000
0000
,  // measure 7
0000
0000
0000
0000
,  // measure 8
0000
0000
0000
0000
,  // measure 9
1000
0000
0000
0000
,  // measure 10
0000
0000
0000
0000
,  // measure 11
0001
0000
0000
0000
,  // measure 12
0000
0000
0000
0000
,  // measure 13
0100
0000
0000
0000
,  // measure 14
0100
0000
0000
0000
,  // measure 15
0010
0000
0000
0000
,  // measure 16
0010
0000
0000
0000
,  // measure 17
1001
0000
0000
0000
,  // measure 18
1000
0000
1000
0000
,  // measure 19
1000
0000
0000
0000
,  // measure 20
0010
0000
0010
0000
,  // measure 21
0010
0000
0000
0000
,  // measure 22
0100
0000
0100
0000
,  // measure 23
0100
0000
0000
0000
,  // measure 24
0001
0000
0001
0000
,  // measure 25
0001
0000
0000
0000
,  // measure 26
0010
0000
0010
0000
,  // measure 27
0010
0000
0000
0000
,  // measure 28
0100
0000
0100
0000
,  // measure 29
0100
0000
0000
0000
,  // measure 30
1000
0000
1000
0000
,  // measure 31
1000
0000
0000
0000
,  // measure 32
0001
0000
0001
0000
,  // measure 33
0001
0000
0000
0000
,  // measure 34
1001
0000
0000
0000
,  // measure 35
0000
0000
0000
0000
,  // measure 36
0000
0000
0000
0000
,  // measure 37
1000
0001
1000
0000
,  // measure 38
0001
0000
0000
0000
,  // measure 39
1000
0000
0000
0000
,  // measure 40
0001
0000
0000
0000
,  // measure 41
1000
0000
0000
0000
,  // measure 42
0010
0000
0000
0000
,  // measure 43
0100
0000
0000
0000
,  // measure 44
0010
0000
0000
0000
,  // measure 45
0100
0000
0000
0000
,  // measure 46
0001
0000
0000
0000
,  // measure 47
1000
0000
0000
0000
0000
0000
0000
0001
,  // measure 48
0000
0000
0000
0000
0000
0000
0000
1000
,  // measure 49
0000
0000
0000
0010
,  // measure 50
0000
0000
0000
0000
0000
0010
0000
0000
,  // measure 51
0000
0000
0000
0000
0100
0000
0000
0100
,  // measure 52
0000
0001
0000
0000
,  // measure 53
0000
1000
0000
0000
,  // measure 54
0000
0000
0000
0000
,  // measure 55
0000
0001
0000
0000
,  // measure 56
0000
0000
0000
0000
,  // measure 57
0000
0010
0000
0000
,  // measure 58
0000
0000
0000
0000
,  // measure 59
0000
0100
0000
0000
,  // measure 60
0000
0000
0000
0000
,  // measure 61
0000
1000
0000
0000
,  // measure 62
0000
0000
0000
0000
,  // measure 63
0000
0001
0000
0000
,  // measure 64
0000
0000
0000
0000
,  // measure 65
0000
0100
0000
0000
,  // measure 66
0000
0100
0000
0000
,  // measure 67
0000
0010
0000
0000
,  // measure 68
0000
0010
0000
0000
,  // measure 69
0000
1001
0000
0000
,  // measure 70
0000
0110
0000
0000
,  // measure 71
0000
1000
0000
1000
,  // measure 72
0000
1000
0000
0000
,  // measure 73
0000
0010
0000
0010
,  // measure 74
0000
0010
0000
0000
,  // measure 75
0000
0100
0000
0100
,  // measure 76
0000
0100
0000
0000
,  // measure 77
0000
0001
0000
0001
,  // measure 78
0000
0001
0000
0000
,  // measure 79
0000
0010
0000
0010
,  // measure 80
0000
0010
0000
0000
,  // measure 81
0000
0100
0000
0100
,  // measure 82
0000
0100
0000
0000
,  // measure 83
0000
1000
0000
1000
,  // measure 84
0000
1000
0000
0000
,  // measure 85
0000
0001
0000
0001
,  // measure 86
0000
0001
0000
0000
,  // measure 87
0000
0010
0000
0000
,  // measure 88
0000
0010
0000
0000
0000
0000
0000
0000
,  // measure 89
0100
0000
0000
0100
0000
0000
1000
0000
,  // measure 90
0000
0000
0000
0001
;
