#TITLE:Out My Head;
#SUBTITLE:(145 Remix);
#ARTIST:Fox Stevenson;
#TITLETRANSLIT:;
#SUBTITLETRANSLIT:;
#ARTISTTRANSLIT:;
#GENRE:;
#CREDIT:;
#BANNER:banner.png;
#BACKGROUND:background.png;
#LYRICSPATH:;
#CDTITLE:;
#MUSIC:Out My Head (145 Remix).ogg;
#OFFSET:-0.068701;
#SAMPLESTART:67.942070;
#SAMPLELENGTH:13.241379;
#SELECTABLE:YES;
#BPMS:0.000000=145.000000
;
#STOPS:
;
#BGCHANGES:;
#KEYSOUNDS:;
#ATTACKS:;

//---------------dance-single - ----------------
#NOTES:
     dance-single:
     :
     Challenge:
     15:
     0.686030,0.928176,0.068186,0.175334,0.969209,493.000000,486.000000,7.000000,18.000000,0.000000,0.000000,0.686030,0.928176,0.068186,0.175334,0.969209,493.000000,486.000000,7.000000,18.000000,0.000000,0.000000:
0000
0000
0000
0000
,
0000
0000
0000
0000
,
0000
0000
0000
0000
,
0000
0000
0000
0000
,
0000
0000
0000
0000
,
0000
0000
0000
0000
,
0000
0000
0000
0000
,
0000
0000
0000
0000
,
0000
0000
0000
0000
,
2000
0000
0000
0000
0010
0000
0010
0000
3001
0000
0000
0000
0010
0000
0000
0100
,
1000
0002
0100
0100
1003
0010
0100
0001
,
0020
0000
0000
0000
0130
0000
0100
0000
1000
0000
0100
0000
0010
0000
0000
0001
,
1000
0000
0010
0000
0100
0000
0100
0001
1000
0000
0100
0010
0001
0000
1000
0000
,
1002
0000
0000
0000
0010
0000
0010
0000
1003
0000
0000
0000
0010
0000
0000
0100
,
0001
2000
0100
0100
3001
0010
0100
1000
,
0010
1000
0010
1000
0200
0000
0300
0000
0022
0033
0000
0220
0330
0000
2200
0000
,
0000
0000
0000
0000
3300
0000
0000
0000
0100
0010
0100
0010
0001
0100
0010
1000
,
0001
0000
0100
0000
0010
0000
0100
0000
0100
0001
0000
1000
0000
0010
0000
0010
,
1000
0000
0100
0000
0010
0000
0100
0000
0100
1000
0000
0001
0000
0010
0000
0000
,
0001
0000
0100
0000
1000
0000
0100
0010
0000
1000
0000
0001
0000
0001
0000
0000
,
1000
0010
0001
0010
,
1000
0000
0010
0000
0100
0000
0001
0000
0001
1000
0000
0100
0000
0010
0000
0000
,
0001
0000
0100
0000
0010
0000
1000
0000
1000
0100
0000
0010
0000
0001
0000
0000
,
0100
0000
0100
0000
0100
0000
0010
1000
0000
0010
0000
0100
0000
0001
0000
0000
,
2002
0000
0000
3003
,
1000
0000
0010
0000
0010
1000
0000
0001
0000
0010
0000
0100
0010
0000
0001
0000
,
0000
0000
0010
0000
0010
0001
0000
1000
0000
0010
0000
0100
0010
0000
1000
0000
,
0100
0000
1000
0000
1000
0010
0000
0100
0000
0001
0000
0100
0010
0000
1000
0000
,
0001
0000
1000
0000
1000
0010
0000
1000
0001
0000
0001
0010
0000
0100
0010
0001
,
0100
0001
0100
0001
0100
0001
0100
0001
1000
0010
1000
0010
1000
0010
1000
0010
,
1000
0100
1000
0100
1000
0100
0010
0100
0010
0100
0010
0100
0010
0001
0010
0001
,
1000
0001
1000
0001
0100
0010
0100
0010
1000
0100
0010
0001
0100
0010
1000
0001
,
0010
0000
0000
0000
0000
0000
0000
0000
0000
0000
0000
0000
0000
0000
0000
0000
0000
0000
0000
0000
0000
0000
0000
0000
0000
0000
0000
0000
0000
0000
0000
0000
0000
0000
0000
0000
0000
0000
0000
0000
0000
0000
0000
0000
0000
0000
0000
0000
0100
0000
0000
0000
0000
0010
0000
0000
0100
0000
0000
0000
0000
0010
0000
0000
,
0001
1000
0010
0000
0010
0100
0000
0001
0000
0010
0000
0100
0010
0000
0001
0000
,
1000
0001
0010
0000
0010
0100
0000
1000
0000
0010
0000
0100
0010
0000
1000
0000
,
0001
0010
0100
0000
0100
1000
0000
0010
0000
0100
0000
0001
0100
0000
0010
0000
,
1000
0001
0100
0000
0100
0010
0000
0100
0001
0100
0010
1000
0000
0100
0010
0001
,
1000
0001
1000
0000
0010
1000
0000
0001
0100
0010
0000
1000
0001
0000
0010
0000
,
0001
1000
0001
0000
0010
0001
0000
1000
0010
0100
0000
0001
1000
0000
0001
0000
,
1000
0010
1000
0000
0001
0010
0000
0100
0010
0001
0000
1000
0010
0000
0100
0000
,
0102
0000
0000
0000
2003
0000
0010
0000
0010
0000
0010
0000
3001
0000
0010
0100
,
1000
0001
0010
0000
0001
0100
0010
0100
0001
0010
0100
1000
0010
0000
1000
0000
,
0001
1000
0010
0000
1000
0100
0010
0100
1000
0010
0100
0001
0010
0000
0001
0000
,
0100
0001
0100
0000
0010
0100
0001
0010
0100
0010
0001
1000
0010
0000
0100
0000
,
0010
1000
0001
0000
0001
1000
0000
0100
1000
0100
0010
0001
0000
0100
0010
1000
,
0001
0010
0001
0000
1000
0010
0100
1000
0100
0001
0010
0100
1000
0000
0001
0000
,
1000
0010
1000
0000
0001
0010
0100
0001
0100
1000
0010
0100
0001
0000
1000
0000
,
0100
0010
0100
0000
1000
0010
0100
0001
0100
0010
1000
0100
0010
0000
0001
0000
,
1000
0100
1000
0000
0001
0100
0010
1000
0010
0100
0001
0010
0001
1000
0100
0010
,
0001
1000
0001
0000
1000
0001
0100
1000
0100
0001
0010
0100
1000
0000
0001
0000
,
0010
0100
0010
0000
0001
1000
0010
0001
0010
1000
0100
0010
0001
0000
1000
0000
,
0010
1000
0001
0000
0100
0010
0100
1000
0100
0001
0010
0100
1000
0000
0001
0000
,
1000
0010
0100
0000
0100
0001
0000
0100
0010
0100
0001
0010
0000
0100
1000
0001
,
0010
0100
0010
0000
0001
1000
0000
0010
0000
1000
0000
0001
0010
0000
0100
0000
,
1000
0001
1000
0000
0100
0010
0000
0001
0000
1000
0000
0001
0010
0000
0100
0000
,
0010
0001
0100
0000
0010
1000
0000
0001
0000
0010
0000
0100
0010
0000
0001
0000
,
1000
0000
0010
0000
0010
0000
1000
0001
0000
1000
0000
0100
0000
0010
0000
0000
,
2002
0000
0000
3003
;

//---------------dance-single - ----------------
#NOTES:
     dance-single:
     :
     Hard:
     14:
     0.548268,0.646911,0.068186,0.087667,0.676985,394.000000,387.000000,7.000000,9.000000,0.000000,0.000000,0.548268,0.646911,0.068186,0.087667,0.676985,394.000000,387.000000,7.000000,9.000000,0.000000,0.000000:
0000
0000
0000
0000
,
0000
0000
0000
0000
,
0000
0000
0000
0000
,
0000
0000
0000
0000
,
0000
0000
0000
0000
,
0000
0000
0000
0000
,
0000
0000
0000
0000
,
0000
0000
0000
0000
,
0000
0000
0000
0000
,
1001
0000
0000
0000
0001
0000
0010
0000
0001
0000
0000
0000
1000
0000
0000
0010
,
0000
0010
0010
1000
0001
0010
0100
1000
,
0100
0000
0010
0001
0010
0100
0000
1000
,
0000
0000
0010
0000
1000
0000
0001
0000
0010
0000
0000
0010
0100
0000
0010
0000
,
0001
0000
0000
0000
1000
0000
0010
0000
1000
0000
0000
0000
0001
0000
0000
0100
,
0000
0100
0100
0010
1000
0100
0010
0001
,
1000
0001
1000
0001
2000
0000
0000
0000
3020
0000
0000
0230
0000
0000
0302
0000
,
0000
0000
0003
1000
,
0010
0000
1000
0000
0001
0000
1000
0000
0001
0100
0000
0010
0000
0010
0000
0000
,
0100
0000
0001
0000
1000
0000
0001
0000
1000
0100
0000
0010
0000
0010
0000
0000
,
0001
0000
1000
0000
0100
0000
1000
0001
0000
0010
0000
0001
0000
1000
0000
0000
,
0010
1000
0001
0100
,
0001
0000
1000
0000
0100
0000
1000
0000
0001
0010
0000
0100
0000
0100
0000
0000
,
1000
0000
0001
0000
0100
0000
0001
0000
1000
0010
0000
0100
0000
0100
0000
0000
,
0010
0000
1000
0000
0010
0000
1000
0001
0000
0100
0000
0001
0000
0010
0000
0000
,
0020
0100
1000
0031
,
1100
0000
0000
0000
1000
0000
0000
0000
0010
0000
0000
0000
0100
0000
0000
0101
,
0000
0001
1000
0100
,
0011
0000
0000
0000
0001
0000
0000
0000
1010
0000
0000
0000
1000
0000
0000
1100
,
0000
0100
0010
0001
,
1000
0010
0100
0010
0001
0010
1000
0100
,
0010
0100
0001
0100
1000
0001
0010
0100
,
1000
0000
0010
1000
0010
0000
0100
0010
0100
0000
0001
0100
0001
1000
0001
1000
,
0100
0000
0100
0000
1000
0000
0100
0010
0000
0100
0000
0010
0000
0001
0000
0000
,
1000
0000
0010
0000
1000
0100
0000
0010
0000
0100
0000
1000
0001
0000
1000
0000
,
0001
0000
0010
0000
0001
0100
0000
0010
0000
0100
0000
0001
1000
0000
0001
0000
,
1000
0000
0100
0000
1000
0001
0000
0010
0000
0001
0000
1000
0010
0000
1000
0000
,
0001
0000
0100
0000
0100
0010
0000
1000
0010
0000
0010
0100
0000
0001
0100
0010
,
1000
0000
0001
0000
0010
0001
0000
1000
0000
0001
0000
1000
0100
0000
1000
0000
,
0001
0000
1000
0000
0010
1000
0000
0001
0000
1000
0000
0001
0100
0000
0001
0000
,
0010
0000
0100
0000
1000
0001
0000
0010
0000
0001
0000
1000
0100
0000
0010
0000
,
0002
0000
2003
0010
0010
3010
0100
0001
,
0010
0001
0010
0000
0001
1000
0000
0010
0000
1000
0000
0001
1000
0000
0100
0000
,
1000
0010
1000
0000
0001
1000
0000
0001
0000
0100
0000
0001
1000
0000
0010
0000
,
0100
0001
0100
0000
0001
1000
0000
0010
0000
1000
0000
0001
0010
0000
0001
0000
,
1000
0001
1000
0000
0100
0010
0000
0100
0010
0000
0010
0001
0000
0010
0100
1000
,
0001
0100
0001
0000
1000
0001
0000
1000
0000
0010
0000
1000
0001
0000
1000
0000
,
0100
1000
0100
0000
0010
0001
0000
1000
0000
0001
0000
1000
0010
0000
1000
0000
,
0001
1000
0001
0000
0100
0001
0000
1000
0000
0010
0000
1000
0001
0000
0100
0000
,
0010
1000
0001
0010
1000
0001
0100
1000
,
0010
1000
0001
0000
1000
0001
0000
0010
0000
0001
0000
1000
0100
0000
1000
0000
,
0010
1000
0001
0000
1000
0001
0000
0100
0000
0001
0000
1000
0010
0000
1000
0000
,
0010
0100
0010
0000
1000
0001
0000
0010
0000
0100
0000
0010
0001
0000
1000
0000
,
0010
1000
0001
0000
0001
1000
0000
0100
1000
0000
1000
0001
0000
1000
0100
0010
,
0001
0000
0100
0000
0100
0010
0000
1000
0000
0010
0000
0100
0001
0000
1000
0000
,
0001
0000
0010
0000
0010
0100
0000
1000
0000
0100
0000
0010
0001
0000
1000
0000
,
0010
0000
1000
0000
1000
0001
0000
0100
0000
0010
0000
0100
0001
0000
1000
0000
,
0100
0000
0010
0000
0001
0000
1000
0001
0000
0100
0000
0010
0000
1000
0000
0000
,
2002
0000
0000
3003
;

//---------------dance-single - ----------------
#NOTES:
     dance-single:
     :
     Medium:
     11:
     0.356235,0.450025,0.097408,0.155853,0.024352,256.000000,246.000000,10.000000,16.000000,0.000000,0.000000,0.356235,0.450025,0.097408,0.155853,0.024352,256.000000,246.000000,10.000000,16.000000,0.000000,0.000000:
0000
0000
0000
0000
,
0000
0000
0000
0000
,
0000
0000
0000
0000
,
0000
0000
0000
0000
,
0000
0000
0000
0000
,
0000
0000
0000
0000
,
0000
0000
0000
0000
,
0000
0000
0000
0000
,
0000
0000
0000
0000
,
0010
0000
0000
0000
1000
0000
0001
0000
1000
0000
0000
0000
0001
0000
0000
0100
,
0000
0100
0001
0000
0010
0001
0010
0100
,
1000
0000
0010
0000
0100
0010
0000
1000
,
0000
0000
0000
0001
0010
0001
1000
0001
,
0100
0000
0000
0000
0001
0000
1000
0000
0001
0000
0000
0000
1000
0000
0000
0010
,
0000
0010
1000
0000
0100
1000
0100
0010
,
0000
0000
0000
0000
0010
0000
0000
0000
0001
0000
0000
1000
0000
0000
2002
0000
,
0000
0000
0000
3003
,
1000
0000
0001
0000
0001
1000
0010
0000
,
1000
0000
0001
0000
0001
1000
0100
0000
,
0010
0000
0001
0000
0010
0100
0010
0001
,
1000
0010
0100
0001
,
0010
0000
0100
0000
0100
1000
0001
0000
,
0010
0000
0100
0000
0100
0010
0001
0000
,
0100
0010
0100
0000
0010
1000
0010
0100
,
0001
0010
0100
1000
,
2020
0000
0000
0000
3030
0000
0000
0000
1000
0000
0000
0000
0001
0000
0000
0202
,
0000
0303
0000
0000
,
0220
0000
0000
0000
0330
0000
0000
0000
0022
0000
0033
0000
1000
0000
0000
2200
,
0000
3300
0000
0020
,
1030
0000
1000
0000
0100
0010
0001
0000
,
0100
0000
0100
0000
0010
1000
0001
0000
,
0010
0000
0010
0000
0001
0010
0100
0000
,
1000
0000
0000
0000
,
0001
1000
0001
0000
0010
0100
1000
0000
,
0001
1000
0001
0000
1000
0010
0100
0001
,
1000
0001
1000
0000
0100
0010
0001
0000
,
0000
0010
0100
0000
0100
0010
0000
0010
,
0001
0100
0010
0000
1000
0010
1000
0000
,
0010
1000
0100
0000
0010
0001
0010
0000
,
0001
1000
0100
0000
0010
0001
1000
0000
,
2000
0000
3000
0001
0001
0001
0100
0010
,
1000
0010
0001
0010
1000
0010
0100
0000
,
0001
0010
1000
0010
0001
0010
0100
0000
,
0010
0001
1000
0001
0100
0010
1000
0000
,
0000
0001
1000
0000
1000
0001
0000
0001
,
0010
0100
1000
0100
0010
0001
1000
0000
,
0001
0100
0010
0100
0001
1000
0100
0000
,
1000
0010
0100
0010
1000
0001
0100
0000
,
0001
0000
0010
0100
0010
0001
1000
0000
,
1001
0000
1000
0001
0100
0000
0010
0000
,
1010
0000
1000
0100
0010
0000
0001
0000
,
0101
0000
0100
0010
1000
0000
0001
0000
,
0000
0010
0100
0000
0100
1000
0000
1000
,
0010
0000
1000
0000
1000
0100
0010
0000
,
0100
0000
0010
0000
0010
0001
0100
0000
,
0001
0000
0100
0000
0100
0010
1000
0000
,
0001
0000
1000
0000
0100
0010
0001
0000
,
2002
0000
0000
3003
;

//---------------dance-single - ----------------
#NOTES:
     dance-single:
     :
     Easy:
     7:
     0.242128,0.365645,0.048704,0.048704,0.014611,174.000000,169.000000,5.000000,5.000000,0.000000,0.000000,0.242128,0.365645,0.048704,0.048704,0.014611,174.000000,169.000000,5.000000,5.000000,0.000000,0.000000:
0000
0000
0000
0000
,
0000
0000
0000
0000
,
0000
0000
0000
0000
,
0000
0000
0000
0000
,
0000
0000
0000
0000
,
0000
0000
0000
0000
,
0000
0000
0000
0000
,
0000
0000
0000
0000
,
0000
0000
0000
0000
,
1001
0000
0001
0010
,
0100
0000
1000
0001
,
1000
0010
0100
0001
,
0010
0000
0100
0100
,
0110
0000
0010
0001
,
1000
0000
0010
1000
,
0000
0000
0000
0000
0001
0000
0000
0000
0010
0000
0000
0010
0000
0000
0020
0000
,
0000
0000
0000
0130
,
1000
0001
1000
0000
,
0010
0100
0010
0000
,
0100
0001
0100
0010
,
1000
0000
0001
0000
,
0010
0001
0010
0000
,
0100
1000
0100
0000
,
1000
0100
0010
0001
,
1000
0000
0010
0000
,
1001
0000
0000
0000
0000
0000
0000
0000
0000
0000
0000
0000
0001
0000
0000
0001
,
0000
0000
0000
0000
,
0010
0000
0000
0000
0000
0000
0000
0000
0100
0000
0000
0000
1000
0000
0000
1000
,
0000
0000
0000
2000
,
3001
0010
0100
1000
,
0010
1000
0001
0010
,
0001
1000
0001
1000
0001
1000
0001
1000
,
0001
0000
0000
0000
,
0000
1000
0010
0100
,
0000
0100
0001
0010
,
0000
0001
0100
0001
,
0000
0010
0010
0000
0100
0100
0000
0010
,
0000
0001
1000
0010
,
0000
0010
1000
0100
,
0000
0100
0010
0001
,
0200
0000
0300
0000
0010
0100
0010
0000
,
1000
0001
0010
0001
,
1000
0100
1000
0001
,
0100
0010
1000
0001
,
0000
0010
0010
0000
0100
0100
0000
0010
,
0000
0001
1000
0100
,
0001
0100
1000
0010
,
0100
0001
0010
1000
,
0010
0001
1000
0001
,
1001
0000
1000
0000
0001
1000
0001
0000
,
0010
0000
0100
0000
0010
0001
0010
0000
,
0001
0000
1000
0000
0001
1000
0001
0000
,
0000
1000
1000
0000
0001
0001
0000
1000
,
0000
0000
0010
0000
0010
1000
0010
0000
,
0000
0000
0100
0000
0100
0001
0100
0000
,
0000
0000
0001
0000
0001
1000
0001
0000
,
0010
0100
1000
0001
,
2002
0000
0000
3003
;

//---------------dance-single - ----------------
#NOTES:
     dance-single:
     :
     Beginner:
     4:
     0.160027,0.194329,0.038963,0.000000,0.000000,115.000000,111.000000,4.000000,0.000000,0.000000,0.000000,0.160027,0.194329,0.038963,0.000000,0.000000,115.000000,111.000000,4.000000,0.000000,0.000000,0.000000:
// measure 0
0000
0000
0000
0000
,  // measure 1
0000
0000
0000
0000
,  // measure 2
0000
0000
0000
0000
,  // measure 3
0000
0000
0000
0000
,  // measure 4
0000
0000
0000
0000
,  // measure 5
0000
0000
0000
0000
,  // measure 6
0000
0000
0000
0000
,  // measure 7
0000
0000
0000
0000
,  // measure 8
0000
0000
0000
0000
,  // measure 9
1000
0000
0010
0100
,  // measure 10
0010
0000
1000
0000
,  // measure 11
0001
0000
0010
0100
,  // measure 12
0010
0000
0000
0000
,  // measure 13
0001
0000
1000
0001
,  // measure 14
1000
0000
0010
0000
,  // measure 15
1000
0000
0000
0000
0001
0000
0000
1001
,  // measure 16
0000
0000
0000
0000
,  // measure 17
1000
0000
0100
0000
,  // measure 18
0010
0000
0001
0000
,  // measure 19
1000
0000
0001
0001
,  // measure 20
0001
0000
1000
0000
,  // measure 21
0010
0000
1000
0000
,  // measure 22
0001
0000
0100
0000
,  // measure 23
0010
0000
1000
1000
,  // measure 24
1000
0000
0000
0000
,  // measure 25
0100
0000
0000
0000
,  // measure 26
0010
0000
0000
0000
,  // measure 27
0001
0000
1000
0001
,  // measure 28
1000
0000
0000
0000
,  // measure 29
0010
0000
0010
0000
,  // measure 30
1000
0000
1000
0000
,  // measure 31
0001
0001
1000
1000
,  // measure 32
0001
0000
0000
0000
,  // measure 33
0010
0010
0010
0000
,  // measure 34
0001
0000
1000
0000
,  // measure 35
0100
0100
0100
0000
,  // measure 36
1000
0000
0010
0000
,  // measure 37
0100
0100
0100
0000
,  // measure 38
0001
0000
1000
0000
,  // measure 39
0010
0010
0010
0000
,  // measure 40
1000
0000
0001
0001
,  // measure 41
0010
0000
0010
0000
,  // measure 42
0100
0100
0010
0000
,  // measure 43
0001
0000
1000
0000
,  // measure 44
0001
0001
1000
0000
,  // measure 45
0110
0000
0100
0000
,  // measure 46
0100
0100
0010
0000
,  // measure 47
1000
0000
0001
0000
,  // measure 48
0010
0000
0100
0000
,  // measure 49
1001
0000
1000
0000
,  // measure 50
0001
0001
0001
0000
,  // measure 51
0010
0010
0010
0000
,  // measure 52
0100
0000
0010
0000
,  // measure 53
0001
0001
1000
0000
,  // measure 54
1000
1000
0001
0000
,  // measure 55
0010
0010
0100
0000
,  // measure 56
0010
0000
0001
0000
,  // measure 57
1001
0000
0000
0000
;
