#TITLE:Open Your Heart;
#SUBTITLE:;
#ARTIST:Morena;
#TITLETRANSLIT:;
#SUBTITLETRANSLIT:;
#ARTISTTRANSLIT:;
#CREDIT:;
#BANNER:;
#BACKGROUND:;
#LYRICSPATH:;
#CDTITLE:;
#MUSIC:Open Your Heart.ogg;
#OFFSET:-0.100;
#SAMPLESTART:60.293;
#SAMPLELENGTH:12.000;
#SELECTABLE:YES;
#BPMS:0.000=127.570;
#STOPS:;
#BGCHANGES:;

//---------------dance-single - ----------------
#NOTES:
     dance-single:
     :
     Hard:
     12:
     0.550,0.550,0.066,0.057,0.427:
0000
0000
0000
0000
,
0000
0000
0000
0000
,
0000
0000
0000
0000
,
0000
0000
0000
0000
,
1000
0000
0010
0000
0100
0000
0000
0000
0001
0000
0000
0001
0000
0000
0001
0000
,
0010
0000
0100
0000
1000
0000
0000
0000
1000
0010
0000
0100
0000
0100
0001
0000
,
0010
0000
0100
0000
1000
0000
0000
0000
0001
0000
0000
0001
0000
0000
0001
0000
,
1000
0001
1000
0001
0100
0010
0100
0010
0000
1000
0000
0000
0000
0000
0000
0000
,
0001
1000
0100
0000
0010
0000
0000
0010
0000
0000
0001
0000
0100
0000
0001
0000
,
1000
0010
0100
0000
0001
0000
0000
0001
0000
0000
1000
0000
0100
0000
0010
0000
,
0001
1000
0100
0000
0010
0000
0000
0010
0000
0000
0001
0000
0100
0000
0001
0000
,
0000
1000
0010
0000
0010
0000
0100
0000
0001
0000
0010
0100
1000
0000
1000
0000
,
1000
0001
0100
0000
0010
0000
0000
0010
0000
0000
1000
0000
0100
0000
1000
0000
,
0001
0010
0100
0000
1000
0000
0000
1000
0000
0000
0100
0000
1000
0000
0010
0000
,
1000
0001
0100
0000
0010
0000
0000
0010
0000
0000
1000
0000
0100
0000
1000
0000
,
0000
0001
0010
0000
0010
0000
0100
0000
1000
0000
0010
0100
0001
0000
0001
0000
,
1001
0000
0000
0000
1000
0000
0100
0000
0001
0000
0000
0001
0000
0000
0100
0000
,
0010
0000
0001
0000
0100
0000
0010
0000
1000
0100
0000
0100
0000
0010
0001
0000
,
1001
0000
0000
0000
0001
0000
0100
0000
1000
0000
0000
1000
0000
0000
0100
0000
,
0010
0000
1000
0000
0000
0100
0000
0000
0010
0000
0001
0000
0100
0000
0010
0000
,
1001
0000
1000
0000
0010
0000
0100
0000
0001
0000
0000
0001
0000
0000
0010
0000
,
0001
0000
0100
0000
0010
0000
1000
0000
0001
0010
0000
0100
0000
0100
1000
0000
,
1001
0001
0100
0010
1000
0100
0010
0000
,
0001
0000
0100
0000
0000
0010
0000
0000
1000
0000
0100
0000
0100
0000
0100
0000
,
0010
0010
0001
0001
1000
1000
0010
0010
,
0100
0001
0010
0001
1000
0000
1000
0001
,
0010
0000
0001
0000
0100
0000
0010
0000
1000
0000
0000
1000
0000
0000
1000
0000
,
0010
0100
0001
1000
0100
0010
0010
0010
,
0001
0001
1000
1000
0010
0010
0100
0001
,
0010
0001
0100
0010
0000
0000
0010
1000
,
0100
0001
0100
1000
0000
0010
0001
0010
,
0100
0001
0010
0100
1000
0100
0001
0100
,
1100
0000
1000
0000
0010
0000
0100
0000
0001
0000
0000
0001
0000
0000
0001
0000
,
0010
0000
0001
0000
0100
0000
0010
0000
1000
0000
0000
1000
0000
0000
1000
0000
,
0010
1000
0100
0001
0100
1000
0010
0100
,
0101
0000
1000
0000
0000
0100
0000
0000
0010
0000
0001
0000
0001
0000
0001
0000
,
1001
0000
1000
0000
0010
0000
0100
0002
0000
0000
0000
1000
0000
0000
0010
0003
,
0000
0000
0001
0000
0010
0000
0100
2000
0000
0000
0000
0001
0000
0000
3010
0000
,
1000
0010
0001
0010
2000
0000
3100
0010
,
0001
0000
1000
0010
1000
0010
1000
0000
0001
0000
0100
0001
0100
0001
0100
0000
,
0001
1000
0100
0000
0010
0000
0000
0010
0000
0000
0001
0000
0100
0000
0010
0000
,
1000
0010
0100
0000
0001
0000
0000
0001
0000
0000
0010
0000
0100
0000
1000
0000
,
0001
1000
0100
0000
0010
0000
0000
0010
0000
0000
0001
0000
0100
0000
0010
0000
,
0000
1000
0001
0000
0001
0000
0100
0000
0010
0000
1000
0100
0010
0000
0001
0000
,
1000
0010
0100
0000
0001
0000
0000
0001
0000
0000
0010
0000
0100
0000
1000
0000
,
0010
0100
0001
0000
0010
0000
0000
0010
0000
0000
0001
0000
0100
0000
0010
0000
,
1000
0010
0100
0000
0001
0000
0000
0001
0000
0000
0010
0000
0100
0000
1000
0000
,
0000
0001
1000
0000
1000
0000
0100
0000
1000
0000
0010
0100
0001
0000
0001
0000
,
1000
0000
0100
1000
0000
0100
1000
0000
0001
0100
0000
0001
0000
0100
0001
0000
,
1000
0000
0010
0100
0000
0001
0010
0000
0100
0000
0000
0100
0000
0000
0100
0000
,
1000
0000
0001
0100
0000
0001
0100
0000
0010
1000
0000
0010
0000
1000
0010
0000
,
0100
0000
0001
1000
0000
0100
0010
0000
0001
0000
0000
0001
0000
0000
0001
0000
,
0200
0000
0000
0310
0000
1000
0000
0100
0000
0100
0000
0000
0000
0000
1000
0000
,
0020
0000
0000
0130
0000
0001
0000
0010
0000
0010
0000
0000
0000
0000
0001
0010
,
0001
0100
0010
1000
,
0002
0003
0000
0000
;

//---------------dance-double - ----------------
#NOTES:
     dance-double:
     :
     Hard:
     11:
     0.496,0.524,0.076,0.028,0.213: // measure 1
00000000
00000000
00000000
00000000
,  // measure 2
00000000
00000000
00000000
00000000
,  // measure 3
00000000
00000000
00000000
00000000
,  // measure 4
00000000
00000000
00000000
00000000
,  // measure 5
00001000
00000000
00010000
00000000
01000000
00000000
00000000
00000000
00100000
00000000
00000000
00100000
00000000
00000000
00100000
00000000
,  // measure 6
00010000
00000000
00001000
00000000
00000010
00000000
00000000
00000000
00000100
00000001
00000000
00000001
00000000
00001000
00000100
00000000
,  // measure 7
00000010
00000000
00001000
00000000
00010000
00000000
00000000
00000000
01000000
00000000
00000000
01000000
00000000
00000000
01000000
00000000
,  // measure 8
10000000
00000000
00100000
00000000
00010000
00000000
00001000
00000000
00000000
00000100
00000000
00000000
00000000
00000000
00000000
00000000
,  // measure 9
00000001
00000000
00001000
00000000
00000100
00000000
00000000
00010000
00000000
00000000
00010000
00000000
00001000
00000000
00100000
00000000
,  // measure 10
00010000
00000000
10000000
00000000
01000000
00000000
00000000
00100000
00000000
00000000
00001000
00000000
00010000
00000000
00000010
00000000
,  // measure 11
00001000
00000000
00000001
00000000
00000100
00000000
00000000
00000010
00000000
00000000
00010000
00000000
00001000
00000000
00100000
00000000
,  // measure 12
00000000
00010000
10000000
00100000
00010000
00001000
00000100
00000000
,  // measure 13
00000001
00000000
00001000
00000000
00000010
00000000
00000000
00000100
00000000
00000000
00001000
00000000
00010000
00000000
00100000
00000000
,  // measure 14
10000000
00000000
00010000
00000000
00100000
00000000
00000000
01000000
00000000
00000000
00010000
00000000
00001000
00000000
00000010
00000000
,  // measure 15
00000001
00000000
00001000
00000000
00000010
00000000
00000000
00000100
00000000
00000000
00001000
00000000
00010000
00000000
01000000
00000000
,  // measure 16
00000000
10000000
00100000
00010000
00001000
00000100
00000010
00000000
,  // measure 17
00001001
00000000
00000001
00000010
00001000
00000010
00000001
00000100
,  // measure 18
00001000
00000000
00010000
00000000
01000000
00000000
10000000
00000000
00100000
10000000
00000000
00010000
00000000
01000000
00100000
00000000
,  // measure 19
10010000
00000000
10000000
00100000
00010000
00100000
10000000
01000000
,  // measure 20
00010000
00000000
00001000
00000000
00000100
00000000
00000001
00000000
00000010
00000100
00000000
00001000
00000000
00000010
00000100
00000000
,  // measure 21
00001001
00000001
00000010
00000001
00000100
00001000
00010000
00100000
,  // measure 22
10000000
00000000
01000000
00000000
10000000
00000000
00100000
00000000
01000000
00010000
00000000
10000000
00000000
01000000
00100000
00000000
,  // measure 23
10010000
10000000
00100000
10000000
01000000
00010000
00001000
00000100
,  // measure 24
00000001
00000010
00000001
00000100
00001000
00010000
00100000
10000000
,  // measure 25
00010000
00100000
00001000
00010000
00000010
00001000
00000001
00000100
,  // measure 26
00000001
00000010
00000100
00010000
01000000
00000000
01000000
10000000
,  // measure 27
00100000
01000000
00010000
00001000
00000000
00000000
00000000
00000010
,  // measure 28
00001000
00000001
00000100
00001000
00010000
10000000
01000000
00100000
,  // measure 29
10000000
00010000
00100000
01000000
00010000
00001000
00000010
00001000
,  // measure 30
00000001
00000100
00000010
00001000
00010000
00000000
00100000
10000000
,  // measure 31
01000000
00010000
00001000
00010000
01000000
10000000
00100000
00010000
,  // measure 32
00001000
00010000
00100000
10000000
01000000
00010000
00001000
00000000
,  // measure 33
00011000
00001000
00000010
00000001
00000100
00001000
00010000
00000000
,  // measure 34
00010000
00100000
10000000
01000000
00010000
00001000
00010000
00000000
,  // measure 35
00010000
00100000
00010000
00001000
00000010
00001000
00010000
01000000
,  // measure 36
10000000
00100000
01000000
00001000
00010000
00001000
00000010
00000000
,  // measure 37
00000001
00000000
00000100
00000000
00000010
00000000
00010000
00001000
00000000
00000000
00000000
00000000
00000000
00000000
00000000
00000000
,  // measure 38
00000000
00000000
00100000
00000000
01000000
00000000
00010000
00001000
00000000
00000000
00000000
00000000
00000000
00000000
00000000
00000000
,  // measure 39
00000000
00001000
00000010
00001000
00010000
01000000
00010000
00001000
,  // measure 40
00000010
00000001
00000100
00000010
00001000
00000100
00010000
00001000
,  // measure 41
00100000
00000000
00010000
00000000
01000000
00000000
00000000
00100000
00000000
00000000
10000000
00000000
01000000
00000000
00001000
00000000
,  // measure 42
00000010
00000000
00001000
00000000
00000100
00000000
00000000
00000010
00000000
00000000
00000001
00000000
00000100
00000000
00001000
00000000
,  // measure 43
00100000
00000000
10000000
00000000
01000000
00000000
00000000
00100000
00000000
00000000
00001000
00000000
00010000
00000000
00001000
00000000
,  // measure 44
00000000
00000010
00000001
00000010
00001000
00010000
01000000
00000000
,  // measure 45
10010000
00000000
00010000
00000000
01000000
00000000
00000000
01000000
00000000
00000000
00100000
00000000
00010000
00000000
00001000
00000000
,  // measure 46
00011000
00000000
00000100
00000000
00001000
00000000
00000000
00000001
00000000
00000000
00000100
00000000
00000010
00000000
00001000
00000000
,  // measure 47
00001001
00000000
00001000
00000000
00000100
00000000
00000000
00010000
00000000
00000000
00001000
00000000
01000000
00000000
00010000
00000000
,  // measure 48
00000000
10000000
01000000
00010000
00001000
00010000
01000000
10000000
,  // measure 49
00100000
00000000
01000000
00010000
00000000
01000000
00010000
00000000
10000000
00000000
00000000
00000000
01000000
00000000
00000000
00000000
,  // measure 50
00010000
00000000
00001000
00010000
00000000
00001000
00010000
00000000
00000010
00000000
00000000
00000000
00000100
00000000
00000000
00000000
,  // measure 51
00000001
00000000
00001000
00000100
00000000
00001000
00000100
00000000
00000010
00000000
00000000
00000000
00000001
00000000
00000000
00000000
,  // measure 52
00000100
00000000
00001000
00010000
00000000
00001000
00010000
00000000
00100000
00000000
00000000
00000000
10000000
00000000
00000000
00000000
,  // measure 53
02000000
00000000
00000000
13000000
00000000
00100000
00000000
00010000
00000000
00001000
00000000
00000000
00000000
00000000
00000100
00000000
,  // measure 54
00000002
00000000
00000000
00000013
00000000
00001000
00000000
00010000
00000000
01000000
00000000
00000000
10000000
00000000
00000000
00000000
,  // measure 55
00100000
00010000
00001000
00000100
,  // measure 56
00000002
00000003
00000000
00000000
;

//---------------dance-single - ----------------
#NOTES:
     dance-single:
     :
     Medium:
     8:
     0.328,0.341,0.057,0.142,0.071:
0000
0000
0000
0000
,
0000
0000
0000
0000
,
0000
0000
0000
0000
,
0000
0000
0000
0000
,
1000
0001
0100
0100
,
0001
1000
0100
0100
,
1000
0001
0100
0100
,
0010
0000
1000
0000
0010
0000
1000
0000
0000
0100
0000
0000
0000
0000
0000
0000
,
0010
0000
0001
0000
0010
0000
0000
0010
0000
0000
0000
0000
0000
0000
0000
0000
,
0100
0000
1000
0000
0100
0000
0000
0100
0000
0000
0000
0000
0000
0000
0000
0000
,
0010
0000
0001
0000
0010
0000
0000
0010
0000
0000
0000
0000
0000
0000
0000
0000
,
0100
1000
0001
0000
0100
0001
1000
0000
,
0010
0000
1000
0000
0010
0000
0000
0010
0000
0000
0000
0000
0000
0000
0000
0000
,
0100
0000
0001
0000
0100
0000
0000
0100
0000
0000
0000
0000
0000
0000
0000
0000
,
0010
0000
1000
0000
0010
0000
0000
0010
0000
0000
0000
0000
0000
0000
0000
0000
,
0100
0001
1000
0000
0100
1000
0001
0000
,
1001
0000
1000
0100
1000
0000
0010
0000
,
0100
0001
0010
0010
,
0001
0000
0100
0010
1000
0000
0100
0000
,
0001
0100
1000
0010
,
0110
0000
0100
0001
0100
0000
0010
0000
,
1000
0100
0010
0100
1000
0000
1000
0000
,
0010
0100
0001
0100
0010
0100
0010
0000
,
1000
0100
0010
0001
,
1000
0001
1000
0000
0001
1000
0001
0000
,
0100
0010
0100
0000
0110
0000
0100
0000
,
0001
0010
0200
0300
,
1000
0010
0200
0300
,
0001
0010
0001
0000
1000
0100
1000
0000
,
0001
0010
0001
0000
0100
0000
0010
0000
,
1000
0100
0001
0000
0001
0100
1000
0000
,
0002
0003
0100
0010
,
1000
0100
1000
0100
0020
0000
0030
0000
,
0000
0001
0010
0100
0020
0000
0030
0000
,
0000
0001
0100
0010
2000
0000
3100
0010
,
0200
0000
0000
2000
0000
0000
3300
0000
,
0000
0000
1000
0000
1000
0000
0001
0200
0000
0000
0000
0000
0300
0000
0000
0000
,
0000
0000
0001
0000
0001
0000
1000
0200
0000
0000
0000
0000
0300
0000
0000
0000
,
0000
0000
0100
0010
0001
0000
0001
0100
,
0020
0000
0000
2000
0000
0000
0000
0030
,
3010
0000
1000
0000
0001
0000
0000
0001
0000
0000
0000
0000
0000
0000
0000
0000
,
0010
0000
0001
0000
1000
0000
0000
1000
0000
0000
0000
0000
0000
0000
0000
0000
,
0010
0000
1000
0000
0001
0000
0000
0001
0000
0000
0000
0000
0000
0000
0000
0000
,
0000
0000
0100
0000
0010
1000
0100
0000
,
1100
0000
1000
0000
0001
0000
0000
0001
0000
0000
0000
0000
0000
0000
0000
0000
,
0011
0000
0001
0000
1000
0000
0000
1000
0000
0000
0000
0000
0000
0000
0000
0000
,
1100
0000
1000
0000
0001
0000
0000
0001
0000
0000
0000
0000
0000
0000
0000
0000
,
0000
0000
0100
0000
0010
1000
0100
0000
,
0010
0001
0100
0100
,
0010
1000
0001
0001
,
0010
0100
1000
1000
,
0010
0100
0001
0001
,
2000
0100
3001
0000
,
0002
0100
1003
0000
,
1000
0010
0100
0001
,
2000
3000
0000
0000
;

//---------------dance-double - ----------------
#NOTES:
     dance-double:
     :
     Medium:
     9:
     0.386,0.419,0.085,0.114,0.014: // measure 1
00000000
00000000
00000000
00000000
,  // measure 2
00000000
00000000
00000000
00000000
,  // measure 3
00000000
00000000
00000000
00000000
,  // measure 4
00000000
00000000
00000000
00000000
,  // measure 5
00010000
00001000
00010000
00000000
01000000
00000000
01000000
00000000
,  // measure 6
00010000
00001000
00010000
00000000
00100000
00000000
00100000
00000000
,  // measure 7
00010000
00001000
00010000
00000000
01000000
00000000
01000000
00000000
,  // measure 8
10000000
00000000
00000000
00000000
01000000
00000000
00000000
00000000
00000000
00010000
00000000
00000000
00000000
00000000
00000000
00000000
,  // measure 9
00011000
00001000
00010000
00000000
00010000
00000100
00000010
00000000
,  // measure 10
00000010
00000001
00001000
00000000
00001000
00000001
00001000
00000000
,  // measure 11
00001000
00000010
00000100
00000000
00000100
00001000
00010000
00000000
,  // measure 12
00000000
00010000
00001000
00010000
00001000
01000000
00010000
00000000
,  // measure 13
10000000
01000000
10000000
00000000
10000000
00010000
01000000
00000000
,  // measure 14
01000000
00100000
00010000
00000000
00010000
00001000
00010000
00000000
,  // measure 15
00001000
00000010
00000100
00000000
00000100
00001000
00000001
00000000
,  // measure 16
00000000
00000001
00000100
00000001
00000100
00000010
00001000
00000000
,  // measure 17
00001001
00000000
00000001
00000100
00001000
00000000
00010000
00000000
,  // measure 18
01000000
10000000
01000000
00100000
,  // measure 19
10010000
00000000
10000000
00100000
00010000
00000000
00001000
00000000
,  // measure 20
00000010
00000001
00000100
00000010
,  // measure 21
00001001
00000000
00000001
00000010
00001000
00000000
00010000
00000000
,  // measure 22
01000000
10000000
00010000
10000000
01000000
00000000
00010000
00000000
,  // measure 23
00011000
00000000
00001000
00000010
00000100
00001000
00000001
00000000
,  // measure 24
00000100
00000010
00010000
00001000
,  // measure 25
00100000
00010000
10000000
01000000
00100000
00001000
00010000
00000000
,  // measure 26
00000010
00000100
00000001
00000010
00000100
00000000
00010000
00001000
,  // measure 27
00100000
00010000
01000000
00200000
00000000
00000000
00300000
10000000
,  // measure 28
01000000
00100000
00001000
00020000
00000000
00000000
00031000
00001000
,  // measure 29
00010000
00000010
00001000
00000001
00000010
00000100
00001000
00000001
,  // measure 30
00000000
00000001
00000100
00000001
00000000
00000000
00000001
00000100
,  // measure 31
00001000
00000100
00000000
00000001
00000000
00000010
00000000
00002000
,  // measure 32
00000000
00000000
00003000
00010000
02000000
00000000
03200000
00000000
,  // measure 33
00300000
00010000
10000000
00100000
01000000
00000000
00001000
00000000
,  // measure 34
00010000
00000100
00000010
00000001
00001000
00000000
00000010
00000000
,  // measure 35
00000100
00001000
00010000
00000000
00011000
00000000
00010000
00100000
,  // measure 36
20000000
00000000
00000000
02000000
00000000
00000000
33000000
00000000
,  // measure 37
00000000
00000000
10000000
00000000
00100000
00000000
01000000
00010000
00000000
00000000
00000000
00000000
00000000
00000000
00000000
00000000
,  // measure 38
00000000
00000000
00001000
00000000
00000010
00000000
00000100
00000001
00000000
00000000
00000000
00000000
00000000
00000000
00000000
00000000
,  // measure 39
00000010
00000001
00000100
00000010
00000000
00000010
00001000
00000002
,  // measure 40
00000000
00000200
00000000
00000303
,  // measure 41
00000001
00000100
00000001
00000000
00000001
00000010
00000100
00000000
,  // measure 42
00000100
00010000
00001000
00000000
00001000
00100000
00010000
00000000
,  // measure 43
00010000
01000000
00100000
00000000
00100000
10000000
00100000
10000000
,  // measure 44
00000000
10000000
00010000
10000000
00010000
01000000
00001000
00000000
,  // measure 45
00011000
00010000
00000100
00000000
00000010
00000001
00000100
00000000
,  // measure 46
00000110
00000010
00001000
00000000
00001000
00000100
00010000
00000000
,  // measure 47
00011000
00001000
00100000
00000000
00100000
00010000
01000000
00000000
,  // measure 48
00100000
10000000
00100000
10000000
00010000
01000000
00001000
00010000
,  // measure 49
00000100
00000100
00000010
00000001
,  // measure 50
00000100
00001000
00010000
00010000
,  // measure 51
00100000
10000000
01000000
00010000
,  // measure 52
00001000
00000010
00000001
00000001
,  // measure 53
00000200
00001000
00000301
00000000
,  // measure 54
00200000
10000000
00310000
00000000
,  // measure 55
10000000
00100000
00010000
00001000
,  // measure 56
00020000
00030000
00000000
00000000
;

//---------------dance-double - ----------------
#NOTES:
     dance-double:
     :
     Easy:
     5:
     0.229,0.262,0.028,0.057,0.000: // measure 1
00000000
00000000
00000000
00000000
,  // measure 2
00000000
00000000
00000000
00000000
,  // measure 3
00000000
00000000
00000000
00000000
,  // measure 4
00000000
00000000
00000000
00000000
,  // measure 5
00010000
00001000
01000000
00000000
,  // measure 6
00001000
00010000
00000100
00000000
,  // measure 7
00010000
00001000
01000000
00000000
,  // measure 8
00001000
00001000
00000000
00000000
,  // measure 9
00010000
01000000
10000000
00000000
,  // measure 10
00001000
00000100
00000001
00000000
,  // measure 11
00010000
01000000
10000000
00000000
,  // measure 12
00001000
00000100
00000001
00000100
,  // measure 13
00001000
00010000
00100000
00000000
,  // measure 14
00010000
00001000
00000010
00000000
,  // measure 15
00001000
00010000
00100000
00000000
,  // measure 16
00010000
00001000
00000100
00001000
,  // measure 17
00011000
00000000
00010000
00001000
,  // measure 18
00100000
00010000
01000000
00100000
,  // measure 19
10000000
00000000
01000000
10000000
,  // measure 20
00100000
01000000
00001000
00010000
,  // measure 21
00011000
00000000
00010000
00000010
,  // measure 22
00000100
00000001
00000010
00000001
,  // measure 23
00000100
00000000
00000010
00001000
,  // measure 24
00010000
00001000
00000010
00000100
,  // measure 25
00000001
00000010
00000100
00010000
,  // measure 26
01000000
00100000
00000000
00000000
,  // measure 27
00010000
10000000
00010000
00000000
,  // measure 28
00001000
00000001
00001000
00000000
,  // measure 29
00000001
00000100
00000010
00010000
,  // measure 30
00001000
00100000
01000000
00000000
,  // measure 31
10000000
01000000
00010000
00001000
,  // measure 32
00020000
00000000
00001000
00031000
,  // measure 33
00011000
00010000
00000200
00000300
,  // measure 34
00000100
00001000
00000002
00000003
,  // measure 35
00000001
00000100
00001000
00000100
,  // measure 36
00000010
00000000
00000000
00000010
00000000
00000000
00000000
00000000
,  // measure 37
00000010
00010000
00002000
00003000
,  // measure 38
00100000
00001000
00020000
00030000
,  // measure 39
00001000
00010000
01000000
10000000
,  // measure 40
00100000
00000000
00000000
00100000
00000000
00000000
00000000
00000000
,  // measure 41
10000000
00100000
00010000
00000000
,  // measure 42
00000001
00000010
00001000
00000000
,  // measure 43
10000000
00100000
00010000
00000000
,  // measure 44
00001000
00000010
00000001
00000100
,  // measure 45
00001000
00010000
01000000
00000000
,  // measure 46
01000000
00010000
00001000
00000000
,  // measure 47
00000100
00001000
00010000
00000000
,  // measure 48
00010000
00001000
00000100
00000001
,  // measure 49
00000010
00000000
00000010
00000001
,  // measure 50
00000010
00000010
00001000
00000000
,  // measure 51
00010000
00000000
00010000
00001000
,  // measure 52
00010000
00010000
00100000
00000000
,  // measure 53
10000000
00000000
01000000
00000000
,  // measure 54
00010000
00000000
00001000
00000000
,  // measure 55
00000100
00000000
00000001
00000000
,  // measure 56
00000020
00000030
00000000
00000000
;

//---------------dance-single - ----------------
#NOTES:
     dance-single:
     :
     Beginner:
     3:
     0.118,0.183,0.095,0.028,0.000:
0000
0000
0000
0000
,
0000
0000
0000
0000
,
0000
0000
0000
0000
,
0000
0000
0000
0000
,
1000
0000
0000
0000
,
1000
0000
0000
0000
,
0001
0000
0000
0000
,
0001
0001
0000
0000
,
1001
0000
0000
0000
,
1000
0000
0000
0000
,
0001
0000
0000
0000
,
0000
0000
0000
0000
,
1001
0000
0000
0000
,
0001
0000
0000
0000
,
1000
0000
0000
0000
,
0000
0000
0000
0000
,
1001
0000
1000
0000
,
0100
0000
0010
0000
,
1001
0000
0001
0000
,
0100
0000
0010
0000
,
1001
0000
1000
0000
,
0100
0000
0010
0000
,
1001
0000
0001
0000
,
0100
0000
0010
0000
,
1000
1000
1000
0000
,
0100
0000
0010
0000
,
0001
0000
0000
0000
,
1000
0000
0000
0000
,
0001
0001
0001
0000
,
0100
0000
0010
0000
,
1000
0000
1000
0000
,
0100
0000
0010
0010
,
0000
0001
0001
0000
,
0000
1000
1000
0000
,
0000
0010
0010
0000
,
0200
0000
0000
0300
0000
0000
0000
0000
,
0000
0001
0001
0000
,
0000
1000
1000
0000
,
0100
0100
0000
0000
,
0020
0000
0000
0030
0000
0000
0000
0000
,
1001
0000
0000
0000
,
1000
0000
0000
0000
,
0001
0000
0000
0000
,
0000
0000
0000
0000
,
1001
0000
0000
0000
,
0110
0000
0000
0000
,
1001
0000
0000
0000
,
0000
0000
0000
0000
,
1000
0000
0000
0000
,
0100
0000
0010
0000
,
0001
0000
0000
0000
,
0100
0000
0010
0000
,
1000
0000
0000
0000
,
1000
0000
0000
0000
,
0001
0000
0000
0000
,
0020
0030
0000
0000
;

//---------------dance-single - ----------------
#NOTES:
     dance-single:
     :
     Easy:
     5:
     0.256,0.262,0.095,0.152,0.000:
0000
0000
0000
0000
,
0000
0000
0000
0000
,
0000
0000
0000
0000
,
0000
0000
0000
0000
,
1000
0001
0100
0000
,
0100
0001
1000
0000
,
1000
0001
0100
0000
,
0002
0000
0000
0000
2000
0000
0000
3003
0000
0000
0000
0000
0000
0000
0000
0000
,
1001
1000
0100
0000
,
0010
0001
0001
0000
,
1001
0001
0100
0000
,
0100
0010
1000
0001
,
1001
1000
0100
0000
,
0010
0001
1000
0000
,
1001
0001
0100
0000
,
0010
1000
0100
0010
,
1001
0001
0100
0010
,
0100
0001
1000
1000
,
0100
0001
1000
0001
,
0100
1000
0010
1000
,
0100
0010
0001
0100
,
0010
1000
0001
1000
,
0100
0010
0001
1000
,
0010
0000
0000
0100
0000
0000
0001
0000
,
1000
1000
0010
0010
,
0100
0001
1000
0000
,
0001
1000
0200
0300
,
1000
0001
0200
0300
,
0001
0001
0010
0010
,
0100
1000
0000
0000
,
1000
0100
0000
0010
0000
0100
0000
0002
,
0000
0000
0100
0103
,
0000
1000
0002
0003
,
0000
0100
0020
0030
,
1000
0100
0001
0100
,
2000
0000
0000
0002
0000
0000
3003
0000
,
0001
0100
2000
3000
,
1000
0100
0002
0003
,
1000
0100
0010
0001
,
2000
0000
0000
0200
0000
0000
3300
0000
,
1100
1000
0001
0000
,
0010
0001
1000
0000
,
1001
0001
0100
0000
,
0010
1000
0001
0100
,
0101
0001
1000
0000
,
1010
1000
0001
0000
,
0101
0001
1000
0000
,
0100
0010
0001
1000
,
0010
0010
0100
0000
,
0001
0001
0010
0000
,
0100
0100
0010
0000
,
0001
0001
0100
0000
,
0020
1030
0100
0000
,
0200
1300
0010
0000
,
0100
0000
0001
0000
,
2000
3000
0000
0000
;
