#TITLE:One & Only (고원);
#SUBTITLE:;
#ARTIST:이달의 소녀;
#TITLETRANSLIT:One & Only (Go Won);
#SUBTITLETRANSLIT:;
#ARTISTTRANSLIT:LOOΠΔ;
#GENRE:;
#CREDIT:;
#BANNER:One & Only.png;
#BACKGROUND:One & Only-bg.png;
#LYRICSPATH:;
#CDTITLE:;
#MUSIC:One & Only.ogg;
#OFFSET:1.827000;
#SAMPLESTART:34.984997;
#SAMPLELENGTH:12.000000;
#LASTBEATHINT:1.516167;
#SELECTABLE:YES;
#DISPLAYBPM:110.000000;
#BPMS:0.000000=110.000000
;
#STOPS:
;
#BGCHANGES:0.500=One & Only.mp4=1.000=1=0=1===CrossFade==,
99999=-nosongbg-=1.000=0=0=0 // don't automatically add -songbackground-
;
#KEYSOUNDS:;
#ATTACKS:;

//---------------dance-single - ----------------
#NOTES:
     dance-single:
     :
     Hard:
     11:
     0.432945,0.518865,0.408622,0.289441,0.093643,356.000000,308.000000,48.000000,34.000000,0.000000,0.000000,0.432945,0.518865,0.408622,0.289441,0.093643,356.000000,308.000000,48.000000,34.000000,0.000000,0.000000:
0000
0000
0000
0000
,
0000
0000
0000
0000
,
0000
0000
0000
0000
,
0000
0000
0000
0000
,
2000
3200
0320
0032
,
1003
0010
1000
0100
0010
0100
0100
0000
,
0010
0001
0100
0000
0010
1000
0100
0000
,
1000
0010
0100
0001
0010
0100
1000
0010
,
0200
0010
0320
0100
,
0130
0010
1000
0100
1000
0010
0010
0000
,
0100
0001
0010
0000
0100
1000
0010
0010
,
0100
0001
0010
0100
1000
0010
0100
0001
,
2000
3001
0002
1003
,
0001
0001
1000
1000
0010
0010
0100
0010
,
1000
1000
0001
0001
0100
0100
0010
1000
,
0001
0001
0010
0010
0100
0100
1000
0100
,
0010
0010
0001
0001
2000
0000
3002
0013
,
0100
1000
1100
0000
0001
0100
0101
0000
,
0100
0000
0010
0000
1010
0000
1000
0000
0001
0000
0010
0000
0000
0011
0000
0000
,
0001
0100
0010
1000
1001
0110
1001
0000
,
1000
0100
0010
0100
0110
1001
0110
1000
,
0010
0100
0101
0000
0001
1000
1100
0000
,
1000
0000
0001
0000
0011
0000
0010
0000
0100
0000
1000
0000
0000
1100
0000
0000
,
1000
1000
0001
0001
1010
0101
0011
0000
,
0001
0001
1000
1000
1100
0011
0101
0000
,
2000
0000
0000
3020
0000
0000
0230
0000
0000
0000
0001
0000
0000
0301
0000
0000
,
0002
0000
0000
0023
0000
0000
0230
0000
0000
0000
1000
0000
0000
1300
0000
0000
,
2000
0000
0000
3200
0000
0000
0320
0000
0000
0000
0031
0000
0000
0001
0000
0000
,
0002
0203
0320
2030
,
3100
0010
0001
0100
1000
0100
0001
1000
,
0000
0001
0010
0100
0000
0010
0100
1000
,
0001
0100
0010
0100
0001
0000
1000
0100
,
0010
0001
0010
0100
1000
0010
0100
0001
,
0100
0010
1000
0000
0001
0010
0100
0010
,
0001
1000
0001
0100
0010
1000
0010
0100
,
0010
1000
0100
0001
0100
1000
0010
0010
,
1000
1000
0001
1000
0001
0000
1001
0000
,
0001
0100
0110
0000
1000
0100
0110
0000
,
0001
0000
0010
0000
0110
0000
1000
0000
0010
0000
0100
0000
0000
0110
0000
0000
,
0001
0001
1000
1000
1010
1100
1001
0000
,
1000
1000
0001
0001
0101
0011
1001
1000
,
0010
1000
1001
0000
0010
0001
1001
0000
,
0010
0000
1000
0000
1001
0000
0001
0000
0100
0000
0001
0000
0000
1001
0000
0000
,
1000
1000
0100
0100
0110
1001
0110
0000
,
0001
0001
0100
0100
0110
1001
0110
0000
,
0021
0000
0000
0001
0000
0000
1000
0000
0000
0000
0100
0000
0000
0100
0030
0000
,
1200
0000
0000
1000
0000
0000
0001
0000
0000
0000
0010
0000
0000
0010
0300
0000
,
0021
0000
0000
0100
0000
0000
0001
0000
0000
0000
1000
0000
0000
1000
0000
0000
,
0230
2300
3020
0130
,
1020
0000
0000
1000
0000
0000
0001
0000
0000
0000
0100
0000
0000
0100
0030
0000
,
0201
0000
0000
0001
0000
0000
1000
0000
0000
0000
0010
0000
0000
0310
0000
0000
,
1020
0000
0000
0100
0000
0000
1000
0000
0000
0000
0001
0000
0000
0031
0000
0000
,
2002
0000
0000
0000
,
3003
0000
0000
0000
;

//---------------dance-single - ----------------
#NOTES:
     dance-single:
     :
     Medium:
     9:
     0.279711,0.315831,0.025539,0.136207,0.000000,230.000000,227.000000,3.000000,16.000000,0.000000,0.000000,0.279711,0.315831,0.025539,0.136207,0.000000,230.000000,227.000000,3.000000,16.000000,0.000000,0.000000:
0000
0000
0000
0000
,
0000
0000
0000
0000
,
0000
0000
0000
0000
,
0000
0000
0000
0000
,
2002
0000
0000
3003
,
0001
0000
0001
0000
0100
0010
0100
0000
,
0001
0010
0001
0000
1000
0010
1000
0000
,
0100
0000
0100
0000
1000
0001
1000
0001
,
0200
0000
0300
0000
,
1000
0000
1000
0000
0010
0100
0010
0000
,
1000
0100
1000
0000
0001
0100
0001
0001
,
0010
0000
0010
0000
0001
1000
0001
1000
,
0020
0000
0030
0000
,
1000
0000
1000
0000
0100
0010
0001
0010
,
0001
0000
0001
0000
0100
0001
1000
0100
,
0010
0000
0010
0000
0001
0100
0010
1000
,
0100
0100
2000
3002
,
0103
0010
1000
0100
,
0100
0010
0001
1000
,
0001
0100
0001
0000
1000
0100
1000
0000
,
0001
0100
0010
1000
0100
0010
0001
0000
,
0010
0100
0010
0010
,
0001
0100
0010
1000
,
0001
0010
0001
0000
1000
0010
1000
0000
,
0001
0010
0100
1000
0010
0100
0001
0000
,
1000
0001
1000
1000
,
0001
1000
0001
0001
,
1000
1000
0001
0001
,
2000
3002
2003
3002
,
0103
0100
0010
0010
,
1000
0100
0010
0001
,
1000
1000
0001
0001
,
0100
0010
1000
0001
,
0010
0100
1000
0100
,
0010
0001
0100
0010
,
1000
0000
0010
0000
0100
0000
0001
1000
,
0001
0000
1000
0001
1000
0000
1001
0000
,
1000
0001
1000
0000
0001
0000
0100
0000
,
0100
0000
0001
0000
0010
0001
0010
0000
,
0001
0100
0001
0000
0100
0010
0100
0000
,
0010
1000
0010
1000
0100
0010
0010
0000
,
0001
1000
0001
0000
1000
0000
0010
0000
,
0010
0000
1000
0000
0100
1000
0100
0000
,
1000
0010
1000
0000
0010
0100
0010
0000
,
0100
0001
0100
0001
0010
0100
0100
0000
,
1000
0001
1000
1000
,
0001
1000
0001
0001
,
1000
1000
0001
0001
,
2000
3002
2003
3002
,
0103
0010
0100
0100
,
0010
0100
0010
0010
,
0100
0100
0010
0010
,
0220
0000
0000
0000
,
0330
0000
0000
0000
;

//---------------dance-single - ----------------
#NOTES:
     dance-single:
     :
     Challenge:
     15:
     0.640904,0.699339,0.655498,0.238363,0.455443,527.000000,450.000000,77.000000,28.000000,0.000000,0.000000,0.640904,0.699339,0.655498,0.238363,0.455443,527.000000,450.000000,77.000000,28.000000,0.000000,0.000000:
0000
0000
0000
0000
,
0000
0000
0000
0000
,
0000
0000
0000
0000
,
0000
0000
0000
0000
,
2002
0000
0000
0000
0000
0000
0000
0000
0000
0000
0000
0000
3000
0000
1003
0100
,
0010
0000
0001
0000
0010
0000
0100
0000
0010
0000
0001
0010
0001
0000
0100
0010
,
0100
0001
0100
0010
0100
0000
0001
0010
0100
1000
0000
1000
0001
0000
0100
0000
,
0001
0001
1000
1000
0001
0100
1000
0010
,
0002
0000
0000
0000
0010
0000
0100
0000
2003
0000
0100
0000
0100
0000
3001
0100
,
0010
0000
1000
0000
0100
0000
0010
0000
0100
0000
1000
0100
1000
0000
0010
0100
,
0010
0100
0001
0010
0100
0000
1000
0100
0020
0000
0032
0000
0203
0000
0320
0000
,
1030
1000
0001
0001
1000
0010
0001
0100
,
2000
0000
0010
0100
3002
0100
0100
0000
,
1003
0100
1000
0100
0010
0100
0010
0100
1000
0000
0100
0010
0002
0000
0203
0000
,
0301
0100
0001
0100
0010
0100
0010
0100
0001
1000
0100
0010
0002
0000
2003
0000
,
3010
1000
0010
1000
0010
0100
0010
0100
0010
0000
0100
0001
2000
0000
3200
0000
,
0310
0001
0010
0001
0010
0100
0010
0100
0020
0000
0000
0000
0230
0000
1300
0000
,
0100
0000
0010
0000
0011
0000
0001
0000
0100
0010
0000
0010
0000
1000
0001
0000
,
1000
0000
0100
0000
0010
0000
0100
0000
1000
0000
0010
0000
0100
0001
0000
0000
,
0101
0101
0011
0011
0101
0011
0101
0000
,
1010
1010
1100
1100
1010
1100
1010
0010
,
1000
0100
0010
0100
1000
0001
0001
0100
,
0010
0000
0100
0000
0001
0000
1000
0000
1000
0000
0100
0000
0010
0001
0000
0000
,
0011
0011
1001
1001
1010
1001
0011
0000
,
1100
1100
1001
1001
0101
1001
1100
0000
,
0001
0010
0001
0010
0001
0100
0001
0100
0001
0010
0100
0000
0100
1000
0000
1000
,
0010
1000
0010
1000
0010
0100
0010
0100
0010
1000
0010
0000
0100
0001
0000
0001
,
0010
0100
0010
0100
0010
0001
0010
0001
0010
0100
1000
0000
0001
0100
0000
0100
,
0020
2030
3002
0023
,
0130
0010
0011
0001
0100
0010
1010
1000
,
0010
0100
0101
0001
0010
0011
1100
1000
,
0010
0100
0101
0001
0010
0100
1000
1000
,
0100
0100
0010
0010
0001
0001
1001
0001
,
0010
0100
0110
0010
0001
1000
1001
1000
,
0100
0010
0110
0010
0100
1000
1001
0001
,
0100
0010
0110
0100
0010
1000
1100
0100
,
0110
0010
0011
0001
1001
0000
0110
0001
,
0100
0000
0010
0000
1010
0000
1000
0000
0100
0010
0000
0010
0000
0001
1000
0000
,
0001
0000
0100
0000
0010
0000
0100
0000
0001
0000
0010
0000
0100
1000
0000
0000
,
1100
1100
1010
1010
1100
0011
0101
0000
,
0101
0101
0011
0011
0101
1010
1100
1000
,
0001
0100
0010
0100
0001
1000
1000
0100
,
0010
0000
0100
0000
1000
0000
0001
0000
0001
0000
0100
0000
0010
1000
0000
0000
,
1010
1010
1001
1001
0011
1001
1010
0000
,
0101
0101
1001
1001
1100
1001
0101
0000
,
1000
0100
1000
0100
1000
0010
1000
0010
1000
0100
0010
0000
0010
0001
0000
0001
,
0100
0001
0100
0001
0100
0010
0100
0010
0100
0001
0100
0000
0010
1000
0000
1000
,
0100
0010
0100
0010
0100
1000
0100
1000
0100
0010
0001
0000
1000
0010
0000
0010
,
0200
0302
2003
3200
,
0310
0001
0100
0001
0010
0001
0100
0001
0010
0001
0010
0000
0100
1000
0000
0010
,
1000
0100
1000
0010
1000
0100
1000
0010
1000
0100
1000
0000
0100
0010
0000
0001
,
0100
0010
1000
0001
0100
0010
1000
0100
0010
0001
1000
0100
0010
0001
1000
0000
,
2002
0000
0000
0000
,
3003
0000
0000
0000
;

//---------------dance-single - ----------------
#NOTES:
     dance-single:
     :
     Easy:
     5:
     0.205527,0.225593,0.008513,0.127694,0.000000,169.000000,168.000000,1.000000,15.000000,0.000000,0.000000,0.205527,0.225593,0.008513,0.127694,0.000000,169.000000,168.000000,1.000000,15.000000,0.000000,0.000000:
0000
0000
0000
0000
,
0000
0000
0000
0000
,
0000
0000
0000
0000
,
0000
0000
0000
0000
,
2000
0000
0000
0000
,
3100
0100
0010
0010
,
0001
0100
0010
1000
,
0100
1000
0010
0100
,
0002
0000
0000
0003
,
1000
1000
0001
0001
,
0100
0010
1000
0001
,
0010
0100
1000
0001
,
2000
0000
0000
3000
,
0001
0001
0001
0000
,
1000
1000
1000
0000
,
0010
0010
0100
0000
,
0100
0100
0020
0030
,
1000
0100
0010
0001
,
0001
0010
0100
1000
,
0010
0010
0100
0100
,
0001
1000
0001
1000
,
0010
0100
0001
1000
,
1000
0001
0100
0010
,
1000
1000
0001
0001
,
0100
0010
0100
0010
,
1000
1000
2000
3000
,
0001
0001
0002
0003
,
0100
0100
0200
0300
,
0010
0010
0020
0030
,
1000
0100
0010
0000
,
0010
0100
1000
0000
,
0001
0100
0010
0000
,
0010
0100
0001
0000
,
1000
0100
0010
0001
,
0001
0100
0010
1000
,
1000
0010
0100
0001
,
0001
0010
0100
2000
,
3001
0100
0010
1000
,
1000
0010
0100
0001
,
0010
0010
0100
0100
,
1000
0001
1000
0001
,
0010
0100
1000
0001
,
0001
1000
0100
0010
,
0001
0001
1000
1000
,
0100
0010
0100
0010
,
0001
0001
0002
0003
,
1000
1000
2000
3000
,
0100
0100
0200
0300
,
0010
0010
0020
0030
,
0001
0001
0001
0001
,
1000
1000
1000
1000
,
0100
0100
0010
0010
,
2002
0000
0000
0000
,
3003
0000
0000
0000
;

//---------------dance-single - ----------------
#NOTES:
     dance-single:
     :
     Beginner:
     3:
     0.097291,0.157915,0.008513,0.119181,0.000000,80.000000,79.000000,1.000000,14.000000,0.000000,0.000000,0.097291,0.157915,0.008513,0.119181,0.000000,80.000000,79.000000,1.000000,14.000000,0.000000,0.000000:
// measure 0
0000
0000
0000
0000
,  // measure 1
0000
0000
0000
0000
,  // measure 2
0000
0000
0000
0000
,  // measure 3
0000
0000
0000
0000
,  // measure 4
0000
0000
0000
0000
,  // measure 5
1000
0000
1000
0000
,  // measure 6
0010
0000
0000
0000
,  // measure 7
0001
0000
0001
0000
,  // measure 8
0100
0000
0000
0000
,  // measure 9
0010
0000
0010
0000
,  // measure 10
1000
0000
1000
0000
,  // measure 11
0001
0000
0001
0000
,  // measure 12
0100
0000
0000
0000
,  // measure 13
0002
0000
0000
0003
,  // measure 14
2000
0000
0000
3000
,  // measure 15
0002
0000
0000
0003
,  // measure 16
0020
0000
0000
0030
,  // measure 17
0100
0000
0100
0000
,  // measure 18
0100
0000
0000
0000
,  // measure 19
0010
0010
0010
0000
,  // measure 20
0010
0010
0010
0000
,  // measure 21
0001
0000
0001
0000
,  // measure 22
1000
0000
1000
0000
,  // measure 23
0100
0100
0100
0000
,  // measure 24
0100
0100
0100
0000
,  // measure 25
2000
0000
0000
3000
,  // measure 26
0002
0000
0000
0003
,  // measure 27
2000
0000
0000
3000
,  // measure 28
0020
0000
0000
0030
,  // measure 29
0100
0000
0000
0000
,  // measure 30
0100
0000
0000
0000
,  // measure 31
0001
0000
0000
0000
,  // measure 32
1000
0000
0000
0000
,  // measure 33
0010
0000
0000
0000
,  // measure 34
0010
0000
0000
0000
,  // measure 35
0100
0000
0000
0000
,  // measure 36
0100
0000
0100
0000
,  // measure 37
0010
0000
0010
0000
,  // measure 38
0010
0000
0000
0000
,  // measure 39
0100
0100
0100
0000
,  // measure 40
0100
0100
0100
0000
,  // measure 41
1000
0000
1000
0000
,  // measure 42
0001
0000
0001
0000
,  // measure 43
0010
0010
0010
0000
,  // measure 44
0010
0010
0010
0000
,  // measure 45
0002
0000
0000
0003
,  // measure 46
2000
0000
0000
3000
,  // measure 47
0002
0000
0000
0003
,  // measure 48
0200
0000
0000
0300
,  // measure 49
0010
0000
0010
0000
,  // measure 50
1000
0000
1000
0000
,  // measure 51
0001
0000
0001
0000
,  // measure 52
2002
0000
0000
0000
,  // measure 53
3003
0000
0000
0000
;
