#TITLE:On Fire;
#SUBTITLE:;
#ARTIST:THE ROOP;
#TITLETRANSLIT:;
#SUBTITLETRANSLIT:;
#ARTISTTRANSLIT:;
#GENRE:Indie Pop;
#CREDIT:;
#BANNER:On Fire-bn.png;
#BACKGROUND:On Fire-bg.png;
#LYRICSPATH:;
#CDTITLE:cdtitle.png;
#MUSIC:On Fire.ogg;
#OFFSET:-0.119000;
#SAMPLESTART:70.939003;
#SAMPLELENGTH:16.721001;
#SELECTABLE:YES;
#BPMS:0.000000=122.000000
;
#STOPS:
;
#BGCHANGES:
;
#KEYSOUNDS:;
#ATTACKS:;

//---------------dance-single - ----------------
#NOTES:
     dance-single:
     :
     Hard:
     11:
     0.487126,0.526273,0.115032,0.238281,0.197198,415.000000,401.000000,14.000000,29.000000,0.000000,0.000000,0.487126,0.526273,0.115032,0.238281,0.197198,415.000000,401.000000,14.000000,29.000000,0.000000,0.000000:
// measure 0
0000
0000
0000
0000
,  // measure 1
0000
0000
0000
0000
,  // measure 2
0000
0000
0000
0000
,  // measure 3
0000
0000
0000
0000
,  // measure 4
0000
0000
0000
0000
,  // measure 5
0000
0000
0000
0000
,  // measure 6
0000
0000
0000
0000
,  // measure 7
0000
0000
0000
0000
,  // measure 8
1000
1100
0000
0101
,  // measure 9
0001
0010
1000
0010
0002
0000
2003
0000
,  // measure 10
3200
0320
0030
1001
,  // measure 11
1000
0000
1100
1000
0100
0001
0100
0010
,  // measure 12
0001
1001
0000
1100
,  // measure 13
1000
0010
0001
0010
2000
0000
3002
0000
,  // measure 14
0203
0320
0030
0110
,  // measure 15
1000
0100
0010
0001
,  // measure 16
1000
0010
0100
0001
1000
0010
0100
0001
,  // measure 17
1000
0100
0010
0001
1000
0100
0010
0001
,  // measure 18
1000
0100
0001
0100
0010
0001
1000
0001
,  // measure 19
0100
0001
1000
0100
0010
0001
0011
0000
,  // measure 20
1001
0000
1000
0000
0010
0000
1000
0000
0001
0000
0010
0000
0100
0000
1000
0200
,  // measure 21
0000
0300
0010
0000
0100
0000
1000
0000
0001
0000
0100
0000
0020
0000
0000
0000
,  // measure 22
2030
0000
0000
0000
3100
0000
1000
0000
0001
1000
0001
1000
0001
0000
0010
0000
,  // measure 23
1000
0010
0100
1000
0000
0001
0100
0001
,  // measure 24
1000
0000
0100
0000
0010
0000
0001
0000
1000
0000
0001
1000
0001
0000
0010
0200
,  // measure 25
0000
0300
0010
0000
0001
0000
1000
0000
0001
0000
0010
0000
0001
2000
0000
3000
,  // measure 26
0100
0000
0010
0100
0000
0000
0010
0001
1000
0001
0010
0001
1000
0000
0100
0000
,  // measure 27
0001
0100
1000
0001
0010
0100
1000
0000
,  // measure 28
1001
0000
1000
0000
0001
0000
1000
0000
0010
0100
0010
0100
0010
0000
1000
0000
,  // measure 29
0001
0100
0001
1000
0010
0100
0010
0000
,  // measure 30
1000
0000
0001
0000
0100
0000
0001
0000
1000
0100
1000
0100
1000
0000
0100
0000
,  // measure 31
0001
0100
1000
0001
0010
0100
0010
0010
,  // measure 32
0001
0000
1000
0000
0001
0000
0100
0000
0010
0100
0010
0100
0010
0000
1000
0000
,  // measure 33
0001
0010
1000
0010
0001
1000
0100
0000
,  // measure 34
0010
0000
0100
0000
1000
0000
0001
0000
1000
0001
1000
0001
1000
0000
0100
0000
,  // measure 35
2020
0000
3030
0000
0002
0000
0000
0000
0000
0000
0100
0000
0000
0100
0000
0003
,  // measure 36
0101
0100
1000
0100
0001
0100
1000
0100
,  // measure 37
0001
0010
1000
0010
0001
0010
1000
0010
,  // measure 38
0001
1000
0010
0100
0001
0010
0200
0000
,  // measure 39
1300
0100
0010
0001
1000
0010
0200
0000
,  // measure 40
0301
0000
0100
0000
0001
0000
1000
0000
0001
0100
0010
0100
0001
0000
0100
0000
,  // measure 41
0010
1000
0010
0100
0001
0010
1000
0010
,  // measure 42
0100
0000
1000
0000
0001
0000
0100
0000
0001
1000
0010
0100
0020
0000
0000
0000
,  // measure 43
1030
0000
0010
0000
0001
0000
0010
0000
0100
0000
0010
0000
2000
0001
0000
0000
,  // measure 44
3001
0000
0000
1000
0001
0000
0010
0000
1000
0000
0010
0000
0001
0000
0000
0000
,  // measure 45
0100
0000
0000
0010
0100
0000
0001
0000
1000
0000
0010
0000
0100
0010
0000
0000
,  // measure 46
1000
0000
0000
0100
1000
0000
0001
0000
0010
0001
1000
0001
0010
0000
0000
0000
,  // measure 47
0100
0000
0000
0010
0100
0000
1000
0000
0001
0000
1000
0000
0100
1000
0000
0000
,  // measure 48
0002
0000
0000
0103
0001
0000
1000
0000
0010
1000
0001
1000
0010
0000
0100
0000
,  // measure 49
0001
0000
0000
0010
0100
0000
0010
0000
0001
0000
1000
0000
0100
1000
0000
0000
,  // measure 50
0001
0000
0000
0100
0010
0000
0100
0000
0001
0010
0100
0010
0001
0000
1000
0000
,  // measure 51
0010
0000
0000
0100
0010
0000
0100
0000
0000
0001
1000
0001
4000
0400
0000
3300
,  // measure 52
1100
0100
0001
0100
1000
0100
0001
0100
,  // measure 53
1000
0010
0001
0010
1000
0010
0001
0010
,  // measure 54
1000
0100
0010
0001
0100
0010
2000
0000
,  // measure 55
3001
1000
0010
0100
0001
0010
0200
0000
,  // measure 56
1300
0000
0100
0000
0001
0000
0100
0000
1000
0001
0010
0001
1000
0000
0100
0000
,  // measure 57
0001
0100
0010
0001
1000
0001
0010
0100
,  // measure 58
1000
0000
0010
0000
0100
0000
0001
0000
1000
0001
1000
0010
0200
0000
0000
0000
,  // measure 59
0310
0100
1000
0100
0001
0010
0100
1000
,  // measure 60
0020
0000
0000
0030
2200
0000
0300
0000
0200
0000
3300
0000
0200
0000
0000
0000
,  // measure 61
0300
0000
0000
0000
;

//---------------dance-single - ----------------
#NOTES:
     dance-single:
     :
     Medium:
     10:
     0.372094,0.426030,0.065733,0.435479,0.049300,317.000000,309.000000,8.000000,53.000000,0.000000,0.000000,0.372094,0.426030,0.065733,0.435479,0.049300,317.000000,309.000000,8.000000,53.000000,0.000000,0.000000:
0000
0000
0000
0000
,
0000
0000
0000
0000
,
0000
0000
0000
0000
,
0000
0000
0000
0000
,
0000
0000
0000
0000
,
0000
0000
0000
0000
,
0000
0000
0000
0000
,
0000
0000
0000
0000
,
0002
1000
0000
1000
,
2003
0100
0000
0100
,
3200
0010
0000
0010
,
0320
0001
0000
0001
,
0032
0100
0000
0100
,
0203
0010
0000
0010
,
0320
1000
0000
1000
,
0030
1000
0100
0010
,
0000
0001
1000
0001
0000
0010
0100
0010
,
0000
0001
1000
0001
0000
0010
0100
0010
,
0000
0001
1000
0001
0000
0100
0010
0100
,
0000
0001
1000
0001
0000
0100
0010
0000
,
0110
0000
0000
0000
0100
0000
0001
0000
1000
0000
0001
0000
0100
0000
0001
0020
,
0000
0130
0010
0001
1000
0010
0200
0000
,
0310
0100
0001
0000
1000
0100
0010
0000
,
0001
1000
0100
1000
0000
0001
0010
0001
,
0010
0000
0100
0000
1000
0000
0001
0000
2000
0000
0000
0000
3100
1000
0000
0002
,
0000
0000
0003
0000
0010
0000
0001
0000
1000
0000
0100
0000
1000
0001
0000
0000
,
0020
0100
0000
0130
,
0010
0001
0010
0001
0100
1000
0100
0001
,
0201
0000
0000
0000
0320
0000
0000
0000
1030
0010
1000
0010
1000
0000
0000
0000
,
0001
0010
1000
0100
0002
0000
0023
0000
,
0230
0000
0000
0000
2300
0000
0000
0000
3001
1000
0001
1000
0001
0000
0000
0000
,
0100
0010
1000
0000
0001
0100
0010
0010
,
2000
0000
0000
0000
3002
0000
0000
0000
0013
0001
0010
0001
0010
0000
0000
0000
,
0001
0100
1000
0010
0002
0000
2003
0000
,
3020
0000
0000
0000
0230
0000
0000
0000
0310
0100
0010
0100
0010
0000
0000
0000
,
1001
0000
2000
0000
0000
0000
0100
0100
,
3100
1000
0001
0000
0010
0100
1000
0000
,
0100
0010
0001
0000
1000
0001
0200
0000
,
0320
0000
0001
0000
0130
0010
2000
0000
,
3001
1000
0200
0000
0320
0000
0230
0000
,
1300
0100
0010
0001
1000
0100
0010
0001
,
1000
0010
0100
0001
1000
0010
0100
0001
,
1000
0001
0010
1000
0010
0001
2000
0000
,
3010
1000
0001
1000
0010
1000
0002
0000
,
0013
0000
1001
0001
0000
1000
1010
0000
,
0010
0100
1000
0100
0002
0000
0023
0000
,
0230
0000
2300
0000
3001
1000
1001
0000
,
1000
0000
1100
0100
0000
0100
1010
0000
,
1000
0100
0010
0001
1000
0100
0010
0001
,
1000
0010
0100
0001
2000
0000
3020
0000
,
0230
0000
0302
0000
0013
0100
0010
0001
,
1000
0100
1000
0001
0000
0001
0200
0000
,
0310
0100
1000
0100
0001
0100
0010
0100
,
0001
0010
1000
0010
0001
0010
1000
0010
,
0002
0000
2003
0000
3100
1000
0002
0000
,
1003
0001
2000
0000
3020
0000
0230
0000
,
0301
0100
0010
1000
0001
0100
0010
1000
,
0001
0010
0100
1000
0001
0010
0100
1000
,
0001
0100
1000
0100
0001
0010
0200
0000
,
1300
0100
0001
0100
1000
0010
0200
0000
,
0301
2000
3200
2300
,
3000
0000
0000
0000
;

//---------------dance-single - ----------------
#NOTES:
     dance-single:
     :
     Easy:
     6:
     0.239455,0.298878,0.032866,0.032866,0.000000,204.000000,200.000000,4.000000,4.000000,0.000000,0.000000,0.239455,0.298878,0.032866,0.032866,0.000000,204.000000,200.000000,4.000000,4.000000,0.000000,0.000000:
0000
0000
0000
0000
,
0000
0000
0000
0000
,
0000
0000
0000
0000
,
0000
0000
0000
0000
,
0000
0000
0000
0000
,
0000
0000
0000
0000
,
0000
0000
0000
0000
,
0000
0000
0000
0000
,
1000
0000
0000
0000
,
0100
0000
0000
0000
,
0010
0000
0000
0000
,
0001
0000
0000
0000
,
1000
0000
0000
0000
,
0100
0000
0000
0000
,
0010
0000
0000
0000
,
0001
0000
0000
0000
,
0001
0010
0100
1000
,
0001
0010
0100
1000
,
0001
0100
0010
1000
,
0001
0100
0010
1000
,
1010
1000
0000
0001
0000
1000
0000
0001
,
0010
0100
0000
0010
0000
0100
0000
0010
,
0001
1000
0000
0010
0000
1000
0000
0010
,
0100
0001
0000
1000
0000
0001
0000
1000
,
0100
0010
0000
0001
0000
0010
0000
0001
,
1000
0010
0000
0100
0000
0010
0000
0100
,
0001
1000
0000
0100
0000
1000
0000
0100
,
0010
0001
0000
1000
0000
0001
1000
0000
,
1001
1000
0010
0100
,
0010
1000
0010
0100
,
0010
1000
0001
0010
,
0001
0100
0001
1000
,
0001
0010
0100
1000
,
0001
0010
0100
1000
,
0010
0100
0001
1000
,
1001
2000
0000
0000
,
3100
1000
0100
0010
,
0100
1000
0100
0010
,
0001
1000
0001
0010
,
0001
1000
0001
0010
,
0100
1000
0001
1000
,
0100
1000
0001
1000
,
0100
0010
0100
1000
,
0100
0010
0100
1000
,
1100
0000
0100
1000
0000
0001
1000
0000
,
0100
0000
0010
0100
0000
0010
0001
0000
,
1000
0000
0010
0100
0000
0010
1000
0000
,
0100
0000
0010
0001
0000
1000
0001
0000
,
0010
0000
0100
1000
0000
0001
0100
0000
,
0010
0000
1000
0100
0000
0010
0001
0000
,
1000
0000
0001
0100
0000
0010
1000
0000
,
0001
0000
0010
0100
0010
0000
0020
0000
,
0031
0010
0100
0010
,
0001
0010
0100
0010
,
0001
1000
0100
1000
,
0001
1000
0100
1000
,
0001
0100
0010
0100
,
0001
0100
0010
0100
,
0001
1000
0010
1000
,
0001
1000
0010
1000
,
0002
0000
0023
0000
0000
0030
0000
0000
;

//---------------dance-single - ----------------
#NOTES:
     dance-single:
     :
     Beginner:
     1:
     0.107989,0.147899,0.008217,0.000000,0.000000,92.000000,91.000000,1.000000,0.000000,0.000000,0.000000,0.107989,0.147899,0.008217,0.000000,0.000000,92.000000,91.000000,1.000000,0.000000,0.000000,0.000000:
0000
0000
0000
0000
,
0000
0000
0000
0000
,
0000
0000
0000
0000
,
0000
0000
0000
0000
,
0000
0000
0000
0000
,
0000
0000
0000
0000
,
0000
0000
0000
0000
,
0000
0000
0000
0000
,
1000
0000
0000
0000
,
0100
0000
0000
0000
,
1000
0000
0000
0000
,
0100
0000
0000
0000
,
0010
0000
0000
0000
,
0001
0000
0000
0000
,
0010
0000
0000
0000
,
0001
0000
0000
0000
,
1000
0000
0000
0000
,
0001
0000
0000
0000
,
1000
0000
0000
0000
,
0001
0000
0000
0000
,
0001
0000
1000
0000
,
0001
0000
1000
0000
,
0100
0000
0010
0000
,
0100
0000
0010
0000
,
0001
0000
0010
0000
,
0001
0000
1000
0000
,
0000
0001
0000
0001
,
0000
1000
0000
1000
,
1001
0000
0001
0000
,
0010
0000
0100
0000
,
1000
0000
0001
0000
,
1000
0000
0100
0000
,
0010
0000
0001
0000
,
1000
0000
0001
0000
,
0010
0000
0100
0000
,
1000
0000
0000
0000
,
0001
0000
0010
0000
,
0001
0000
0010
0000
,
0100
0000
0010
0000
,
0100
0000
0010
0000
,
0001
0000
1000
0000
,
0001
0000
1000
0000
,
0010
0000
0100
0000
,
0010
0000
0100
0000
,
0000
0001
0000
0001
,
0000
1000
0000
1000
,
0000
0100
0000
0100
,
0000
0010
0000
0010
,
0000
0001
0000
0001
,
0000
0100
0000
0100
,
0000
0010
0000
0010
,
0000
1000
0000
0000
,
1000
0000
0100
0000
,
0010
0000
0001
0000
,
1000
0000
0100
0000
,
0010
0000
0001
0000
,
1000
0000
0010
0000
,
0100
0000
0001
0000
,
1000
0000
0010
0000
,
0100
0000
0001
0000
,
0001
0000
0000
0000
;
