#TITLE:Ohayo!;
#SUBTITLE:;
#ARTIST:KSUKE;
#TITLETRANSLIT:;
#SUBTITLETRANSLIT:;
#ARTISTTRANSLIT:;
#GENRE:;
#CREDIT:;
#BANNER:Ohayo!.png;
#BACKGROUND:Ohayo!-bg.png;
#LYRICSPATH:;
#CDTITLE:;
#MUSIC:Ohayo!.ogg;
#OFFSET:-0.038000;
#SAMPLESTART:40.015766;
#SAMPLELENGTH:15.000000;
#SELECTABLE:YES;
#DISPLAYBPM:150.000000;
#BPMS:0.000000=150.000000
;
#STOPS:
;
#BGCHANGES:;
#KEYSOUNDS:;
#ATTACKS:;

//---------------dance-single - ----------------
#NOTES:
     dance-single:
     :
     Challenge:
     15:
     0.594201,0.780094,0.476770,0.287706,0.394568,506.000000,448.000000,58.000000,35.000000,0.000000,0.000000,0.594201,0.780094,0.476770,0.287706,0.394568,506.000000,448.000000,58.000000,35.000000,0.000000,0.000000:
// measure 0
0000
0000
0000
0000
,  // measure 1
0000
0000
0000
0000
,  // measure 2
0000
0000
0000
0000
,  // measure 3
0000
0000
0000
0000
,  // measure 4
0000
0000
0000
0000
,  // measure 5
0000
0000
0000
0000
,  // measure 6
0000
0000
0000
0000
,  // measure 7
0000
0000
0000
0000
,  // measure 8
0000
0000
0000
0000
,  // measure 9
1000
0000
0000
0000
1100
0000
0000
0000
0100
0000
0000
0100
0000
0000
0100
0000
,  // measure 10
0010
0000
0000
0000
0011
0000
0000
0000
0001
0000
0000
0001
0000
0000
0001
0000
,  // measure 11
0100
0000
0000
0000
0110
0000
0000
0000
0010
0000
0000
0010
0000
0000
0010
0000
,  // measure 12
1000
0000
1010
0000
1000
0000
0001
1000
,  // measure 13
0001
0000
0000
0000
0011
0000
0000
0000
0010
0000
0000
0010
0000
0000
0010
0000
,  // measure 14
0100
0000
0000
0000
1100
0000
0000
0000
1000
0000
0000
1000
0000
0000
1000
0000
,  // measure 15
0010
0000
0000
0000
0110
0000
0000
0000
0100
0000
0000
0100
0000
0000
0100
0000
,  // measure 16
0001
0000
0101
0000
0001
0000
1000
0001
,  // measure 17
1000
0000
0100
1000
0100
0000
0000
0000
0100
0000
0010
0100
0010
0000
0000
0000
,  // measure 18
0010
0000
0001
0010
0001
0000
0000
0000
0001
0000
0100
0001
0100
0000
0010
0100
,  // measure 19
0010
0000
0100
0001
0100
0000
0000
0000
0001
0000
0010
0001
0010
0000
0000
0000
,  // measure 20
0010
0000
0100
0010
0100
0000
0000
0000
0100
0000
1000
0100
1000
0001
1000
0001
,  // measure 21
1000
0000
0001
0100
0001
0000
0000
0000
0100
0000
0010
0100
0010
0000
0000
0000
,  // measure 22
0010
0000
1000
0010
1000
0000
0000
0000
1000
0000
0001
1000
0001
0000
1000
0100
,  // measure 23
1000
0000
0100
0010
0100
0000
0000
0000
0010
0000
0001
0010
0001
0000
0000
0000
,  // measure 24
0001
0000
1000
0001
1000
0000
0000
0000
1000
0000
0010
1000
0010
0100
0010
0100
,  // measure 25
0020
0000
0230
0000
0302
0000
1003
0001
,  // measure 26
0020
0000
0230
0000
2300
0000
3010
0100
,  // measure 27
0002
0000
0203
0000
0320
0000
0130
0010
,  // measure 28
2000
0000
3200
0000
0320
0000
0031
0010
,  // measure 29
0001
0010
0001
0010
0100
1000
0100
1000
0001
0000
0000
0000
1001
0000
0000
0000
,  // measure 30
1000
0010
1000
0010
0100
0001
0100
0001
1000
0000
0000
0000
1001
0000
0000
0000
,  // measure 31
0001
0000
0010
0000
0100
0000
1000
0000
0001
0100
0010
1000
0001
0010
0100
1000
,  // measure 32
0100
0000
0010
0001
0010
0000
0001
0100
0001
0000
1000
0010
2000
0000
3000
0000
,  // measure 33
1001
0000
0000
0000
0001
0000
0100
0000
0110
0000
0000
0101
0000
0000
1010
0000
,  // measure 34
1001
0000
0000
0000
1000
0000
0100
0000
0110
0000
0000
1100
0000
0000
0011
0000
,  // measure 35
1001
0000
0000
0000
1000
0000
0010
0000
0110
0000
0000
1010
0000
0000
0101
0000
,  // measure 36
0001
0100
0001
0100
0010
0000
1000
0100
0010
0000
0001
1000
0002
0000
0003
0000
,  // measure 37
1001
0000
0000
0000
1000
0000
0100
0000
1100
0000
0000
0011
0000
0000
0110
0000
,  // measure 38
1001
0000
0000
0000
0001
0000
0100
0000
0101
0000
0000
1010
0000
0000
0110
0000
,  // measure 39
1001
0000
0000
0000
0001
0000
0010
0000
0011
0000
0000
1100
0000
0000
0110
0000
,  // measure 40
0100
0010
0100
0010
0001
0000
1000
0000
1001
0000
0000
0000
2000
0000
3000
0000
,  // measure 41
0001
0000
0100
0001
0100
0000
0001
0010
0001
0000
0100
0001
0200
0000
0000
0000
,  // measure 42
0310
0000
1000
0010
1000
0000
0100
1000
0100
0000
1000
0010
2000
0000
0000
0000
,  // measure 43
3010
0000
0010
0000
0010
0000
0010
0000
1000
0001
1000
0001
1000
0001
1000
0001
,  // measure 44
1000
0000
0100
0010
0001
0000
0100
0010
1000
0000
0001
1000
0002
0000
0003
0000
,  // measure 45
1001
0000
0101
0000
1001
0000
1000
0100
,  // measure 46
0010
0000
0001
0000
1001
0000
1000
0010
,  // measure 47
0100
0000
0110
0000
1001
0000
0001
0100
,  // measure 48
0010
0100
0010
0100
0010
0000
0100
0000
0001
1000
0001
0000
2000
0000
3000
0000
,  // measure 49
0001
0000
0100
0000
1000
0000
0100
0000
0010
0000
1000
0100
0000
0100
0010
0000
,  // measure 50
0001
0000
1000
0010
0001
0000
0010
0000
1000
0000
0001
0010
0000
0010
0100
0000
,  // measure 51
1000
0000
0001
0100
1000
0000
0100
0000
0001
0000
0010
0100
0000
0100
1000
0000
,  // measure 52
0001
0100
0001
0100
0010
1000
0010
1000
1001
0000
0000
1001
0000
0000
0001
0010
,  // measure 53
0200
0000
0000
0000
,  // measure 54
2300
0000
0000
0000
,  // measure 55
3020
0000
0000
0000
,  // measure 56
0230
0000
0302
0000
,  // measure 57
1003
0100
0001
0100
2000
0000
0010
0000
,  // measure 58
3001
0100
1000
0100
0002
0000
0010
0000
,  // measure 59
1003
0000
1000
0000
0100
0000
0100
0000
0010
0001
0010
0001
1000
0001
1000
0010
,  // measure 60
0100
0000
0000
0000
0010
1000
0002
0003
,  // measure 61
1000
0010
0110
0010
1000
0100
0110
0010
,  // measure 62
0001
0100
0110
0100
0001
1100
0001
1100
,  // measure 63
0001
0100
0110
0100
0001
0010
0110
0100
,  // measure 64
2000
0000
3001
0001
0001
1000
2000
3000
,  // measure 65
0001
0010
0110
0010
0001
0100
0110
0010
,  // measure 66
1000
0100
0110
0100
1000
0101
1000
0101
,  // measure 67
1000
0010
0110
0010
1000
0100
0110
0010
,  // measure 68
0001
0100
0001
0100
0010
1000
0001
0010
0100
1000
0010
0100
0002
0000
0003
0000
,  // measure 69
2000
0000
0000
0000
,  // measure 70
3002
0000
0000
0000
,  // measure 71
0203
0000
0000
0000
,  // measure 72
0320
0000
0000
0000
0000
0000
0030
0000
0010
0100
0010
0000
2000
0000
3000
0000
,  // measure 73
1001
0000
0000
0000
;

//---------------dance-single - ----------------
#NOTES:
     dance-single:
     :
     Hard:
     13:
     0.516696,0.660080,0.386348,0.164403,0.127413,440.000000,393.000000,47.000000,20.000000,0.000000,0.000000,0.516696,0.660080,0.386348,0.164403,0.127413,440.000000,393.000000,47.000000,20.000000,0.000000,0.000000:
// measure 0
0000
0000
0000
0000
,  // measure 1
0000
0000
0000
0000
,  // measure 2
0000
0000
0000
0000
,  // measure 3
0000
0000
0000
0000
,  // measure 4
0000
0000
0000
0000
,  // measure 5
0000
0000
0000
0000
,  // measure 6
0000
0000
0000
0000
,  // measure 7
0000
0000
0000
0000
,  // measure 8
0000
0000
0000
0000
,  // measure 9
0001
0000
0000
0000
0101
0000
0000
0000
0100
0000
0000
0100
0000
0000
0100
0000
,  // measure 10
0010
0000
0000
0000
1010
0000
0000
0000
1000
0000
0000
1000
0000
0000
1000
0000
,  // measure 11
0100
0000
0000
0000
0110
0000
0000
0000
0010
0000
0000
0010
0000
0000
0010
0000
,  // measure 12
0001
0000
0011
0000
0001
0000
1000
0001
,  // measure 13
1000
0000
0000
0000
1010
0000
0000
0000
0010
0000
0000
0010
0000
0000
0010
0000
,  // measure 14
0100
0000
0000
0000
0101
0000
0000
0000
0001
0000
0000
0001
0000
0000
0001
0000
,  // measure 15
0010
0000
0000
0000
0110
0000
0000
0000
0100
0000
0000
0100
0000
0000
0100
0000
,  // measure 16
1000
0000
1100
0000
1000
0000
0001
1000
,  // measure 17
0001
0001
0100
0000
0100
0100
0010
0000
,  // measure 18
0010
0010
1000
0000
1000
1000
0001
0001
,  // measure 19
1000
1000
0100
0000
0100
0100
0010
0000
,  // measure 20
0010
0000
0010
0000
0001
0000
0000
0000
0001
0000
0001
0000
1000
0001
1000
0000
,  // measure 21
0001
0100
0010
0000
0010
0100
0001
0000
,  // measure 22
0001
0010
0100
0000
0100
1000
0010
0100
,  // measure 23
0010
1000
0001
0000
0010
0001
1000
0000
,  // measure 24
0100
0000
1000
0000
0001
0000
0000
0000
0100
0000
0001
0000
1000
0001
1000
0000
,  // measure 25
0200
0000
0320
0000
0032
0000
1003
0001
,  // measure 26
0200
0000
0320
0000
2030
0000
3100
0010
,  // measure 27
0002
0000
0023
0000
0230
0000
0310
0100
,  // measure 28
2000
0000
3020
0000
0230
0000
0301
0100
,  // measure 29
0001
0100
0010
1000
0001
0000
1001
0000
,  // measure 30
1000
0100
0010
0001
1000
0000
1001
0000
,  // measure 31
0001
0000
0001
0000
1000
0000
1000
0000
0100
0010
0100
0010
0100
0010
0100
0010
,  // measure 32
0001
1000
0010
0100
0010
0000
1001
0000
,  // measure 33
0110
0000
0000
0000
1000
0000
0001
0000
0010
0000
0000
0010
0000
0000
0100
0000
,  // measure 34
0110
0000
0000
0000
0001
0000
1000
0000
0010
0000
0000
0010
0000
0000
0100
0000
,  // measure 35
0110
0000
0000
0000
1000
0000
0001
0000
0100
0000
0000
0100
0000
0000
0100
0000
,  // measure 36
0110
0010
1000
0001
0010
0100
1001
0000
,  // measure 37
1010
0000
0000
0000
1000
0000
0010
0000
0110
0000
0000
0100
0000
0000
0001
0000
,  // measure 38
0101
0000
0000
0000
0001
0000
0010
0000
0110
0000
0000
0100
0000
0000
1000
0000
,  // measure 39
1100
0000
0000
0000
1000
0000
0100
0000
0110
0000
0000
0010
0000
0000
0001
0000
,  // measure 40
2000
0000
3001
1001
,  // measure 41
0001
0100
0001
0010
0001
0000
0011
0000
,  // measure 42
1000
0100
1000
0010
1000
0000
1010
0000
,  // measure 43
0010
0000
0010
0000
0100
0000
0100
0000
0001
1000
0001
1000
0001
1000
0001
1000
,  // measure 44
0001
0000
0100
0010
0100
0000
0010
0000
1000
0000
0001
0000
1000
0000
0000
0000
,  // measure 45
1001
0000
1100
0000
1001
0000
0001
0100
,  // measure 46
0010
0000
1000
0000
1001
0000
0001
0010
,  // measure 47
0100
0000
0110
0000
1001
0000
1000
0100
,  // measure 48
0020
0000
0031
1001
,  // measure 49
1000
0000
0010
0000
0100
0000
0001
0000
0010
0000
0000
0010
0000
0000
0010
0000
,  // measure 50
0100
0000
1000
0100
1000
0000
0100
0000
0010
0000
0000
0010
0000
0000
0010
0000
,  // measure 51
0001
0000
0100
0001
0100
0000
0010
0000
0100
0000
0000
0100
0000
0000
0100
0000
,  // measure 52
0001
0000
1000
0100
1000
0000
0001
0000
1001
0000
0000
1001
0000
0000
1001
0000
,  // measure 53
0002
0000
0000
0000
,  // measure 54
2003
0000
0000
0000
,  // measure 55
3020
0000
0000
0000
,  // measure 56
0230
0000
0302
0000
,  // measure 57
1003
0100
0010
0001
0010
0000
0110
0000
,  // measure 58
0001
0100
0010
1000
0010
0000
0110
0000
,  // measure 59
1000
1000
0001
0001
1000
0100
0010
0001
,  // measure 60
0100
0000
0000
0110
,  // measure 61
1001
0001
0100
0010
1000
0100
0010
0100
,  // measure 62
1000
0001
0100
0010
0100
0110
0010
0110
,  // measure 63
0100
0010
1000
0100
0010
0001
0010
0100
,  // measure 64
1000
0001
0100
0010
1000
0001
1001
0000
,  // measure 65
1001
1000
0100
0010
0001
0100
0010
0100
,  // measure 66
0001
0010
0100
0010
0001
1001
1000
1001
,  // measure 67
0001
0100
0010
1000
0100
0010
0001
0010
,  // measure 68
0100
1000
0001
0100
0010
1000
1001
0000
,  // measure 69
0001
0100
0010
1000
0001
0010
1000
0010
,  // measure 70
0001
1000
0010
0100
0001
1000
0100
0001
,  // measure 71
0100
0010
0001
1000
0100
1000
0010
0001
,  // measure 72
0010
0000
1000
0000
0001
0000
0010
0000
0100
0010
0100
0000
2000
0000
3000
0000
,  // measure 73
1001
0000
0000
0000
;

//---------------dance-single - ----------------
#NOTES:
     dance-single:
     :
     Medium:
     10:
     0.372256,0.540065,0.328807,0.246605,0.004110,317.000000,277.000000,40.000000,30.000000,0.000000,0.000000,0.372256,0.540065,0.328807,0.246605,0.004110,317.000000,277.000000,40.000000,30.000000,0.000000,0.000000:
// measure 0
0000
0000
0000
0000
,  // measure 1
0000
0000
0000
0000
,  // measure 2
0000
0000
0000
0000
,  // measure 3
0000
0000
0000
0000
,  // measure 4
0000
0000
0000
0000
,  // measure 5
0000
0000
0000
0000
,  // measure 6
0000
0000
0000
0000
,  // measure 7
0000
0000
0000
0000
,  // measure 8
0000
0000
0000
0000
,  // measure 9
1000
0100
0001
0100
,  // measure 10
1000
0010
0001
0010
,  // measure 11
0100
0001
0010
0001
,  // measure 12
0100
0010
1000
0100
,  // measure 13
1000
0010
0001
0010
,  // measure 14
0100
1000
0100
0001
,  // measure 15
0100
1000
0010
1000
,  // measure 16
0001
0100
0001
0010
,  // measure 17
0001
0010
0001
0000
1000
0010
1000
0000
,  // measure 18
0001
0100
0001
0000
1000
0100
1000
0100
,  // measure 19
0010
0100
0010
0000
0001
0010
0001
0000
,  // measure 20
1000
0100
1000
0000
0010
1000
0010
0010
,  // measure 21
0100
0001
0010
0000
0100
1000
0010
0000
,  // measure 22
1000
0100
0010
0000
0001
0100
0010
1000
,  // measure 23
0001
0010
0100
0000
1000
0010
0100
0000
,  // measure 24
0010
1000
0100
0000
0010
0001
0100
0100
,  // measure 25
0020
2030
0002
3003
,  // measure 26
0020
0032
2000
3003
,  // measure 27
2000
3200
0020
0330
,  // measure 28
0002
0203
0020
0330
,  // measure 29
1000
0100
0010
0000
0001
0000
1001
0000
,  // measure 30
0100
0010
1000
0000
0001
0000
1001
0000
,  // measure 31
1000
0100
0010
0001
0100
0100
0100
0100
,  // measure 32
0020
0000
0000
0030
,  // measure 33
1001
0000
0001
0100
0010
0000
1000
0100
,  // measure 34
0010
0000
0010
0100
1000
0000
0001
0100
,  // measure 35
0010
0000
1000
0010
0100
0000
0001
0010
,  // measure 36
0200
0000
0000
0310
,  // measure 37
1001
0000
1000
0100
0010
0000
0001
0100
,  // measure 38
0010
0000
0010
0100
0001
0000
1000
0100
,  // measure 39
0010
0000
0001
0010
0100
0000
1000
0010
,  // measure 40
0200
0000
0000
0310
,  // measure 41
1000
0010
0100
0001
0100
0000
0110
0000
,  // measure 42
0001
0010
0100
1000
0100
0000
0110
0000
,  // measure 43
0001
0010
0100
1000
0010
0010
0010
0010
,  // measure 44
0200
0000
0000
0300
,  // measure 45
1001
0000
1000
0000
1100
0000
0100
0010
,  // measure 46
0001
0000
0010
0000
0011
0000
0001
0100
,  // measure 47
0010
0000
1000
0000
1010
0000
1000
0100
,  // measure 48
0020
0000
0000
0130
,  // measure 49
1001
1001
0101
0101
,  // measure 50
0011
0011
1010
1010
,  // measure 51
1100
1100
0110
0110
,  // measure 52
1001
0000
0000
0000
1001
0000
0000
0000
1000
0000
0000
0001
0000
0000
1000
0000
,  // measure 53
2002
0000
0000
0000
,  // measure 54
0000
0000
0000
0000
,  // measure 55
0000
0000
0000
0000
,  // measure 56
0000
0000
0000
3003
,  // measure 57
1000
1000
0100
0100
,  // measure 58
0010
0010
0001
0001
,  // measure 59
0100
0010
0100
0010
0100
0100
0100
0100
,  // measure 60
0100
0000
0000
0000
,  // measure 61
0100
1001
0010
1001
,  // measure 62
0001
0000
0110
0000
1000
1001
0000
1001
,  // measure 63
0001
0110
1000
0110
,  // measure 64
0002
0000
1003
0010
1000
0001
0020
0000
,  // measure 65
0130
1001
0010
1001
,  // measure 66
1000
0000
0110
0000
0001
1001
0000
1001
,  // measure 67
1000
0110
0001
0110
,  // measure 68
1000
0100
1000
0100
0010
0010
0002
0000
,  // measure 69
2003
0000
3020
0000
,  // measure 70
0230
0000
0302
0000
,  // measure 71
0023
0000
0230
0000
,  // measure 72
0320
0000
0032
0013
,  // measure 73
1001
0000
0000
0000
;

//---------------dance-single - ----------------
#NOTES:
     dance-single:
     :
     Easy:
     6:
     0.250128,0.330040,0.090422,0.295926,0.000000,213.000000,202.000000,11.000000,36.000000,0.000000,0.000000,0.250128,0.330040,0.090422,0.295926,0.000000,213.000000,202.000000,11.000000,36.000000,0.000000,0.000000:
// measure 0
0000
0000
0000
0000
,  // measure 1
0000
0000
0000
0000
,  // measure 2
0000
0000
0000
0000
,  // measure 3
0000
0000
0000
0000
,  // measure 4
0000
0000
0000
0000
,  // measure 5
0000
0000
0000
0000
,  // measure 6
0000
0000
0000
0000
,  // measure 7
0000
0000
0000
0000
,  // measure 8
0000
0000
0000
0000
,  // measure 9
0001
0100
0000
0100
,  // measure 10
0010
1000
0000
1000
,  // measure 11
0001
0010
0000
0010
,  // measure 12
0100
1000
0100
0010
,  // measure 13
0001
1000
0000
1000
,  // measure 14
0010
0100
0000
0100
,  // measure 15
0010
0001
0000
0001
,  // measure 16
0010
1000
0001
0010
,  // measure 17
0020
0001
0001
0001
,  // measure 18
0032
1000
1000
1000
,  // measure 19
2003
0100
0100
0100
,  // measure 20
3200
0010
0320
0032
,  // measure 21
2003
0100
0100
0100
,  // measure 22
3020
0100
0100
0100
,  // measure 23
2030
0100
0100
0100
,  // measure 24
3002
0100
0100
0100
,  // measure 25
0013
0001
2000
0000
,  // measure 26
3010
1000
0002
0000
,  // measure 27
0103
0001
2000
0000
,  // measure 28
3100
1000
0002
0000
,  // measure 29
0103
0100
0200
0310
,  // measure 30
0010
0010
0020
0130
,  // measure 31
1000
0100
0010
0001
,  // measure 32
2002
0000
0000
3003
,  // measure 33
0001
0001
1000
1000
,  // measure 34
0001
0001
1000
1000
,  // measure 35
0010
0010
0100
0100
,  // measure 36
0020
0230
0310
1000
,  // measure 37
0001
0001
0010
0010
,  // measure 38
0001
0001
0010
0010
,  // measure 39
0100
0100
1000
1000
,  // measure 40
0200
2300
3100
1000
,  // measure 41
0010
0010
0020
0100
,  // measure 42
1030
1000
2000
0001
,  // measure 43
3100
0100
0010
0010
,  // measure 44
2002
0000
0000
3003
,  // measure 45
1000
0000
1100
0000
,  // measure 46
0001
0000
0101
0000
,  // measure 47
0100
0000
0110
0000
,  // measure 48
2000
0000
3002
0000
,  // measure 49
0013
0010
0100
0100
,  // measure 50
0010
0010
0100
0100
,  // measure 51
1000
1000
0001
0001
,  // measure 52
1000
1000
0020
0000
,  // measure 53
0230
0000
0000
0000
,  // measure 54
0000
0000
0000
0000
,  // measure 55
0000
0000
0000
0000
,  // measure 56
0000
0000
0000
0000
,  // measure 57
0301
0010
0001
0020
,  // measure 58
0130
1000
0100
2000
,  // measure 59
3001
0001
1000
1000
,  // measure 60
1001
0000
0000
0000
,  // measure 61
1000
0100
0010
0001
,  // measure 62
1000
0100
0010
0110
,  // measure 63
0001
0100
0010
1000
,  // measure 64
0001
0100
0010
0110
,  // measure 65
0001
0010
0100
1000
,  // measure 66
0001
0010
0100
0110
,  // measure 67
1000
0010
0100
0001
,  // measure 68
1000
0010
0100
0110
,  // measure 69
0002
0000
0000
0000
,  // measure 70
2003
0000
0000
0000
,  // measure 71
3200
0000
0000
0000
,  // measure 72
0320
0000
0000
0030
,  // measure 73
1001
0000
0000
0000
;

//---------------dance-single - ----------------
#NOTES:
     dance-single:
     :
     Beginner:
     3:
     0.131523,0.240029,0.073982,0.205504,0.000000,112.000000,103.000000,9.000000,25.000000,0.000000,0.000000,0.131523,0.240029,0.073982,0.205504,0.000000,112.000000,103.000000,9.000000,25.000000,0.000000,0.000000:
// measure 0
0000
0000
0000
0000
,  // measure 1
0000
0000
0000
0000
,  // measure 2
0000
0000
0000
0000
,  // measure 3
0000
0000
0000
0000
,  // measure 4
0000
0000
0000
0000
,  // measure 5
0000
0000
0000
0000
,  // measure 6
0000
0000
0000
0000
,  // measure 7
0000
0000
0000
0000
,  // measure 8
0000
0000
0000
0000
,  // measure 9
2000
0000
3000
0000
,  // measure 10
0002
0000
0003
0000
,  // measure 11
0020
0000
0030
0000
,  // measure 12
0200
0000
0300
0000
,  // measure 13
0020
0000
0030
0000
,  // measure 14
0200
0000
0300
0000
,  // measure 15
2000
0000
3000
0000
,  // measure 16
0002
0000
0003
0000
,  // measure 17
1000
0000
1000
0000
,  // measure 18
1000
0000
1000
1000
,  // measure 19
0001
0000
0001
0000
,  // measure 20
0001
0000
0001
0001
,  // measure 21
0010
0000
0010
0000
,  // measure 22
0010
0000
0010
0010
,  // measure 23
0100
0000
0100
0000
,  // measure 24
0100
0000
0100
0100
,  // measure 25
2000
0000
3000
0000
,  // measure 26
0020
0000
0030
0000
,  // measure 27
0200
0000
0300
0000
,  // measure 28
0002
0000
0003
0000
,  // measure 29
1000
1000
1000
0000
,  // measure 30
0100
0100
0100
0000
,  // measure 31
0010
0010
0010
0010
,  // measure 32
0020
0000
0000
0030
,  // measure 33
0001
0000
0001
0000
,  // measure 34
0001
0000
0001
0000
,  // measure 35
1000
0000
1000
0000
,  // measure 36
2000
0000
0000
3000
,  // measure 37
0010
0000
0010
0000
,  // measure 38
0010
0000
0010
0000
,  // measure 39
0100
0000
0100
0000
,  // measure 40
0200
0000
0000
0300
,  // measure 41
0001
0001
0001
0000
,  // measure 42
1000
1000
1000
0000
,  // measure 43
0010
0010
0010
0010
,  // measure 44
0020
0000
0000
0030
,  // measure 45
0100
0000
0110
0000
,  // measure 46
0010
0000
0110
0000
,  // measure 47
1000
0000
1001
0000
,  // measure 48
0002
0000
0000
0003
,  // measure 49
0001
0000
1001
0000
,  // measure 50
1000
0000
1001
0000
,  // measure 51
0100
0000
0110
0000
,  // measure 52
0010
0000
0220
0000
,  // measure 53
0330
0000
0000
0000
,  // measure 54
0000
0000
0000
0000
,  // measure 55
0000
0000
0000
0000
,  // measure 56
0000
0000
0000
0000
,  // measure 57
2000
0000
0000
3000
,  // measure 58
0002
0000
0000
0003
,  // measure 59
2002
0000
0000
0000
,  // measure 60
3003
0000
0000
0000
,  // measure 61
0000
1000
0000
1000
,  // measure 62
0000
0100
0000
0100
,  // measure 63
0000
0010
0000
0010
,  // measure 64
0000
0001
0000
0001
,  // measure 65
0000
0100
0000
0010
,  // measure 66
0000
1000
0000
0001
,  // measure 67
0000
1000
0000
0100
,  // measure 68
0000
0010
0000
0001
,  // measure 69
2002
0000
0000
0000
,  // measure 70
0000
0000
0000
0000
,  // measure 71
0000
0000
0000
0000
,  // measure 72
0000
0000
0000
0000
,  // measure 73
3003
0000
0000
0000
;
