#TITLE:Night! Night! Night!;
#SUBTITLE:;
#ARTIST:MM;
#TITLETRANSLIT:;
#SUBTITLETRANSLIT:;
#ARTISTTRANSLIT:;
#GENRE:;
#CREDIT:;
#MENUCOLOR:;
#METERTYPE:DDR;
#BANNER:Night! Night! Night!.png;
#BACKGROUND:Night! Night! Night!-bg.png;
#LYRICSPATH:;
#CDTITLE:./CDTITLES/BEATMANIA IIDX.PNG;
#MUSIC:Night! Night! Night!.ogg;
#OFFSET:0.000;
#SAMPLESTART:74.545;
#SAMPLELENGTH:15.000;
#SELECTABLE:YES;
#LISTSORT:;
#BPMS:0.000=165.000;
#STOPS:40.000=1.0909090909090909090909090909091
,249.000=1.0909090909090909090909090909091
;
#BGCHANGES:;
#ATTACKS:;

//---------------dance-single - ----------------
#NOTES:
     dance-single:
     :
     Beginner:
     3:
     0.120,0.189,0.000,0.000,0.000: // measure 1
0000
0000
0000
0000
,  // measure 2
0000
0000
0000
0000
,  // measure 3
0000
0000
0000
0000
,  // measure 4
0000
0000
0000
0000
,  // measure 5
0000
0000
0000
0000
,  // measure 6
0000
0000
0000
0000
,  // measure 7
0000
0010
0000
0000
,  // measure 8
0000
0100
0000
0000
,  // measure 9
0000
0001
0000
0001
,  // measure 10
0001
0000
1000
0000
,  // measure 11
0001
1000
0000
0000
,  // measure 12
0000
1000
0000
0000
,  // measure 13
0000
0001
0000
0000
,  // measure 14
0000
0001
0000
0000
,  // measure 15
0000
0100
0000
0000
,  // measure 16
0000
0100
0000
0000
,  // measure 17
0000
0010
0000
0000
,  // measure 18
0000
0010
0000
0000
,  // measure 19
0000
1000
0000
0000
,  // measure 20
0000
0001
0000
0000
,  // measure 21
1000
1000
0000
0000
,  // measure 22
0001
0001
0000
0000
,  // measure 23
0000
0100
0000
0000
,  // measure 24
0000
0010
0000
0000
,  // measure 25
0100
0100
0000
0000
,  // measure 26
0010
0010
0000
0000
,  // measure 27
0000
0100
0000
0000
,  // measure 28
0000
0001
0001
0001
,  // measure 29
0000
0000
0000
0000
,  // measure 30
0000
1000
1000
1000
,  // measure 31
0000
0000
0000
0000
,  // measure 32
0000
0010
0010
0010
,  // measure 33
0000
0000
0000
0000
,  // measure 34
0000
0100
0000
0100
,  // measure 35
0000
0001
0000
0000
,  // measure 36
0000
1000
0000
1000
,  // measure 37
0000
0000
0000
0000
,  // measure 38
0000
0100
0000
0100
,  // measure 39
0000
0000
0000
0000
,  // measure 40
0000
0010
0000
0010
,  // measure 41
0000
0000
0000
0000
,  // measure 42
0000
0001
0000
0001
,  // measure 43
0000
0000
0000
0000
,  // measure 44
0000
0000
1000
0000
,  // measure 45
1000
1000
0000
0000
,  // measure 46
0000
0000
0001
0000
,  // measure 47
0001
0001
0000
0000
,  // measure 48
0000
0000
0100
0000
,  // measure 49
0100
0100
0000
0000
,  // measure 50
0000
0000
0010
0000
,  // measure 51
0010
0010
0000
0000
,  // measure 52
0000
1000
1000
1000
,  // measure 53
0000
0000
0000
0000
,  // measure 54
0000
0001
0001
0001
,  // measure 55
0000
0000
0000
0000
,  // measure 56
0000
0100
0100
0100
,  // measure 57
0000
0000
0000
0000
,  // measure 58
0000
0010
0010
0010
,  // measure 59
0000
0000
0000
0000
,  // measure 60
0000
1000
0000
0000
,  // measure 61
0000
0001
0000
0000
,  // measure 62
0000
0100
0000
0000
,  // measure 63
0000
0000
0010
0000
,  // measure 64
0000
0000
0000
0000
,  // measure 65
0000
0000
0100
0100
,  // measure 66
0100
0000
0000
0000
,  // measure 67
0000
0000
0001
0001
,  // measure 68
0001
0000
0000
0000
,  // measure 69
0000
0000
1000
1000
,  // measure 70
1000
0000
0000
0000
,  // measure 71
0000
0000
0001
0000
,  // measure 72
0001
0000
1000
0000
,  // measure 73
1000
0000
0010
0010
,  // measure 74
0010
0000
0000
0000
,  // measure 75
0000
0000
0100
0100
,  // measure 76
0100
0000
0010
0010
,  // measure 77
0010
0000
1000
0000
,  // measure 78
0001
0000
1000
1000
,  // measure 79
1000
0000
0001
0000
,  // measure 80
1000
0000
0001
0000
;

//---------------dance-single - ----------------
#NOTES:
     dance-single:
     :
     Easy:
     6:
     0.286,0.317,0.008,0.055,0.000: // measure 1
0000
0000
0000
0000
,  // measure 2
0000
0000
0000
0000
,  // measure 3
0000
0000
0000
0000
,  // measure 4
0000
0000
0000
0000
,  // measure 5
0000
0000
0000
0000
,  // measure 6
0000
0000
0000
0000
,  // measure 7
0000
0010
0000
0010
,  // measure 8
0000
0100
0000
0100
,  // measure 9
0001
0001
1000
1000
,  // measure 10
0001
0010
0100
1000
,  // measure 11
0010
1000
0100
0010
,  // measure 12
0100
1000
0100
0010
,  // measure 13
0001
1000
0010
0100
,  // measure 14
0001
1000
0001
0100
,  // measure 15
0010
1000
0100
0010
,  // measure 16
0100
1000
0100
0001
,  // measure 17
0100
0010
0001
1000
,  // measure 18
0001
0100
0010
1000
,  // measure 19
0001
0020
0000
0000
,  // measure 20
0030
0001
0000
0100
,  // measure 21
0100
0100
0000
0010
,  // measure 22
1000
0001
0000
0010
,  // measure 23
0001
1000
0000
0001
,  // measure 24
0100
0010
0000
1000
,  // measure 25
1000
1000
0000
0100
,  // measure 26
0010
0001
0000
0100
,  // measure 27
0010
1000
0010
0100
,  // measure 28
0010
0100
0100
0100
,  // measure 29
0000
0001
1000
0001
,  // measure 30
0010
0001
0001
0001
,  // measure 31
0000
1000
0001
1000
,  // measure 32
0100
1000
1000
1000
,  // measure 33
0000
0010
0100
0010
,  // measure 34
1000
0100
0000
0010
,  // measure 35
0000
0001
0100
1000
,  // measure 36
0100
0001
0010
0100
,  // measure 37
0010
0001
0100
0010
,  // measure 38
1000
0001
0010
0100
,  // measure 39
1000
0001
1000
0100
,  // measure 40
1000
0001
0100
0010
,  // measure 41
0100
0001
0010
1000
,  // measure 42
0010
0100
1000
0010
,  // measure 43
0100
0001
1000
0010
,  // measure 44
0100
0001
0000
0001
,  // measure 45
0001
1000
0000
1000
,  // measure 46
0000
0100
0000
0100
,  // measure 47
0100
0010
0010
0001
,  // measure 48
1000
0010
0000
1000
,  // measure 49
1000
0100
0000
0010
,  // measure 50
0001
1000
0000
0001
,  // measure 51
0001
0100
0010
1000
,  // measure 52
0001
1000
1000
1000
,  // measure 53
0000
0001
0010
0100
,  // measure 54
1000
0001
0001
0001
,  // measure 55
0000
0010
0001
0100
,  // measure 56
0010
0100
0100
0100
,  // measure 57
0000
0010
1000
0001
,  // measure 58
0010
0001
0000
1000
,  // measure 59
0000
0001
0010
1000
,  // measure 60
0010
0002
0000
0103
,  // measure 61
0000
0020
0000
1030
,  // measure 62
0000
0200
0000
0310
,  // measure 63
0000
0000
2002
0000
,  // measure 64
0000
0000
0000
0000
,  // measure 65
0000
3003
1000
1000
,  // measure 66
1000
0000
0001
0100
,  // measure 67
0010
1000
0001
0001
,  // measure 68
0001
0000
0010
0001
,  // measure 69
1000
0100
0010
0000
,  // measure 70
0100
0000
1000
0010
,  // measure 71
0001
0010
0100
0100
,  // measure 72
0100
0100
0001
0010
,  // measure 73
0100
1000
0001
0001
,  // measure 74
0001
0000
0010
0001
,  // measure 75
1000
0100
0020
0130
,  // measure 76
1000
0001
0100
0010
,  // measure 77
1000
0001
0100
0000
,  // measure 78
0001
0000
1000
0100
,  // measure 79
0001
0100
1000
0000
,  // measure 80
0001
0001
0001
0000
1000
0000
0001
0000
,  // measure 81
0000
0010
0000
0000
0000
0000
0000
0000
;

//---------------dance-single - ----------------
#NOTES:
     dance-single:
     :
     Medium:
     11:
     0.507,0.539,0.135,0.055,0.115: // measure 1
0000
0000
0000
0000
,  // measure 2
0000
0000
0000
0000
,  // measure 3
0000
0000
0000
0000
,  // measure 4
0000
0000
0000
0000
,  // measure 5
0000
0000
0000
0000
,  // measure 6
0000
0000
0000
0000
,  // measure 7
0000
0010
0000
0010
,  // measure 8
0000
0100
0000
0100
,  // measure 9
0001
0001
1000
1000
,  // measure 10
0001
0000
1000
0000
0001
0010
0100
1000
,  // measure 11
0001
0000
0000
0000
1000
0000
0000
0100
0000
0000
1000
0000
0010
0000
0000
1000
,  // measure 12
0000
0000
0001
0000
0100
0000
0000
0001
0000
0000
0010
0000
0001
0000
0000
1000
,  // measure 13
0000
0001
0010
0100
1000
0010
0100
0001
,  // measure 14
0000
1000
0010
0000
1000
0000
0001
0100
,  // measure 15
0001
0000
0000
0000
0010
0000
0000
0001
0000
0000
1000
0000
0010
0000
0000
1000
,  // measure 16
0000
0000
0001
0000
0100
0000
0000
0001
0000
0000
1000
0000
0010
0000
0000
0100
,  // measure 17
0000
0010
1000
0100
0010
0001
0100
0010
,  // measure 18
0000
1000
0001
0100
0010
1000
0001
1000
,  // measure 19
0001
0020
0000
0000
,  // measure 20
0030
0000
0110
0000
1000
0000
0100
1000
,  // measure 21
0001
0100
0010
1000
,  // measure 22
0001
0010
0001
0100
,  // measure 23
0010
0000
1000
0100
0001
0000
0100
0010
,  // measure 24
0001
0000
1000
0000
0010
0000
1000
0001
,  // measure 25
0100
0001
0010
0100
,  // measure 26
1000
0000
0001
0000
0100
0000
0010
1000
,  // measure 27
0001
0100
0110
1001
,  // measure 28
0110
0000
0000
0000
1000
0000
0010
0000
1000
0000
0000
0000
0001
0000
0000
0010
,  // measure 29
0000
0000
0001
0000
1000
0000
0001
0000
0100
0000
0000
0000
0001
0000
0000
1000
,  // measure 30
0000
0100
1000
0010
0100
0001
0010
0100
,  // measure 31
0000
0010
0001
0100
1000
0000
0100
0010
,  // measure 32
1000
0000
0000
0000
0001
0000
0010
0000
0001
0000
0000
0000
1000
0000
0000
0010
,  // measure 33
0000
0000
1000
0000
0001
0000
1000
0000
0100
0000
0000
0000
1000
0000
0000
0001
,  // measure 34
0000
0100
0001
0010
0100
1000
0010
0100
,  // measure 35
0100
0000
0001
0010
1000
0000
0010
0100
,  // measure 36
1000
0000
0000
0000
0010
0000
1000
0000
0001
0000
0000
0000
0100
0000
0000
0100
,  // measure 37
0000
0000
0001
0000
1000
0000
0010
0000
0100
0000
0000
0000
0010
0000
0000
0010
,  // measure 38
0000
1000
0001
0010
0100
1000
0010
0100
,  // measure 39
0000
0010
1000
0100
0010
0100
1000
0001
,  // measure 40
0100
0000
0000
0000
0001
0000
0010
0000
0100
0000
0000
0000
0010
0000
0000
0010
,  // measure 41
0000
0000
0001
0000
1000
0000
0010
0000
0100
0000
0000
0000
0010
0000
0000
0010
,  // measure 42
0000
1000
0001
1000
0010
1000
0001
0100
,  // measure 43
0000
0010
1000
0100
0001
0000
0100
0010
,  // measure 44
0001
0000
1001
0000
0010
0000
1000
0100
,  // measure 45
1000
0001
1000
0000
0001
0000
0100
0000
,  // measure 46
0001
0000
0010
0000
0100
0000
0010
0001
,  // measure 47
1000
0001
0010
0001
0000
0100
0000
1000
,  // measure 48
1000
0100
0001
0000
0011
0000
0001
0100
,  // measure 49
0001
1000
0001
0000
1000
0000
0100
0000
,  // measure 50
0010
0000
0100
0000
1000
0000
0010
1000
,  // measure 51
0001
1000
0010
0000
0110
0000
1001
0000
,  // measure 52
0110
0000
0000
0000
1000
0000
0100
0000
0010
0000
0000
0000
0001
0000
0100
0001
,  // measure 53
0000
0000
1000
0000
0010
0000
0100
0000
0001
0000
0000
0000
0010
0000
0100
1000
,  // measure 54
0000
0001
1000
0100
0001
0100
0010
0001
,  // measure 55
0000
1000
0001
0100
1000
0000
0100
0010
,  // measure 56
1000
0000
0000
0000
0001
0000
0100
0000
0010
0000
0000
0000
0100
0000
0001
1000
,  // measure 57
0000
0000
0001
0000
0010
0000
0100
0000
1000
0000
0000
0000
0010
0000
0100
0001
,  // measure 58
0000
1000
0001
0010
1000
0010
0100
1000
,  // measure 59
1000
0000
0001
0010
0100
1000
0001
0100
,  // measure 60
1000
0100
0002
0000
0000
0000
0013
0000
,  // measure 61
0000
2000
0000
3100
,  // measure 62
0000
0200
0000
1300
,  // measure 63
0000
0000
0220
0000
,  // measure 64
0000
0000
0000
0330
,  // measure 65
0001
1000
0001
0000
1000
0000
0000
0000
0001
0000
0010
0000
1000
0000
0010
0000
,  // measure 66
0001
0100
0000
0001
1000
0100
0010
0100
,  // measure 67
1000
0001
0100
0001
1000
0100
0010
0100
,  // measure 68
1000
0000
0001
0100
0000
0000
0001
0000
0100
0000
0010
0000
1000
0000
0001
0000
,  // measure 69
0100
0000
0001
0010
0000
0000
0001
0000
1000
0000
0010
0000
0001
0000
0010
0000
,  // measure 70
1000
0100
0100
0000
1000
0100
0001
0100
,  // measure 71
0010
0001
1000
0001
0100
0000
0110
0000
,  // measure 72
1001
0110
1010
0101
,  // measure 73
1100
0000
0011
0000
1000
0010
0100
0001
,  // measure 74
0010
1000
0010
0100
0010
0001
1000
0010
,  // measure 75
0100
0010
1000
0001
0020
0000
0031
0000
,  // measure 76
0100
0000
0010
1000
0000
0000
0001
0000
0010
0000
0100
0000
1000
0000
0001
0000
,  // measure 77
0100
0000
0010
0100
0000
0000
0001
0000
1000
0000
0100
0000
0001
0000
0100
0000
,  // measure 78
1000
0010
0010
0000
0100
0001
0010
1000
,  // measure 79
0100
0010
1000
0001
0100
0100
0000
0001
,  // measure 80
0001
0000
0001
0000
0001
0000
0000
0000
1000
0000
0000
0001
0000
0001
0000
0001
,  // measure 81
0000
0100
0010
0000
0000
0000
0000
0000
0000
0000
0000
0000
0000
0000
0000
0000
;

//---------------dance-single - ----------------
#NOTES:
     dance-single:
     :
     Hard:
     15:
     0.706,0.698,0.158,0.048,0.590: // measure 1
0000
0000
0000
0000
,  // measure 2
0000
0000
0000
0000
,  // measure 3
0000
0000
0000
0000
,  // measure 4
0000
0000
0000
0000
,  // measure 5
0000
0000
0000
0000
,  // measure 6
0000
0000
0000
0000
,  // measure 7
0000
0010
0000
0010
,  // measure 8
0000
0100
0000
0100
,  // measure 9
0001
0001
1000
1000
,  // measure 10
0001
0010
0001
0000
1000
0100
1000
0000
0001
0000
0100
0000
0010
0000
1000
0000
,  // measure 11
0001
0000
0000
0000
1000
0000
0010
1000
0000
0010
0100
0000
0010
0000
1000
0001
,  // measure 12
0000
0001
1000
0000
0001
0000
0010
0100
0000
0010
0001
0000
0100
0000
0001
1000
,  // measure 13
0000
1000
0001
0000
1000
0000
0010
0000
0100
0000
0001
0000
0010
0000
0100
0000
,  // measure 14
1000
0100
1000
0000
0010
0000
0100
0000
0001
0000
0010
0000
1000
0000
0010
0000
,  // measure 15
0001
0100
0001
0000
1000
0000
0100
0010
0000
0100
0001
0000
0100
0000
1000
0001
,  // measure 16
0000
0001
1000
0000
0001
0000
0100
0010
0000
0100
1000
0000
0100
0000
0001
1000
,  // measure 17
0000
1000
0001
0000
1000
0000
0100
0000
0010
0000
0001
0000
1000
0000
0010
0000
,  // measure 18
1000
0001
1000
0000
0001
0000
0100
0000
1000
0000
0100
0000
0001
1000
0001
1000
,  // measure 19
0001
0020
0000
0000
,  // measure 20
0030
0000
0000
0000
0110
0000
0000
0000
0100
0000
0000
0000
1000
0100
0000
0100
,  // measure 21
0010
0000
0001
0000
0100
0000
0000
0000
0100
0000
0000
0000
0001
0100
0000
0100
,  // measure 22
0010
0000
1000
0000
0100
0000
0000
0000
0100
0000
0000
0000
0010
0001
0000
0001
,  // measure 23
1000
0000
0001
0000
1000
0100
1000
0000
0001
0100
0001
0000
1000
0000
0010
0000
,  // measure 24
0100
0000
0001
0000
1000
0000
0100
0000
0010
0000
0000
0000
0100
0000
1000
0001
,  // measure 25
0000
0001
1000
0000
0001
0000
0010
0000
0100
0000
0000
0000
0010
0000
0001
0000
,  // measure 26
0100
0000
0010
1000
0100
0001
0100
0010
,  // measure 27
0001
0100
0010
0000
1010
0000
0101
0000
,  // measure 28
1100
0000
0000
0000
0001
0000
0010
0001
0010
0000
0001
0000
0100
0001
1000
0001
,  // measure 29
0000
0000
1000
0000
0100
1000
0100
0000
1000
0000
0010
0000
0100
0001
1000
0010
,  // measure 30
0000
0000
1000
0000
0001
0010
0100
0000
0010
0000
0001
0000
1000
0000
0100
0000
,  // measure 31
1000
0001
0100
0000
0001
0010
0001
0000
1000
0100
1000
0000
0001
0000
0100
0000
,  // measure 32
0010
0000
1000
0000
0001
0000
0100
0001
0100
0000
0001
0000
1000
0010
1000
0001
,  // measure 33
0000
0000
1000
0000
0100
0010
0100
0000
1000
0000
0001
0000
0010
0001
1000
0001
,  // measure 34
0000
0000
0100
0000
0001
0000
0010
0000
1000
0000
0010
0100
1000
0000
0001
0000
,  // measure 35
1001
0000
0000
0000
1000
0010
1000
0000
0001
0100
0001
0000
1000
0000
0100
0000
,  // measure 36
0010
0000
0001
0000
1000
0000
0010
0100
0000
0001
0100
0000
0001
0100
0001
1000
,  // measure 37
0000
0001
1000
0000
0001
0000
0010
0100
0000
1000
0100
0000
1000
0001
1000
0010
,  // measure 38
0000
1000
0010
0000
1000
0000
0100
0000
0010
0000
0100
1000
0001
0000
0100
0000
,  // measure 39
0010
0100
0010
0000
1000
0010
1000
0000
0100
0000
1000
0000
0001
0010
0001
0000
,  // measure 40
1000
0000
0000
0000
0001
0000
0100
0010
0000
0100
1000
0000
0100
0001
1000
0001
,  // measure 41
0000
1000
0001
0000
1000
0000
0100
0010
0000
0100
0001
0000
0010
0001
1000
0001
,  // measure 42
0000
1000
0001
0000
1000
0000
0100
0000
0010
0000
0001
1000
0010
0000
1000
0000
,  // measure 43
0001
0000
0100
0000
0001
0010
0001
0000
1000
0100
1000
0000
0001
1000
0001
1000
,  // measure 44
0001
0000
0000
0000
1001
0000
0000
0000
0100
0000
0000
0000
0010
0000
1000
0100
,  // measure 45
0000
0100
0010
0000
0001
0000
0000
0000
0100
0000
0000
0000
0010
0000
1000
0000
,  // measure 46
0100
0000
1000
0000
0010
0000
0000
0000
1000
0000
0000
0000
0100
0000
0010
0001
,  // measure 47
0000
0001
1000
0000
0001
0000
0100
0000
1000
0000
0100
0000
0010
0000
1000
0000
,  // measure 48
0001
0000
1000
0000
0010
0000
0000
0000
0110
0000
0000
0000
0010
0000
1000
0100
,  // measure 49
0000
0100
0010
0000
0001
0000
0000
0000
0100
0000
0000
0000
0010
0000
1000
0000
,  // measure 50
0001
0010
0001
0000
1000
0100
0001
0100
,  // measure 51
0010
0001
1000
0000
1001
0000
1100
0000
,  // measure 52
0011
0000
0000
0000
1000
0000
0010
0100
0000
0010
1000
0000
0001
0010
0100
1000
,  // measure 53
0000
0000
0001
0000
0010
0000
0001
0100
0001
0000
1000
0000
0001
0100
0010
1000
,  // measure 54
0000
0000
0001
0000
1000
0000
0001
0000
0100
0000
0001
1000
0100
0000
1000
0000
,  // measure 55
0001
0000
0100
0000
0001
0010
0001
0000
1000
0100
1000
0000
0001
0000
0100
0000
,  // measure 56
0010
0000
1000
0000
0001
0000
0010
0100
0000
0010
0001
0000
0100
0001
1000
0010
,  // measure 57
0000
0000
1000
0000
0010
0000
1000
0100
0000
1000
0001
0000
0010
0100
1000
0001
,  // measure 58
0000
0000
1000
0000
0001
0000
0010
0000
1000
0000
0010
0100
1000
0000
0001
0000
,  // measure 59
1001
0000
0000
0000
0001
0010
0001
0000
1000
0100
1000
0000
0001
0000
0010
0000
,  // measure 60
0100
1000
0020
0000
0000
0000
0130
0000
,  // measure 61
0000
0002
0000
1003
,  // measure 62
0000
2000
0000
3010
,  // measure 63
0000
0000
0220
0000
,  // measure 64
0000
0000
0000
0330
,  // measure 65
0001
1000
0100
1000
0001
0000
0000
0000
1000
0000
0100
0000
0001
0000
0100
0000
,  // measure 66
0010
0000
0001
0000
1000
0000
0001
0000
1000
0010
1000
0000
0001
0000
1000
0000
,  // measure 67
0001
0010
0001
0000
1000
0000
0100
0000
1000
0000
0010
0100
0000
0010
1000
0000
,  // measure 68
0001
0010
0100
0010
0000
0010
0001
0000
1000
0000
0100
0010
0000
0100
1000
0000
,  // measure 69
0001
0100
0010
0100
0000
0100
0001
0000
1000
0000
0010
0000
0001
0000
0010
0100
,  // measure 70
0001
0000
1000
0000
1001
0000
0000
0000
0001
0010
0001
0000
1000
0100
1000
0000
,  // measure 71
0001
0100
0010
1000
1010
0000
0101
0000
,  // measure 72
1100
0000
0000
0000
0011
0000
0000
0000
1000
0100
1000
0000
0001
0010
0001
0000
,  // measure 73
1000
0001
0010
0000
0110
0000
0000
0000
0010
0000
0001
0000
0100
0000
1000
0000
,  // measure 74
0100
0000
0010
0000
1000
0000
0001
0000
1000
0010
1000
0000
0010
0000
0001
0010
,  // measure 75
0100
0001
1000
0001
0010
0000
0011
0000
,  // measure 76
1000
0100
0010
0001
0000
1000
0001
0000
0100
0000
0010
1000
0000
0001
1000
0000
,  // measure 77
0001
0010
0100
1000
0000
0001
1000
0000
0001
0000
0100
0000
1000
0000
0100
0010
,  // measure 78
1000
0000
0001
0000
1001
0000
0000
0000
1000
0100
1000
0000
0001
0010
0001
0000
,  // measure 79
1000
0010
0100
0001
1000
0001
0000
0001
0100
0000
0100
0000
0000
0000
0001
0000
,  // measure 80
0001
0000
0001
0000
0001
0000
0000
0000
1000
0000
0001
0100
0000
1000
0000
0100
,  // measure 81
0000
0001
0010
0000
0000
0000
0000
0000
0000
0000
0000
0000
0000
0000
0000
0000
;
