#TITLE:Night Drive;
#SUBTITLE:;
#ARTIST:Teminite;
#TITLETRANSLIT:;
#SUBTITLETRANSLIT:;
#ARTISTTRANSLIT:;
#GENRE:;
#CREDIT:;
#BANNER:Night Drive.png;
#BACKGROUND:Night Drive-bg.png;
#LYRICSPATH:;
#CDTITLE:;
#MUSIC:Night Drive.mp3;
#OFFSET:-0.040000;
#SAMPLESTART:40.063999;
#SAMPLELENGTH:15.980999;
#SELECTABLE:YES;
#BPMS:0.000000=119.988998
;
#STOPS:
;
#BGCHANGES:;
#KEYSOUNDS:;
#ATTACKS:;

//---------------dance-single - ----------------
#NOTES:
     dance-single:
     Shortysnmn2010:
     Beginner:
     3:
     0.102255,0.147468,0.025872,0.103487,0.000000,83.000000,80.000000,3.000000,12.000000,0.000000,0.000000,0.102255,0.147468,0.025872,0.103487,0.000000,83.000000,80.000000,3.000000,12.000000,0.000000,0.000000:
// measure 0
0000
0000
0000
0000
,  // measure 1
0000
0000
0000
0000
,  // measure 2
0000
0000
0000
0000
,  // measure 3
0000
0000
0000
0000
,  // measure 4
1000
0000
0100
0000
,  // measure 5
0001
0000
0000
0000
,  // measure 6
0001
0000
0100
0000
,  // measure 7
1000
0000
0000
0000
,  // measure 8
0020
0000
0030
0000
,  // measure 9
0100
0000
0100
0000
,  // measure 10
0100
0000
0000
0000
,  // measure 11
0110
0000
0000
0000
,  // measure 12
0002
0000
0003
0000
,  // measure 13
1000
0000
0100
0000
,  // measure 14
1000
0000
0000
0000
,  // measure 15
1001
0000
0000
0000
,  // measure 16
0001
0000
0010
0000
,  // measure 17
0001
0000
0010
0000
,  // measure 18
0001
0000
1000
0000
,  // measure 19
0100
0000
0000
0000
,  // measure 20
0100
0000
1000
0000
,  // measure 21
0100
0000
1000
0000
,  // measure 22
0001
0000
0010
0000
,  // measure 23
0100
0000
0000
0000
,  // measure 24
1000
0000
0001
0000
,  // measure 25
1000
0000
0001
0000
,  // measure 26
0010
0000
0001
0000
,  // measure 27
0100
0000
0000
0000
,  // measure 28
0001
0000
1000
0000
,  // measure 29
0001
0000
1000
0000
,  // measure 30
0100
0000
1000
0000
,  // measure 31
0010
0000
0000
0000
,  // measure 32
0200
0000
0300
0000
,  // measure 33
0002
0000
0003
0000
,  // measure 34
2000
0000
3000
0000
,  // measure 35
0020
0000
0030
0000
,  // measure 36
2000
0000
3000
0000
,  // measure 37
0200
0000
0300
0000
,  // measure 38
0002
0000
0003
0000
,  // measure 39
0200
0000
0300
0000
,  // measure 40
1000
0000
1000
0000
,  // measure 41
1000
0000
0000
0000
,  // measure 42
0010
0000
0010
0000
,  // measure 43
0100
0000
0000
0000
,  // measure 44
0001
0000
0001
0000
,  // measure 45
0001
0000
0000
0000
,  // measure 46
0010
0000
0010
0000
,  // measure 47
0100
0000
0000
0000
,  // measure 48
1000
0000
0100
0000
,  // measure 49
0001
0000
0100
0000
,  // measure 50
0100
0000
1000
0000
,  // measure 51
0010
0000
0000
0000
,  // measure 52
0010
0000
1000
0000
,  // measure 53
1000
0000
0001
0000
,  // measure 54
0100
0000
0100
0000
,  // measure 55
0100
0000
0010
0000
,  // measure 56
2002
0000
0000
0000
,  // measure 57
3003
0000
0000
0000
;

//---------------dance-single - ----------------
#NOTES:
     dance-single:
     Shortysnmn2010:
     Hard:
     11:
     0.441050,0.570255,0.215597,0.146606,0.362203,358.000000,333.000000,25.000000,17.000000,0.000000,0.000000,0.441050,0.570255,0.215597,0.146606,0.362203,358.000000,333.000000,25.000000,17.000000,0.000000,0.000000:
// measure 0
0000
0000
0000
0000
,  // measure 1
0000
0000
0000
0000
,  // measure 2
0000
0000
0000
0000
,  // measure 3
0000
0000
0000
0000
,  // measure 4
1000
0000
0100
0000
0010
0000
0001
0000
0010
0001
0000
0010
0000
0000
0000
0000
,  // measure 5
0100
0000
1000
0000
0001
0000
0100
0000
0010
0100
0000
0010
0000
0000
0000
0000
,  // measure 6
1000
0000
0001
0000
1000
0000
0100
0000
0010
0100
0000
1000
0000
0000
0000
0000
,  // measure 7
0000
0101
0000
1001
0000
1000
0100
1000
,  // measure 8
0010
0000
0000
0000
0100
0001
0000
0100
0000
0010
0000
1000
0000
0000
0000
0000
,  // measure 9
0100
1000
0000
0001
0000
0010
0000
1000
0000
0010
0000
0020
0000
0000
0030
0000
,  // measure 10
0000
0000
0100
0000
1000
0100
0000
1000
0000
0010
0000
0010
0000
0000
0100
0000
,  // measure 11
0101
0000
0010
0000
1010
0000
0100
0000
0101
0000
0010
0000
1010
0000
1000
0001
,  // measure 12
0000
0000
0000
0000
0010
0001
0000
1000
0000
0100
0000
1000
0000
0000
0000
0000
,  // measure 13
0010
0100
0000
0001
0000
0010
0000
0001
0000
0100
0000
0200
0000
0000
0300
0000
,  // measure 14
0000
0000
0010
0000
1000
0001
0000
1000
0000
0100
0000
0010
0000
0000
0100
0000
,  // measure 15
1100
0000
0010
0000
0011
0000
0100
0000
1100
0000
0010
0000
0011
0000
0001
1000
,  // measure 16
0001
0000
0100
0000
0010
0000
0100
0000
0001
0100
0000
0001
0000
0000
0000
0000
,  // measure 17
1000
0000
0010
0000
0100
0000
0010
0000
1000
0100
0000
1000
0000
0000
0000
0000
,  // measure 18
0100
0000
0010
0000
0100
0000
1000
0000
0010
0100
0000
0010
0000
0000
0000
0000
,  // measure 19
0000
1010
0000
1001
0000
0001
0100
0010
,  // measure 20
0100
0000
0001
0000
0010
0000
0001
0000
0100
0001
0000
0010
0000
0000
0000
0000
,  // measure 21
0100
0000
1000
0000
0010
0000
1000
0000
0100
1000
0000
0010
0000
0000
0000
0000
,  // measure 22
0100
0000
1000
0000
0100
0000
0001
0000
0100
1000
0000
0100
0000
0000
0000
0000
,  // measure 23
0000
0110
0000
1010
0000
0001
0010
0100
,  // measure 24
1000
0000
0010
0000
0100
0000
0000
0000
0001
0100
0000
0101
0000
0000
0000
0000
,  // measure 25
0001
0000
0010
0000
0100
0000
0000
0000
1000
0100
0000
1100
0000
0000
0000
0000
,  // measure 26
1000
0000
0010
0000
0100
0000
0000
0000
0010
0100
0000
0110
0000
0000
0000
0000
,  // measure 27
0000
0101
0000
0110
0000
1000
0001
1000
,  // measure 28
0100
0000
0010
0000
0100
0000
0000
0000
1000
0010
0000
0101
0000
0000
0000
0000
,  // measure 29
0010
0000
1000
0000
0100
0000
0000
0000
1000
0100
0000
0011
0000
0000
0000
0000
,  // measure 30
0001
0000
1000
0000
0001
0000
0100
0000
0001
0010
0000
0001
0000
0010
0100
0010
,  // measure 31
0100
1000
0100
1000
0100
0010
0100
0010
0100
0000
1000
0000
0010
0000
0100
0000
,  // measure 32
0002
0000
0000
0003
0000
1000
0100
0020
,  // measure 33
0000
0000
0000
0030
0000
0100
1000
0020
,  // measure 34
0000
0000
0030
0000
0100
0001
1000
0010
,  // measure 35
0000
1000
0001
0010
0000
1000
0010
0001
,  // measure 36
2000
0000
0000
3000
0000
0010
0100
0002
,  // measure 37
0000
0000
0000
0003
0000
1000
0100
1000
,  // measure 38
0000
2020
0000
0000
3030
0000
0100
0001
,  // measure 39
0000
0010
0001
0100
0000
0001
0010
0100
,  // measure 40
2000
0000
0100
0000
3100
0010
0001
0010
,  // measure 41
0200
0000
0010
0000
0310
0001
1000
0001
,  // measure 42
0200
0000
0010
0000
0310
1000
0001
0100
,  // measure 43
0000
0001
0010
0100
0000
0001
0100
1000
,  // measure 44
0020
0000
0100
0000
0130
0001
1000
0001
,  // measure 45
0020
0000
0100
0000
0130
1000
0010
1000
,  // measure 46
0000
2002
0000
0000
3003
0000
0001
0100
,  // measure 47
0000
0001
0010
1000
0000
0010
0100
0010
,  // measure 48
0001
0000
0100
0000
0001
0000
1000
0000
0100
0010
0000
0010
0000
0000
0000
0000
,  // measure 49
0100
0000
1000
0000
0010
0000
1000
0000
0100
1000
0000
1000
0000
0000
0000
0000
,  // measure 50
0001
0000
0010
0000
1000
0000
0010
0000
0001
1000
0000
1000
0000
0000
0000
0000
,  // measure 51
0000
1010
0000
0101
0000
0001
0010
0100
,  // measure 52
1000
0000
0001
0000
0100
0000
1000
0000
0100
0001
0000
0001
0000
0000
0000
0000
,  // measure 53
1000
0000
0100
0000
0010
0000
1000
0000
0010
0001
0000
0001
0000
0000
0000
0000
,  // measure 54
1000
0000
0010
0000
1000
0000
0001
0000
1000
0100
0000
0010
0000
0100
1000
0100
,  // measure 55
1000
0001
1000
0001
0100
0001
0100
0001
0010
0000
0100
0000
1000
0000
0010
0000
,  // measure 56
0200
0000
0000
0000
,  // measure 57
0000
0000
0300
0000
;

//---------------dance-single - ----------------
#NOTES:
     dance-single:
     Shortysnmn2010:
     Challenge:
     14:
     0.654183,0.669429,0.086239,0.267340,0.802021,531.000000,521.000000,10.000000,31.000000,0.000000,0.000000,0.654183,0.669429,0.086239,0.267340,0.802021,531.000000,521.000000,10.000000,31.000000,0.000000,0.000000:
// measure 0
0000
0000
0000
0000
,  // measure 1
0000
0000
0000
0000
,  // measure 2
0000
0000
0000
0000
,  // measure 3
0000
0000
0000
0000
,  // measure 4
1000
0001
0100
0000
0001
0000
0010
0000
0001
0100
0000
0010
0100
0001
1000
0100
,  // measure 5
0010
0000
0100
0000
1000
0000
0000
0000
0010
0000
0000
0000
1000
0000
0000
0000
0100
0000
0010
0000
0000
0000
0100
1000
0000
0000
1000
0000
0100
0000
0010
0000
,  // measure 6
1000
0010
0100
0000
1000
0000
0001
0000
0100
0010
0000
0100
0001
1000
0100
0010
,  // measure 7
0100
1000
0020
0000
0130
0001
2000
0000
3100
0010
0001
1000
0001
1000
0010
0100
,  // measure 8
0001
0000
0000
0000
1000
0100
0000
0010
0000
0001
0000
1001
0000
0000
0000
0000
,  // measure 9
0001
0100
0000
1000
0000
0100
0000
0002
0000
0010
0000
0013
0000
0000
0000
0000
,  // measure 10
0000
0000
0010
0000
0100
1000
0000
0010
0000
1000
0000
1100
0000
0000
0010
0000
,  // measure 11
0110
0000
0100
1000
0001
0000
0100
0010
0100
0000
0001
0010
0100
1000
0100
0010
,  // measure 12
0001
0000
0000
0000
0100
1000
0000
0100
0000
0001
0000
0011
0000
0000
0000
0000
,  // measure 13
0100
1000
0000
0010
0000
0100
0000
0020
0000
1000
0000
1030
0000
0000
0000
0000
,  // measure 14
0000
0000
0001
0000
0010
1000
0000
0010
0000
0100
0000
0110
0000
0000
0001
0000
,  // measure 15
1001
0000
1000
0100
0010
0000
0001
0010
0100
0000
1000
0001
0100
0001
1000
0010
,  // measure 16
0100
0001
1000
0000
0100
0000
0010
0000
0100
1000
0000
0010
0100
0010
1000
0100
,  // measure 17
0010
0000
0100
0000
1000
0000
0000
0000
0001
0000
0000
0000
0100
0000
0000
0000
0010
0000
0100
0000
0000
0000
0001
0100
0000
0000
0001
0000
0010
0000
0100
0000
,  // measure 18
1000
0010
1000
0000
0001
0000
0100
0000
1000
0100
0000
0001
1000
0001
0010
0100
,  // measure 19
1000
0100
2000
0000
3001
0010
0002
0000
0103
0010
1000
0010
0100
0001
1000
0100
,  // measure 20
0010
0100
0010
0000
0001
0000
1000
0000
0010
0100
0000
0010
1000
0010
0100
0001
,  // measure 21
1000
0000
0100
0000
1000
0000
0000
0000
0001
0000
0000
0000
0010
0000
0000
0000
1000
0000
0010
0000
0000
0000
0100
1000
0000
0000
0100
0000
1000
0000
0100
0000
,  // measure 22
0010
0001
1000
0000
0010
0000
1000
0000
0001
0100
0000
0010
0100
0001
1000
0001
,  // measure 23
0100
0010
0200
0000
0310
1000
0020
0000
0130
0001
1000
0001
0010
0100
1000
0010
,  // measure 24
0100
0100
0001
0000
0010
0000
0001
0000
0100
0010
0000
1000
0010
1000
0001
0100
,  // measure 25
0010
0000
0010
0000
1000
0000
0000
0000
0100
0000
0000
0000
1000
0000
0000
0000
0001
0000
0100
0000
0000
0000
0010
0100
0000
0000
0010
0000
1000
0000
0010
0000
,  // measure 26
0100
0100
0010
0000
1000
0000
0001
0000
0010
0001
0000
0010
1000
0010
0100
0010
,  // measure 27
0001
1000
0002
0000
1003
0010
2000
0000
3001
0010
0100
0010
0001
0100
0010
1000
,  // measure 28
0010
0010
0100
0000
0001
0000
0010
0000
0001
0100
0000
0010
0100
0010
0100
0001
,  // measure 29
1000
0000
1000
0000
0100
0000
0000
0000
0010
0000
0000
0000
0100
0000
0000
0000
1000
0000
0010
0000
0000
0000
0100
0010
0000
0000
0100
0000
0010
0000
0100
0000
,  // measure 30
0002
0000
0010
0003
0002
0000
0100
0003
0001
0010
0000
0011
0000
0010
0001
1000
,  // measure 31
0010
0100
0010
0100
0001
1000
0001
1000
0100
0000
0010
0000
0001
0000
1000
0000
,  // measure 32
0020
0100
0100
1000
0130
0001
1000
0100
,  // measure 33
0020
0001
0001
0100
0031
1000
0100
0010
,  // measure 34
0002
1000
1000
0100
1003
0010
0100
0010
,  // measure 35
0000
1000
0001
1000
0000
0100
0010
0100
,  // measure 36
2000
0010
0010
0001
3010
0100
0001
0010
,  // measure 37
0002
0100
0100
1000
0103
0010
1000
0001
,  // measure 38
1000
0200
0000
0000
0000
0000
0001
0301
,  // measure 39
0000
0100
1000
1010
0000
0100
0001
1000
,  // measure 40
0020
0100
0100
1000
0130
0001
1000
0100
,  // measure 41
0020
0100
0100
1000
0130
1000
0001
0100
,  // measure 42
0020
0100
0100
0001
0130
0001
0010
0001
,  // measure 43
0000
1000
0100
1000
0000
0010
0100
0010
,  // measure 44
2000
0001
0001
0010
3001
0100
0010
0100
,  // measure 45
0002
0010
0010
1000
0013
0100
1000
0010
,  // measure 46
0100
0002
0000
0000
0000
0000
1000
1003
,  // measure 47
0000
0001
0010
0011
0000
0001
0010
0001
,  // measure 48
1000
0001
0100
0000
1000
0000
0100
0000
0001
1000
0000
0001
0010
0001
1000
0001
,  // measure 49
1000
0000
0100
0000
1000
0000
0000
0000
0010
0000
0000
0000
0100
0000
0000
0000
0001
0000
0100
0000
0000
0000
0001
0010
0000
0000
0001
0000
0010
0000
0001
0000
,  // measure 50
1000
0100
1000
0000
0010
0000
0100
0000
0010
1000
0000
0100
1000
0100
0010
0001
,  // measure 51
1000
0100
0020
0000
0031
0010
0200
0000
1300
0100
0010
0001
1000
0001
0100
0010
,  // measure 52
1000
0001
1000
0000
0100
0000
0010
0000
0001
1000
0000
0001
0100
0010
0100
0001
,  // measure 53
1000
0000
0001
0000
1000
0000
0000
0000
0100
0000
0000
0000
0010
0000
0000
0000
1000
0000
0010
0000
0000
0000
0100
1000
0000
0000
0001
0000
1000
0000
0100
0000
,  // measure 54
0020
0000
0001
0030
0020
0000
0100
0030
0010
0001
0000
1001
0000
1000
0010
1000
,  // measure 55
0100
0010
0001
1000
0001
0100
0010
1000
0002
0000
0100
0000
2003
0000
0010
0000
,  // measure 56
0002
0000
0000
0000
,  // measure 57
0000
0000
3003
0000
;

//---------------dance-single - ----------------
#NOTES:
     dance-single:
     Shortysnmn2010:
     Easy:
     4:
     0.205741,0.272730,0.181102,0.103487,0.000000,167.000000,146.000000,21.000000,12.000000,0.000000,0.000000,0.205741,0.272730,0.181102,0.103487,0.000000,167.000000,146.000000,21.000000,12.000000,0.000000,0.000000:
// measure 0
0000
0000
0000
0000
,  // measure 1
0000
0000
0000
0000
,  // measure 2
0000
0000
0000
0000
,  // measure 3
0000
0000
0000
0000
,  // measure 4
1000
0001
0100
0000
,  // measure 5
0010
1000
0100
0000
,  // measure 6
1000
0001
0100
0000
,  // measure 7
0000
0010
0000
0010
0000
0020
0000
0030
,  // measure 8
1000
1000
0000
0000
,  // measure 9
0001
0010
0100
1000
,  // measure 10
0001
0001
0000
0000
,  // measure 11
0010
0110
0100
0110
,  // measure 12
0010
0010
0000
0000
,  // measure 13
0001
0100
0010
1000
,  // measure 14
0001
0001
0000
0000
,  // measure 15
1000
1001
0001
1001
,  // measure 16
1000
0100
1000
0000
,  // measure 17
0001
0010
0001
0000
,  // measure 18
0100
0010
0100
0000
,  // measure 19
0000
0001
0000
0001
0000
0002
0000
0003
,  // measure 20
1100
0100
0010
0000
,  // measure 21
0001
0100
0010
0000
,  // measure 22
1010
0010
0100
0000
,  // measure 23
0000
0010
0000
0010
0000
0020
0000
0030
,  // measure 24
0101
0010
1000
0000
,  // measure 25
0100
0010
0100
0000
,  // measure 26
1100
0010
0001
0000
,  // measure 27
0000
1000
0000
1000
0000
2000
0000
3000
,  // measure 28
0110
0001
0100
0000
,  // measure 29
0010
1000
0100
0000
,  // measure 30
0110
0100
1000
0010
,  // measure 31
0100
0001
1000
0001
,  // measure 32
0200
0000
0300
0010
,  // measure 33
0020
0000
0030
1000
,  // measure 34
2000
0000
3000
0001
,  // measure 35
0010
0000
0100
0000
,  // measure 36
2000
0000
3000
0001
,  // measure 37
0002
0000
0003
0100
,  // measure 38
0200
0000
0000
0010
,  // measure 39
0010
0000
0010
0000
,  // measure 40
0310
0000
0000
0110
,  // measure 41
1001
0000
0000
1001
,  // measure 42
0110
0000
0100
0001
,  // measure 43
0010
0000
0001
0000
,  // measure 44
0010
0000
0000
0100
,  // measure 45
0100
0000
0000
1000
,  // measure 46
1000
0000
0010
0000
,  // measure 47
0100
0000
0001
0000
,  // measure 48
1010
1000
1000
0000
,  // measure 49
0101
0001
0001
0000
,  // measure 50
1100
1000
1000
0000
,  // measure 51
0000
0010
0000
0010
0000
0010
0000
0000
,  // measure 52
0110
0100
0100
0000
,  // measure 53
0101
0001
0010
0000
,  // measure 54
1100
1000
0001
1000
,  // measure 55
0100
0010
0001
0100
,  // measure 56
2002
0000
0000
0000
,  // measure 57
0000
0000
3003
0000
;

//---------------dance-single - ----------------
#NOTES:
     dance-single:
     Shortysnmn2010:
     Medium:
     8:
     0.319084,0.394974,0.129358,0.181102,0.000000,259.000000,244.000000,15.000000,21.000000,0.000000,0.000000,0.319084,0.394974,0.129358,0.181102,0.000000,259.000000,244.000000,15.000000,21.000000,0.000000,0.000000:
// measure 0
0000
0000
0000
0000
,  // measure 1
0000
0000
0000
0000
,  // measure 2
0000
0000
0000
0000
,  // measure 3
0000
0000
0000
0000
,  // measure 4
1000
0100
0010
0000
0100
0000
1000
0000
,  // measure 5
0001
0100
0010
0000
0100
0000
0001
0000
,  // measure 6
1000
0001
1000
0000
0001
0000
0010
0000
,  // measure 7
0000
0100
0000
0010
0000
0100
0000
0000
,  // measure 8
1000
0000
2200
0000
0000
3300
0000
0000
,  // measure 9
0010
0001
0100
0100
,  // measure 10
0010
0000
2002
0000
0000
3003
0000
0100
,  // measure 11
0010
0100
0010
0100
0010
0100
0010
0100
,  // measure 12
0001
0000
0022
0000
0000
0033
0000
0000
,  // measure 13
0100
1000
0010
0100
,  // measure 14
0010
0000
0220
0000
0000
0330
0000
1000
,  // measure 15
0001
1000
0001
1000
0001
1000
0001
1000
,  // measure 16
0100
0010
0001
0000
0100
0000
0101
0000
,  // measure 17
0001
0010
0100
0000
1000
0000
1010
0000
,  // measure 18
1000
0001
1000
0000
0100
0000
0110
0000
,  // measure 19
0000
0001
0000
0010
0000
0001
0000
0000
,  // measure 20
1000
0010
0100
0000
0001
0000
0101
0000
,  // measure 21
0100
0001
1000
0000
0100
0000
1100
0000
,  // measure 22
1000
0001
0010
0000
0100
0000
0110
0000
,  // measure 23
0000
0100
0000
1000
0000
0100
0000
0000
,  // measure 24
0010
0001
0010
0001
0010
0000
0100
0000
,  // measure 25
1000
0001
1000
0001
1000
0000
0100
0000
,  // measure 26
0010
1000
0010
1000
0010
0000
0100
0000
,  // measure 27
0000
1000
0000
0001
0000
1000
0000
0000
,  // measure 28
0001
0100
0001
0100
0001
0000
0100
0000
,  // measure 29
0010
1000
0010
1000
0010
0000
0100
0000
,  // measure 30
0001
1000
0001
1000
0001
0010
0001
0000
,  // measure 31
1000
0100
0001
0100
,  // measure 32
2000
0000
0000
3000
0000
0001
0010
0002
,  // measure 33
0000
0000
0000
0003
0000
1000
0100
2000
,  // measure 34
0000
0000
3000
0000
0010
0100
0010
0100
,  // measure 35
0000
0010
0100
0010
0000
1000
0010
1000
,  // measure 36
0020
0000
0000
0030
0000
0100
0001
0020
,  // measure 37
0000
0000
0000
0030
0000
0100
1000
0001
,  // measure 38
0000
0020
0000
0000
0030
0000
0001
0010
,  // measure 39
0000
0001
0010
0001
0000
0010
0100
0010
,  // measure 40
0200
0000
0000
0300
0000
1000
0100
2000
,  // measure 41
0000
0000
0000
3000
0000
0001
0100
0002
,  // measure 42
0000
0000
0003
0000
0010
0100
0010
0100
,  // measure 43
0000
1000
0100
1000
0000
0100
0010
0100
,  // measure 44
2000
0000
0000
3000
0000
0010
0100
0002
,  // measure 45
0000
0000
0000
0003
0000
1000
0010
1000
,  // measure 46
0000
0200
0000
0000
0300
0000
0010
0100
,  // measure 47
0000
0010
0001
0010
0000
0100
0010
0100
,  // measure 48
1000
0010
0100
0000
0001
0000
1100
0000
,  // measure 49
0010
0001
0100
0000
0001
0000
0110
0000
,  // measure 50
1000
0001
0010
0000
0100
0000
1001
0000
,  // measure 51
0000
0010
0000
0100
0000
0010
0000
0000
,  // measure 52
0100
1000
0010
1000
0100
0000
0110
0000
,  // measure 53
0010
0001
0100
0001
0010
0000
0110
0000
,  // measure 54
0100
1000
0001
1000
0100
1000
0001
0000
,  // measure 55
0010
0100
0010
0100
1000
0001
1000
0001
,  // measure 56
0200
0000
0000
0000
,  // measure 57
0000
0300
0000
0000
;
