#VERSION:0.83;
#TITLE:Next Generation;
#SUBTITLE:;
#ARTIST:lee ium;
#TITLETRANSLIT:;
#SUBTITLETRANSLIT:;
#ARTISTTRANSLIT:;
#GENRE:;
#ORIGIN:;
#CREDIT:;
#BANNER:ngbanner.png;
#BACKGROUND:ng.png;
#PREVIEWVID:;
#JACKET:ngjacket.png;
#CDIMAGE:;
#DISCIMAGE:;
#LYRICSPATH:;
#CDTITLE:;
#MUSIC:Next Generation.ogg;
#OFFSET:0.000000;
#SAMPLESTART:90.351822;
#SAMPLELENGTH:11.294174;
#SELECTABLE:YES;
#DISPLAYBPM:*;
#BPMS:0.000=170.000;
#STOPS:62.500=0.529,
70.500=0.088,
78.500=0.088,
86.500=0.088,
94.500=0.088,
102.500=0.088,
110.500=0.088,
179.000=0.706,
187.000=0.353,
206.000=0.353,
225.000=0.353,
244.000=0.353,
263.000=0.353,
294.000=0.353,
313.000=0.353,
332.000=0.353,
351.000=0.353,
370.000=0.353,
488.000=0.353,
496.000=0.353,
559.000=0.353,
590.000=0.353,
609.000=0.353,
632.000=0.353;
#DELAYS:;
#WARPS:62.500=8.000,
70.500=8.000,
78.500=8.000,
86.500=8.000,
94.500=8.000,
102.500=8.000,
110.500=8.000,
179.000=8.000,
187.000=8.000,
198.000=8.000,
206.000=8.000,
217.000=8.000,
225.000=8.000,
236.000=8.000,
244.000=8.000,
255.000=8.000,
263.000=8.000,
286.000=8.000,
294.000=8.000,
305.000=8.000,
313.000=8.000,
324.000=8.000,
332.000=8.000,
343.000=8.000,
351.000=8.000,
362.000=8.000,
370.000=8.000,
488.000=8.000,
496.000=8.000,
551.000=8.000,
559.000=8.000,
582.000=8.000,
590.000=8.000,
601.000=8.000,
609.000=8.000,
624.000=8.000,
632.000=8.000;
#TIMESIGNATURES:0.000=4=4;
#TICKCOUNTS:0.000=4;
#COMBOS:0.000=1;
#SPEEDS:0.000=1.000=0.000=0,
61.500=1000.000=1.000=0,
62.500=1.000=4.000=0,
424.000=0.500=4.000=0,
439.000=2.000=4.000=0,
453.000=1.500=4.000=0,
456.000=1.000=1.000=0;
#SCROLLS:0.000=1.000,
15.000=0.000,
15.500=2.000,
16.000=1.000,
29.500=1.800,
31.000=1.600,
31.250=1.400,
31.500=1.200,
31.750=1.000,
32.000=0.500,
33.500=1.000,
34.250=1.250,
35.000=2.000,
38.000=0.500,
41.500=1.000,
42.250=1.250,
43.000=1.500,
43.750=2.000,
46.000=0.500,
50.000=1.000,
50.750=1.250,
51.500=2.000,
54.000=0.500,
57.500=1.000,
58.250=1.250,
59.000=1.500,
59.750=1.750,
61.500=0.001,
62.000=0.005,
62.500=1.000,
119.250=1.250,
120.000=2.000,
123.000=0.500,
125.000=0.750,
126.500=1.000,
127.250=1.250,
128.000=1.500,
128.750=2.000,
130.500=1.000,
131.000=0.500,
135.000=1.000,
135.750=1.250,
136.500=2.000,
139.000=0.500,
142.500=1.000,
143.250=1.250,
144.000=1.500,
144.750=1.750,
146.500=2.000,
147.333=1.500,
149.000=1.000,
164.000=2.000,
164.333=1.500,
164.667=1.000,
392.000=3.000,
392.333=2.000,
392.667=1.000,
393.000=0.500,
393.333=0.250,
393.500=0.000,
393.667=0.250,
394.000=0.500,
394.333=1.000,
394.667=2.000,
395.000=3.000,
395.021=1.000,
396.000=2.000,
399.000=1.000,
404.750=1.750,
407.000=1.000,
412.500=1.750,
415.000=1.000,
420.750=1.500,
422.500=1.750,
425.000=0.500,
456.000=2.000,
456.333=0.500,
456.667=1.000,
457.500=2.000,
457.667=0.500,
457.833=1.000,
458.500=2.000,
458.667=0.500,
458.833=1.000,
459.500=2.000,
459.667=0.500,
459.833=1.000,
460.500=2.000,
460.667=0.500,
460.833=1.000,
461.500=2.000,
461.667=0.500,
461.833=1.000,
462.500=2.000,
462.667=0.500,
462.833=1.000,
463.500=2.000,
463.667=0.500,
463.833=1.000,
464.500=2.000,
464.667=0.500,
464.833=1.000,
465.500=2.000,
465.667=0.500,
465.833=1.000,
466.500=2.000,
466.667=0.500,
466.833=1.000,
467.500=2.000,
467.667=0.500,
467.833=1.000,
468.500=2.000,
468.667=0.500,
468.833=1.000,
469.500=2.000,
469.667=0.500,
469.833=1.000,
470.500=2.000,
470.667=0.500,
470.833=1.000,
471.500=2.000,
471.667=0.500,
471.833=1.000,
472.500=2.000,
472.667=0.500,
472.833=1.000,
473.500=2.000,
473.667=0.500,
473.833=1.000,
474.500=2.000,
474.667=0.500,
474.833=1.000,
475.500=2.000,
475.667=0.500,
475.833=1.000,
476.500=2.000,
476.667=0.500,
476.833=1.000,
477.500=2.000,
477.667=0.500,
477.833=1.000,
478.500=2.000,
478.667=0.500,
478.833=1.000,
479.500=2.000,
479.667=0.500,
479.833=1.000,
480.500=2.000,
480.667=0.500,
480.833=1.000,
481.500=2.000,
481.667=0.500,
481.833=1.000,
482.500=2.000,
482.667=0.500,
482.833=1.000,
483.500=2.000,
483.667=0.500,
483.833=1.000,
484.500=2.000,
484.667=0.500,
484.833=1.000,
485.500=2.000,
485.667=0.500,
485.833=1.000,
486.500=2.000,
486.667=0.500,
486.833=1.000,
487.500=2.000,
487.667=0.500,
487.833=1.000,
504.000=2.000,
504.167=0.500,
504.333=1.000,
505.500=2.000,
505.667=0.500,
505.833=1.000,
506.500=2.000,
506.667=0.500,
506.833=1.000,
507.500=2.000,
507.667=0.500,
507.833=1.000,
508.500=2.000,
508.667=0.500,
508.833=1.000,
511.000=0.000,
511.125=2.000,
511.250=0.000,
511.375=2.000,
511.500=0.000,
511.625=2.000,
511.750=0.000,
511.875=2.000,
512.000=0.000,
512.125=2.000,
512.250=0.000,
512.375=2.000,
512.500=0.000,
512.625=2.000,
512.750=0.000,
512.875=2.000,
513.000=1.000,
513.500=2.000,
513.667=0.500,
513.833=1.000,
514.500=2.000,
514.667=0.500,
514.833=1.000,
515.500=2.000,
515.667=0.500,
515.833=1.000,
516.500=2.000,
516.667=0.500,
516.833=1.000,
530.500=1.500,
531.500=0.500,
532.000=1.500,
533.500=0.500,
537.000=1.000,
543.000=0.500,
544.000=1.000;
#FAKES:;
#LABELS:0.000=Song Start;
#BGCHANGES:;
#KEYSOUNDS:;
#ATTACKS: TIME=0.00:LEN=10.41:MODS=Beat, Overhead: TIME=33.53:LEN=10.24:MODS=Beat, Overhead: TIME=39.53:LEN=4.32:MODS=Bumpy, Overhead: TIME=79.06:LEN=5.00:MODS=Mini, Sudden, Dark, Blind, 80% Cover, Overhead, Exactv2;

//---------------dance-single - ----------------
#NOTEDATA:;
#CHARTNAME:;
#STEPSTYPE:dance-single;
#DESCRIPTION:;
#CHARTSTYLE:;
#DIFFICULTY:Challenge;
#METER:16;
#RADARVALUES:0.780289,1.969209,0.746139,0.492597,1.068500,754.000000,651.000000,103.000000,68.000000,8.000000,0.000000,0.000000,0.000000,263.000000,0.780289,1.969209,0.746139,0.492597,1.068500,754.000000,651.000000,103.000000,68.000000,8.000000,0.000000,0.000000,0.000000,263.000000;
#CREDIT:;
#DISPLAYBPM:*;
#NOTES:
// measure 0
0000
0000
0000
0000
,  // measure 1
0000
0000
0000
0000
,  // measure 2
0000
0000
0000
0000
,  // measure 3
0000
0000
0000
MMMM
,  // measure 4
0101
0000
0000
1001
0000
0000
0101
0000
0000
0001
0000
0100
0001
0100
0010
0000
,  // measure 5
1010
0000
0000
1001
0000
0000
1010
0000
0000
1000
0000
0100
1000
0100
0010
0000
,  // measure 6
0001
1000
0001
0100
0010
0000
1000
0001
1000
0100
0010
0000
0001
0100
0010
1000
,  // measure 7
0100
0010
0001
1000
0002
0000
2000
0000
0000
0000
0000
0000
0000
0000
3003
0000
,  // measure 8
0101
0000
0000
0000
0000
0000
0110
0000
0000
1010
0000
0000
2002
0000
0000
0000
,  // measure 9
0000
0000
0000
3003
0110
0000
0000
0000
,  // measure 10
0001
1000
0001
0010
0100
1000
0100
0000
0000
1100
0000
0000
0101
0000
0000
0220
,  // measure 11
0000
0000
0000
0000
0000
0330
0000
0000
1001
0000
0000
0000
0000
0000
0000
0000
,  // measure 12
1000
0100
0010
0001
1000
0010
0100
0001
0010
0000
0000
0011
0000
0000
2002
0000
,  // measure 13
0000
0000
0000
3003
0110
0000
0000
0000
,  // measure 14
0001
0100
0001
0100
0010
0000
1010
0000
0000
1100
0000
0000
0101
0000
0000
0022
,  // measure 15
0000
0000
0000
0033
0000
0000
22MM
0000
0000
0000
33MM
0000
0000
0000
0000
0000
,  // measure 16
0000
MMMM
0000
0000
0000
0000
0000
0000
0000
0000
0000
0000
0000
0000
0000
0000
0000
0000
0000
0000
0000
0000
0000
0000
0000
MMMM
0000
0000
0000
0000
0000
0000
0000
0000
0000
0000
0000
0000
0000
0000
0000
0000
0000
0000
0000
0000
0000
0000
0000
MMMM
0000
0000
0000
0000
0000
0000
0000
0000
0000
0000
0000
0000
0000
0000
0000
0000
0000
0000
0000
0000
0000
0000
0000
MMMM
0000
0000
0000
0000
0000
0000
0000
0000
0000
0000
0000
0000
0000
0000
0000
0000
0000
0000
0000
0000
0000
0000
0000
MMMM
0000
0000
0000
0000
0000
0000
0000
0000
0000
0000
0000
0000
0000
0000
0000
0000
0000
0000
0000
0000
0000
0000
0000
MMMM
0000
0000
0000
0000
0000
0000
0000
0000
0000
0000
0000
0000
0000
0000
0000
0000
0000
0000
0000
0000
0000
0000
0000
MMMM
0000
0000
0000
0000
0000
0000
0000
0000
0000
0000
0000
0000
0000
0000
0000
0000
0000
0000
0000
0000
0000
0000
0000
MMMM
0000
0000
0000
0000
0000
0000
0000
0000
0000
0000
0000
0000
0000
0000
0000
0000
0000
0000
0000
0000
0000
0000
,  // measure 17
0000
0000
0000
0000
0000
0000
0000
0000
0000
0000
0000
0000
0000
0000
0000
0000
0000
0000
0000
0000
0000
0000
0000
0000
0000
0000
0000
0000
0000
0000
0000
0000
0000
0000
0000
0000
0000
0000
0000
0000
0000
0000
0000
0000
0000
0000
0000
0000
0000
0000
0000
0000
0000
0000
0000
0000
0000
0000
0000
0000
0000
0000
0000
0000
0000
0000
0000
0000
0000
0000
0000
0000
0000
0000
0000
0000
0000
0000
0000
0000
0000
0000
0000
0000
0000
0000
0000
0000
0000
0000
0000
0000
0000
0000
0000
0000
0000
0000
0000
0000
0000
0000
0000
0000
0000
0000
0000
0000
0000
0000
0000
0000
0000
0000
0000
0000
0000
0000
0000
0000
0000
000M
0000
0000
0000
0000
0000
0000
0000
0000
0000
0000
0000
00M0
0000
0000
0000
0000
0000
0000
0000
0000
0000
0000
0000
0M00
0000
0000
0000
0000
0000
0000
0000
0000
0000
0000
0000
M000
0000
0000
0000
0000
0000
0000
0000
0000
0000
0000
0000
000M
0000
0000
0000
0000
0000
0000
0000
0000
0000
0000
0000
0000
0000
0000
0000
0000
0000
0000
0000
0000
0000
0000
,  // measure 18
0000
0M0M
0000
0000
0000
0000
0000
0000
0000
0000
0000
0000
0000
0000
0000
0000
0000
0000
0000
0000
0000
0000
0000
0000
0000
0000
0000
0000
0000
0000
0000
0000
0000
0000
0000
0000
0000
0MM0
0000
0000
0000
0000
0000
0000
0000
0000
0000
0000
0000
0000
0000
0000
0000
0000
0000
0000
0000
0000
0000
0000
0000
0000
0000
0000
0000
0000
0000
0000
0000
0000
0000
0000
0000
M0M0
0000
0000
0000
0000
0000
0000
0000
0000
0000
0000
0000
0000
0000
0000
0000
0000
0000
0000
0000
0000
0000
0000
0000
0000
0000
0000
0000
0000
0000
0000
0000
0000
0000
0000
0000
0000
0000
0000
0000
0000
0000
0000
0000
0000
0000
0000
0000
0000
0000
0000
0000
0000
0000
0000
0000
0000
0000
0000
0000
0000
0000
0000
0000
0000
0000
0000
0000
0000
0000
0000
0000
0000
0000
0000
0000
0000
0000
0000
0000
0000
0000
0000
0000
0000
0000
0000
0000
0000
0000
0000
0000
0000
0000
0000
0000
0000
0000
0000
0000
0000
0000
0000
0000
0000
0000
0000
0000
0000
0000
0000
0000
0000
0000
0000
0000
0000
0000
0000
,  // measure 19
0000
0000
0000
0000
0000
0000
0000
0000
0000
0000
0000
0000
0000
0000
0000
0000
0000
0000
0000
0000
0000
0000
0000
0000
0000
0000
0000
0000
0000
0000
0000
0000
0000
0000
0000
0000
0000
0000
0000
0000
0000
0000
0000
0000
0000
0000
0000
0000
0000
0000
0000
0000
0000
0000
0000
0000
0000
0000
0000
0000
0000
0000
0000
0000
0000
0000
0000
0000
0000
0000
0000
0000
0000
0000
0000
0000
0000
0000
0000
0000
0000
0000
0000
0000
0000
0000
0000
0000
0000
0000
0000
0000
0000
0000
0000
0000
0000
0000
0000
0000
0000
0000
0000
0000
0000
0000
0000
0000
0000
0000
0000
0000
0000
0000
0000
0000
0000
0000
0000
0000
0000
00M0
0000
0000
0000
0000
0000
0000
0000
0000
0000
0000
0000
0M00
0000
0000
0000
0000
0000
0000
0000
0000
0000
0000
0000
M000
0000
0000
0000
0000
0000
0000
0000
0000
0000
0000
0000
000M
0000
0000
0000
0000
0000
0000
0000
0000
0000
0000
0000
0000
0000
0000
0000
0000
0000
0000
0000
0000
0000
0000
0000
0M0M
0000
0000
0000
0000
0000
0000
0000
0000
0000
0000
,  // measure 20
0000
0000
0000
0000
0000
0000
0000
0000
0000
0000
0000
0000
0000
0000
0000
0000
0000
0000
0000
0000
0000
0000
0000
0000
0000
0MM0
0000
0000
0000
0000
0000
0000
0000
0000
0000
0000
0000
0000
0000
0000
0000
0000
0000
0000
0000
0000
0000
0000
0000
0000
0000
0000
0000
0000
0000
0000
0000
0000
0000
0000
0000
M0M0
0000
0000
0000
0000
0000
0000
0000
0000
0000
0000
0000
0000
0000
0000
0000
0000
0000
0000
0000
0000
0000
0000
0000
0000
0000
0000
0000
0000
0000
0000
0000
0000
0000
0000
0000
0000
0000
0000
0000
0000
0000
0000
0000
0000
0000
0000
0000
0000
0000
0000
0000
0000
0000
0000
0000
0000
0000
0000
0000
0000
0000
0000
0000
0000
0000
0000
0000
0000
0000
0000
0000
0000
0000
0000
0000
0000
0000
0000
0000
0000
0000
0000
0000
0000
0000
0000
0000
0000
0000
0000
0000
0000
0000
0000
0000
0000
0000
0000
0000
0000
0000
0000
0000
0000
0000
0000
0000
0000
0000
0000
0000
0000
0000
0000
0000
0000
0000
0000
0000
0000
0000
0000
0000
0000
0000
0000
0000
0000
0000
0000
,  // measure 21
0000
0000
0000
0000
0000
0000
0000
0000
0000
0000
0000
0000
0000
0000
0000
0000
0000
0000
0000
0000
0000
0000
0000
0000
0000
0000
0000
0000
0000
0000
0000
0000
0000
0000
0000
0000
0000
0000
0000
0000
0000
0000
0000
0000
0000
0000
0000
0000
0000
0000
0000
0000
0000
0000
0000
0000
0000
0000
0000
0000
0000
0000
0000
0000
0000
0000
0000
0000
0000
0000
0000
0000
0000
0000
0000
0000
0000
0000
0000
0000
0000
0000
0000
0000
0000
0000
0000
0000
0000
0000
0000
0000
0000
0000
0000
0000
0000
0000
0000
0000
0000
0000
0000
0000
0000
0000
0000
0000
0000
0000
0000
0000
0000
0000
0000
0000
0000
0000
0000
0000
0000
0M00
0000
0000
0000
0000
0000
0000
0000
0000
0000
0000
0000
M000
0000
0000
0000
0000
0000
0000
0000
0000
0000
0000
0000
000M
0000
0000
0000
0000
0000
0000
0000
0000
0000
0000
0000
0000
0000
0000
0000
0000
0000
0000
0000
0000
0000
0000
0000
0M0M
0000
0000
0000
0000
0000
0000
0000
0000
0000
0000
0000
0000
0000
0000
0000
0000
0000
0000
0000
0000
0000
0000
,  // measure 22
0000
0000
0000
0000
0000
0000
0000
0000
0000
0000
0000
0000
0000
0MM0
0000
0000
0000
0000
0000
0000
0000
0000
0000
0000
0000
0000
0000
0000
0000
0000
0000
0000
0000
0000
0000
0000
0000
0000
0000
0000
0000
0000
0000
0000
0000
0000
0000
0000
0000
M0M0
0000
0000
0000
0000
0000
0000
0000
0000
0000
0000
0000
0000
0000
0000
0000
0000
0000
0000
0000
0000
0000
0000
0000
0000
0000
0000
0000
0000
0000
0000
0000
0000
0000
0000
0000
0000
0000
0000
0000
0000
0000
0000
0000
0000
0000
0000
0000
0000
0000
0000
0000
0000
0000
0000
0000
0000
0000
0000
0000
0000
0000
0000
0000
0000
0000
0000
0000
0000
0000
0000
0000
0000
0000
0000
0000
0000
0000
0000
0000
0000
0000
0000
0000
0000
0000
0000
0000
0000
0000
0000
0000
0000
0000
0000
0000
0000
0000
0000
0000
0000
0000
0000
0000
0000
0000
0000
0000
0000
0000
0000
0000
0000
0000
0000
0000
0000
0000
0000
0000
0000
0000
0000
0000
0000
0000
0000
0000
0000
0000
0000
0000
0000
0000
0000
0000
0000
0000
0000
0000
0000
0000
0000
,  // measure 23
0000
0000
0000
0000
0000
0000
0000
0000
0000
0000
0000
0000
0000
0000
0000
0000
0000
0000
0000
0000
0000
0000
0000
0000
0000
0000
0000
0000
0000
0000
0000
0000
0000
0000
0000
0000
0000
0000
0000
0000
0000
0000
0000
0000
0000
0000
0000
0000
0000
0000
0000
0000
0000
0000
0000
0000
0000
0000
0000
0000
0000
0000
0000
0000
0000
0000
0000
0000
0000
0000
0000
0000
0000
0000
0000
0000
0000
0000
0000
0000
0000
0000
0000
0000
0000
0000
0000
0000
0000
0000
0000
0000
0000
0000
0000
0000
0000
0000
0000
0000
0000
0000
0000
0000
0000
0000
0000
0000
0000
0000
0000
0000
0000
0000
0000
0000
0000
0000
0000
0000
0000
M000
0000
0000
0000
0000
0000
0000
0000
0000
0000
0000
0000
000M
0000
0000
0000
0000
0000
0000
0000
0000
0000
0000
0000
0000
0000
0000
0000
0000
0000
0000
0000
0000
0000
0000
0000
0M0M
0000
0000
0000
0000
0000
0000
0000
0000
0000
0000
0000
0000
0000
0000
0000
0000
0000
0000
0000
0000
0000
0000
0000
0000
0000
0000
0000
0000
0000
0000
0000
0000
0000
0000
,  // measure 24
0000
0MM0
0000
0000
0000
0000
0000
0000
0000
0000
0000
0000
0000
0000
0000
0000
0000
0000
0000
0000
0000
0000
0000
0000
0000
0000
0000
0000
0000
0000
0000
0000
0000
0000
0000
0000
0000
M0M0
0000
0000
0000
0000
0000
0000
0000
0000
0000
0000
0000
0000
0000
0000
0000
0000
0000
0000
0000
0000
0000
0000
0000
0000
0000
0000
0000
0000
0000
0000
0000
0000
0000
0000
0000
0000
0000
0000
0000
0000
0000
0000
0000
0000
0000
0000
0000
0000
0000
0000
0000
0000
0000
0000
0000
0000
0000
0000
0000
0000
0000
0000
0000
0000
0000
0000
0000
0000
0000
0000
0000
0000
0000
0000
0000
0000
0000
0000
0000
0000
0000
0000
0000
0000
0000
0000
0000
0000
0000
0000
0000
0000
0000
0000
0000
0000
0000
0000
0000
0000
0000
0000
0000
0000
0000
0000
0000
0000
0000
0000
0000
0000
0000
0000
0000
0000
0000
0000
0000
0000
0000
0000
0000
0000
0000
0000
0000
0000
0000
0000
0000
0000
0000
0000
0000
0000
0000
0000
0000
0000
0000
0000
0000
0000
0000
0000
0000
0000
0000
0000
0000
0000
0000
0000
,  // measure 25
0000
0000
0000
0000
0000
0000
0000
0000
0000
0000
0000
0000
0000
0000
0000
0000
0000
0000
0000
0000
0000
0000
0000
0000
0000
0000
0000
0000
0000
0000
0000
0000
0000
0000
0000
0000
0000
0000
0000
0000
0000
0000
0000
0000
0000
0000
0000
0000
0000
0000
0000
0000
0000
0000
0000
0000
0000
0000
0000
0000
0000
0000
0000
0000
0000
0000
0000
0000
0000
0000
0000
0000
0000
0000
0000
0000
0000
0000
0000
0000
0000
0000
0000
0000
0000
0000
0000
0000
0000
0000
0000
0000
0000
0000
0000
0000
0000
0000
0000
0000
0000
0000
0000
0000
0000
0000
0000
0000
0000
0000
0000
0000
0000
0000
0000
0000
0000
0000
0000
0000
0000
000M
0000
0000
0000
0000
0000
0000
0000
0000
0000
0000
0000
0000
0000
0000
0000
0000
0000
0000
0000
0000
0000
0000
0000
0M0M
0000
0000
0000
0000
0000
0000
0000
0000
0000
0000
0000
0000
0000
0000
0000
0000
0000
0000
0000
0000
0000
0000
0000
0000
0000
0000
0000
0000
0000
0000
0000
0000
0000
0000
0000
0MM0
0000
0000
0000
0000
0000
0000
0000
0000
0000
0000
,  // measure 26
0000
0000
0000
0000
0000
0000
0000
0000
0000
0000
0000
0000
0000
0000
0000
0000
0000
0000
0000
0000
0000
0000
0000
0000
0000
M0M0
0000
0000
0000
0000
0000
0000
0000
0000
0000
0000
0000
0000
0000
0000
0000
0000
0000
0000
0000
0000
0000
0000
0000
0000
0000
0000
0000
0000
0000
0000
0000
0000
0000
0000
0000
0000
0000
0000
0000
0000
0000
0000
0000
0000
0000
0000
0000
0000
0000
0000
0000
0000
0000
0000
0000
0000
0000
0000
0000
0000
0000
0000
0000
0000
0000
0000
0000
0000
0000
0000
0000
0000
0000
0000
0000
0000
0000
0000
0000
0000
0000
0000
0000
0000
0000
0000
0000
0000
0000
0000
0000
0000
0000
0000
0000
0000
0000
0000
0000
0000
0000
0000
0000
0000
0000
0000
0000
0000
0000
0000
0000
0000
0000
0000
0000
0000
0000
0000
0000
0000
0000
0000
0000
0000
0000
0000
0000
0000
0000
0000
0000
0000
0000
0000
0000
0000
0000
0000
0000
0000
0000
0000
0000
0000
0000
0000
0000
0000
0000
0000
0000
0000
0000
0000
0000
0000
0000
0000
0000
0000
0000
0000
0000
0000
0000
0000
,  // measure 27
0000
0000
0000
0000
0000
0000
0000
0000
0000
0000
0000
0000
0000
0000
0000
0000
0000
0000
0000
0000
0000
0000
0000
0000
0000
0000
0000
0000
0000
0000
0000
0000
0000
0000
0000
0000
0000
0000
0000
0000
0000
0000
0000
0000
0000
0000
0000
0000
0000
0000
0000
0000
0000
0000
0000
0000
0000
0000
0000
0000
0000
0000
0000
0000
0000
0000
0000
0000
0000
0000
0000
0000
0000
0000
0000
0000
0000
0000
0000
0000
0000
0000
0000
0000
0000
0000
0000
0000
0000
0000
0000
0000
0000
0000
0000
0000
0000
0000
0000
0000
0000
0000
0000
0000
0000
0000
0000
0000
0000
0000
0000
0000
0000
0000
0000
0000
0000
0000
0000
0000
0000
0000
0000
0000
0000
0000
0000
0000
0000
0000
0000
0000
0101
0M0M
0000
0000
0000
0000
0000
0000
0000
0000
0000
0000
0000
0000
0000
0000
0000
0000
0000
0000
0000
0000
0000
0000
0000
0000
0000
0000
0000
0000
0000
0000
0000
0000
0000
0000
0110
0MM0
0000
0000
0000
0000
0000
0000
0000
0000
0000
0000
0000
0000
0000
0000
0000
0000
0000
0000
0000
0000
0000
0000
,  // measure 28
0000
0000
0000
0000
0000
0000
0000
0000
0000
0000
0000
0000
1010
M0M0
0000
0000
0000
0000
0000
0000
0000
0000
0000
0000
0000
0000
0000
0000
0000
0000
0000
0000
0000
0000
0000
0000
0000
0000
0000
0000
0000
0000
0000
0000
0000
0000
0000
0000
0000
0000
0000
0000
0000
0000
0000
0000
0000
0000
0000
0000
0000
0000
0000
0000
0000
0000
0000
0000
0000
0000
0000
0000
0000
0000
0000
0000
0000
0000
0000
0000
0000
0000
0000
0000
0000
0000
0000
0000
0000
0000
0000
0000
0000
0000
0000
0000
0000
0000
0000
0000
0000
0000
0000
0000
0000
0000
0000
0000
0000
0000
0000
0000
0000
0000
0000
0000
0000
0000
0000
0000
0000
0000
0000
0000
0000
0000
0000
0000
0000
0000
0000
0000
0000
0000
0000
0000
0000
0000
0000
0000
0000
0000
0000
0000
0000
0000
0000
0000
0000
0000
0000
0000
0000
0000
0000
0000
0000
0000
0000
0000
0000
0000
0000
0000
0000
0000
0000
0000
0000
0000
0000
0000
0000
0000
0000
0000
0000
0000
0000
0000
0000
0000
0000
0000
0000
0000
0000
0000
0000
0000
0000
0000
,  // measure 29
0000
0000
0000
0000
0000
0000
0000
0000
0000
0000
0F0F
0000
0000
0110
0000
0000
,  // measure 30
2020
0000
3030
0101
,  // measure 31
0000
0000
0000
0000
0002
0000
0000
0000
0003
0000
1100
0000
0000
1001
0000
0000
,  // measure 32
1010
0000
0000
0102
0000
0000
0000
0000
0000
0000
0010
0000
0013
0000
0000
0000
,  // measure 33
0000
0000
0000
0000
0001
0010
0100
1000
0001
0100
0010
1000
0100
0000
0000
1100
,  // measure 34
0000
0202
0000
0000
0000
0303
1010
0000
,  // measure 35
0000
0000
0000
0000
1000
0001
1000
0001
1000
0000
2002
3003
0000
0220
0330
0000
,  // measure 36
2002
0000
0000
3003
0000
0000
0000
0000
0000
0220
0000
0000
0000
0000
0000
0000
0000
0000
0000
0000
0000
0330
0000
0000
0000
0000
0000
0000
0000
0000
2002
0000
0000
0000
0000
0000
0000
0000
0000
0000
0000
0000
0000
0000
3003
0000
0000
0000
,  // measure 37
0001
0000
0010
0000
0100
0000
1000
0000
0000
0000
0000
0000
0001
0000
0000
0000
0000
0000
0100
0000
0000
0000
0000
0000
0010
0000
0000
1000
0000
0000
0000
0000
0000
0001
0000
0000
0000
0000
0000
1000
0000
0000
0010
0000
0000
0000
0000
0000
,  // measure 38
0100
0001
1000
0000
0101
1000
0101
1000
,  // measure 39
0001
0100
0001
0100
0010
0000
1000
0000
0010
1000
0000
0100
0000
1000
0010
0000
,  // measure 40
0100
0010
1100
0001
1100
0000
0110
0000
,  // measure 41
1002
0000
0000
0000
0103
0000
0010
1000
0001
0000
1000
0000
0100
0010
0001
0000
,  // measure 42
1000
0010
1000
0010
0100
0000
0001
1000
0100
0000
0010
0000
0001
1000
0010
0000
,  // measure 43
0100
0001
0100
0001
1000
0100
0010
0001
1000
0010
0100
0001
0010
0100
1000
0001
,  // measure 44
0100
0010
0100
0001
1000
0000
0000
0000
0110
0000
0000
0000
1001
0000
0101
0000
,  // measure 45
0000
0000
0001
0100
0010
0000
1010
0000
1001
0000
1000
0000
0100
0000
0000
0000
,  // measure 46
0000
0000
0000
0000
0000
0000
0000
0M0M
,  // measure 47
0000
0000
000M
0M00
00M0
0000
M0M0
0000
M00M
0000
M000
0000
0M00
0000
0000
0000
,  // measure 48
0000
0000
0000
0000
0000
0000
0000
0101
,  // measure 49
0001
0100
0010
0000
1010
0000
1001
0000
0100
0000
0000
0000
0000
0000
0000
0000
,  // measure 50
0000
0000
0000
0000
,  // measure 51
0000
0000
0000
0000
0000
0000
0000
0000
0000
0000
MM00
0000
0M00
M000
00M0
0000
,  // measure 52
0M00
0000
000M
000M
M00M
000M
0000
0000
0000
0000
0000
0000
0000
0000
0000
0000
,  // measure 53
0000
0000
0000
0000
0000
0000
0000
0000
0000
0000
1100
0000
0100
1000
0010
0000
,  // measure 54
0100
0002
1000
0003
0000
0000
0000
0000
,  // measure 55
0000
0000
0000
0000
,  // measure 56
0000
0000
0000
0000
0000
0000
M00M
0000
00MM
0000
000M
00M0
0M00
0000
M000
0000
,  // measure 57
0000
0000
0000
0000
,  // measure 58
0000
0000
0000
0000
0000
0000
1001
0000
0011
0000
0001
0010
0100
0000
1000
0000
,  // measure 59
0010
0000
0000
0000
,  // measure 60
0000
0000
0000
0000
,  // measure 61
0000
0000
M0M0
0000
0MM0
0000
000M
M000
000M
0000
0000
0000
0000
0000
0000
0000
,  // measure 62
0000
0000
0000
0000
,  // measure 63
0000
0000
1010
0000
0110
0000
0001
1000
0002
0000
0000
0000
1000
0000
0000
0000
,  // measure 64
0000
0000
0000
0000
,  // measure 65
0000
0000
0000
0000
0000
0000
1003
M00M
,  // measure 66
0MM0
0MM0
M00M
0000
0000
0000
0000
0000
,  // measure 67
0000
0000
0000
0000
,  // measure 68
0001
0010
0001
0010
0100
0010
0100
1000
0100
1000
0000
0000
,  // measure 69
1000
0000
0010
0000
0200
0000
0000
0000
0301
1000
0001
1000
0001
0000
1000
0000
,  // measure 70
0010
1000
0001
0000
0100
0000
0010
0000
1000
0000
0000
0000
0001
0000
0010
0100
,  // measure 71
1000
0001
0200
0000
0310
0000
0000
0000
,  // measure 72
0000
0000
0000
0000
,  // measure 73
0000
0000
0000
0000
0000
0000
0000
0000
0000
0000
0MM0
0000
0M00
000M
M000
0000
,  // measure 74
0M00
0000
M000
M000
M00M
0000
0000
0000
0000
0000
0000
0000
0000
0000
0000
0000
,  // measure 75
0000
0000
0000
0000
0000
0000
0000
0000
0000
0000
0110
0000
0100
0001
1000
0000
,  // measure 76
0100
2000
3001
0000
0000
0000
0000
0000
,  // measure 77
0000
0000
0000
0000
,  // measure 78
0000
0000
0000
0000
0000
0000
000M
0M00
00M0
0000
M000
0000
000M
000M
000M
000M
,  // measure 79
M00M
0000
0000
0000
,  // measure 80
0000
0000
0000
0000
0000
0000
0001
0100
0010
0000
1000
0000
0002
0000
0000
0000
,  // measure 81
1003
0000
0000
0000
,  // measure 82
0000
0000
0000
0000
,  // measure 83
0000
0000
00M0
M000
00M0
0000
0M00
0000
0M0M
0000
000M
M000
0M00
0000
0000
0000
,  // measure 84
0000
0000
0000
0000
,  // measure 85
0000
0000
0010
1000
0010
0000
0100
0000
0101
0000
0001
1000
0100
0000
0000
0000
,  // measure 86
0000
0000
0000
0000
,  // measure 87
0000
0000
0000
0000
0000
0000
0000
0M00
,  // measure 88
0MM0
0000
000M
0000
M000
M000
M000
M000
M00M
0000
0000
0000
0000
0000
0000
0000
,  // measure 89
0000
0000
0000
0000
0000
0000
0000
0100
,  // measure 90
0110
0001
2001
0000
0001
0000
0000
0000
,  // measure 91
0000
0000
0000
0000
,  // measure 92
0000
0000
0000
0000
3001
M00M
0MM0
0MM0
,  // measure 93
M00M
0000
0000
0000
,  // measure 94
0000
0000
0000
0000
0000
0000
0000
0000
0000
1000
0100
1000
,  // measure 95
0100
0000
0010
0000
0100
0000
0010
0000
0001
0000
0010
0000
0001
0000
0000
1000
0000
0000
0001
0000
0000
0100
0000
0000
,  // measure 96
0020
0000
0000
0000
1030
0000
0001
0000
0101
0000
0100
0001
1000
0000
0000
1100
,  // measure 97
0000
0000
0011
0000
0001
0000
1000
0001
1000
0000
1010
0000
0010
1000
0010
0000
,  // measure 98
0200
0000
0000
0000
0000
0000
0301
1000
,  // measure 99
0020
0000
0000
0130
,  // measure 100
0000
0000
0000
0000
0001
0100
0010
1000
0010
0100
0001
0000
0000
0101
0000
0000
,  // measure 101
0110
0000
0000
2020
0000
0000
0000
0000
3030
0000
0000
0000
0101
0000
0000
0000
,  // measure 102
0000
0000
0000
0000
1000
0100
0010
0001
0100
0010
1000
0010
0100
0000
0000
1001
,  // measure 103
0000
0022
0000
0000
0033
0000
1100
0000
,  // measure 104
0000
0000
0000
0000
1000
0100
0001
0100
1000
0000
1100
0000
0000
0101
0000
0000
,  // measure 105
1010
0000
0000
0022
0000
0000
0000
0000
0033
0000
2200
0000
0000
0000
0000
0000
,  // measure 106
3300
0000
0000
0000
1001
0000
0000
0000
0000
0000
1000
0000
0000
0010
0000
0000
,  // measure 107
0100
0000
0000
0000
,  // measure 108
0000
0000
0000
0000
0000
0000
0000
0000
0000
0000
0001
0000
0000
0100
0000
0000
,  // measure 109
0010
0000
0000
1000
0000
0000
0000
0000
0000
0000
0000
0000
0001
0000
0000
0000
,  // measure 110
0000
0000
0000
0000
1100
0000
0000
1001
0000
0000
1100
0000
0000
0100
0000
1000
,  // measure 111
0010
1000
0001
0010
0001
0000
0000
0101
0000
0000
1001
0000
0000
0101
0000
0000
,  // measure 112
0001
1000
0010
0100
0001
0010
0100
1000
0001
0100
0001
1000
0100
0010
0001
0100
,  // measure 113
0010
1000
0001
0000
0110
0000
1001
0000
0110
0000
1001
0000
1100
0000
0101
0000
,  // measure 114
2002
0000
3003
0000
1000
0010
0000
0000
0010
0100
0000
0000
0100
0001
0000
0000
,  // measure 115
0001
0010
0000
0000
0010
0100
0000
0000
0100
1000
0000
0000
1000
0010
1000
0000
,  // measure 116
0001
0100
0001
0000
0010
0001
0000
0000
0001
1000
0000
0000
1000
0010
0000
0000
,  // measure 117
0010
0100
0000
0000
0100
0001
0000
0000
0001
0010
0000
0000
0010
0100
0010
0000
,  // measure 118
0100
1000
0100
0000
1000
0010
0000
0000
0010
1000
0000
0000
1000
0001
0000
0000
,  // measure 119
0001
0100
0000
0000
0100
0001
0000
0000
0001
1000
0000
0000
0010
1000
0010
0000
,  // measure 120
0100
0001
0100
0000
0001
0010
0001
0000
0010
0100
0010
0000
0100
1000
0100
0000
,  // measure 121
1000
0001
1000
0000
0001
0100
0010
0000
1000
0100
0010
0000
0001
1000
0001
0000
,  // measure 122
0110
0000
0000
0000
1001
0000
0000
0000
1000
0010
0000
0000
0010
0100
0000
0000
,  // measure 123
0100
0001
0000
0000
0001
0010
0000
0000
0010
0000
0000
0000
0000
0000
0000
0000
,  // measure 124
0000
M00M
0000
0000
0000
0000
0000
0000
0000
0000
0000
0000
0000
0000
0000
0000
0000
0000
0000
0000
0000
0000
0000
0000
0000
0000
0000
0000
0000
0000
0000
0000
0000
0000
0000
0000
0000
0000
0000
0000
0000
0000
0000
0000
0000
0000
0000
0000
M000
0000
0000
0000
0000
0000
0000
0000
0000
0000
0000
0000
00M0
0000
0000
0000
0000
0000
0000
0000
0000
0000
0000
0000
0000
0000
0000
0000
0000
0000
0000
0000
0000
0000
0000
0000
0000
0000
0000
0000
0000
0000
0000
0000
0000
0000
0000
0000
00M0
0000
0000
0000
0000
0000
0000
0000
0000
0000
0000
0000
0M00
0000
0000
0000
0000
0000
0000
0000
0000
0000
0000
0000
0000
0000
0000
0000
0000
0000
0000
0000
0000
0000
0000
0000
0000
0000
0000
0000
0000
0000
0000
0000
0000
0000
0000
0000
0M00
0000
0000
0000
0000
0000
0000
0000
0000
0000
0000
0000
000M
0000
0000
0000
0000
0000
0000
0000
0000
0000
0000
0000
0000
0000
0000
0000
0000
0000
0000
0000
0000
0000
0000
0000
0000
0000
0000
0000
0000
0000
0000
0000
0000
0000
0000
0000
,  // measure 125
0000
0000
0000
0000
,  // measure 126
1001
0000
0000
0000
1000
0010
0000
0000
0010
0100
0000
0000
0100
0001
0000
0000
,  // measure 127
0001
0010
0000
0000
0001
0010
0001
0100
0010
1000
0100
1000
0002
0000
0000
0000
,  // measure 128
2003
0000
0000
0000
3001
0100
0000
0000
0100
0010
0000
0000
0010
1000
0000
0000
,  // measure 129
1000
0100
0000
0000
0100
0010
0001
1000
0100
0010
0001
1000
0020
0000
0000
0000
,  // measure 130
0130
0000
0001
0000
2000
0000
0000
0000
3010
0100
0001
0000
0200
0000
0000
0000
,  // measure 131
0301
1000
0100
0000
0020
0000
0032
0000
2003
0000
3020
0000
0130
0001
1000
0100
,  // measure 132
1000
0001
0100
0010
0100
0001
1000
0100
0010
0001
2000
0000
0000
0000
0000
0000
,  // measure 133
0002
0000
0000
0000
0000
0000
0000
0000
0000
0000
0000
0000
0000
0000
0000
3003
0000
0000
1000
0000
0000
0000
0001
0000
,  // measure 134
0000
0000
0000
0000
1000
0000
0000
0000
0000
0000
0000
0000
0010
0000
0000
0000
0000
0000
0100
0000
0000
0001
0000
0000
1000
0000
0000
0100
0000
0000
1000
0000
0000
0001
0000
0000
1000
0000
0100
0000
0010
0000
0001
0000
1000
0000
0100
0000
,  // measure 135
0010
0001
1000
0001
0101
0000
0200
0000
,  // measure 136
0310
0000
1000
0001
1000
0000
0001
0000
0100
0000
0010
0000
0000
0000
0000
0000
,  // measure 137
1000
0000
0100
1000
0100
0000
0010
0000
1001
0000
0000
0000
0110
0000
0000
0000
,  // measure 138
0000
0000
0000
0000
,  // measure 139
0000
0000
0000
0000
0000
0000
0000
0000
0000
0000
0000
0000
0000
0000
0000
0000
0000
0000
0000
0MM0
M00M
M00M
000M
00M0
,  // measure 140
0MM0
0M00
0000
0000
0M00
0000
0000
0000
0000
0000
0000
0000
0000
0000
0000
0000
0000
0000
0000
0000
0000
0000
0000
0000
,  // measure 141
0000
0000
0000
0000
,  // measure 142
0001
0100
0010
1000
0100
0010
0001
0100
0010
1000
0000
0000
,  // measure 143
0001
0000
1000
0000
0020
0000
0000
0000
0130
0001
0000
1000
0100
0000
1000
0010
,  // measure 144
0100
0000
0001
0000
0020
0000
0031
0000
0000
0000
0000
0000
0100
0000
0001
1000
,  // measure 145
0020
0230
0302
0000
1003
0000
0000
0000
,  // measure 146
0000
0000
0000
0000
,  // measure 147
0000
0000
0000
0000
0000
0000
0000
0000
0000
0000
0M0M
0000
0000
0000
000M
M000
,  // measure 148
00M0
0M00
000M
M000
0000
0000
0000
0000
,  // measure 149
0000
0000
0000
0000
0000
0000
0000
0000
0000
0000
0101
0000
0001
1000
0010
0000
,  // measure 150
0100
0001
1000
0000
0000
0000
0000
0000
,  // measure 151
0000
0000
0000
0000
,  // measure 152
0000
0000
0000
0000
0000
0000
M0M0
0000
00M0
M000
0M00
0000
M000
0000
000M
0000
,  // measure 153
0M00
0000
0000
0000
,  // measure 154
0000
0000
0000
0000
0000
0000
1010
0000
0010
1000
0100
0000
1000
0000
0001
0000
,  // measure 155
0200
0000
0000
0000
0310
0000
1000
0001
1000
0000
0001
0000
0100
0000
0010
0000
,  // measure 156
1000
0000
0000
0000
,  // measure 157
0000
0000
0000
0000
,  // measure 158
0000
0000
000M
0M00
M000
0000
0M00
0000
000M
0000
M000
0000
M00M
0000
0000
0000
,  // measure 159
0000
0000
0000
0000
,  // measure 160
0000
0000
0001
0100
1000
0000
0100
0000
0001
0000
1000
0000
1001
0000
0001
1000
,  // measure 161
0010
0000
1000
0000
0001
0010
0100
1000
0100
1000
0100
1000
0010
0100
0001
0010
,  // measure 162
0100
0000
1000
0000
1001
0000
0010
0000
0101
0000
0001
0000
1000
0000
0001
0100
,  // measure 163
0010
1000
0011
0110
1100
1000
0110
0100
,  // measure 164
0001
1002
0000
1003
0010
0100
0110
0000
;
