#TITLE:Neo Aspect;
#SUBTITLE:;
#ARTIST:Roselia;
#TITLETRANSLIT:;
#SUBTITLETRANSLIT:;
#ARTISTTRANSLIT:;
#GENRE:;
#CREDIT:;
#BANNER:neoaspectbn.png;
#BACKGROUND:neoaspectbg.png;
#LYRICSPATH:;
#CDTITLE:;
#MUSIC:NeoAspect.ogg;
#OFFSET:0.045000;
#SAMPLESTART:71.875000;
#SAMPLELENGTH:15.000000;
#LASTBEATHINT:345.135010;
#SELECTABLE:YES;
#BPMS:0.000000=180.000000
;
#STOPS:
;
#BGCHANGES:;
#KEYSOUNDS:;
#ATTACKS:;

//---------------dance-single - Neo Aspect Easy----------------
#NOTES:
     dance-single:
     Easy:
     Beginner:
     3:
     0.101628,0.210847,0.171421,0.179992,0.000000,83.000000,63.000000,20.000000,21.000000,0.000000,0.000000,0.101628,0.210847,0.171421,0.179992,0.000000,83.000000,63.000000,20.000000,21.000000,0.000000,0.000000:
0000
0000
0000
0000
,
0000
0000
0000
0000
,
1000
0000
0000
0000
,
1000
0000
0000
0000
,
0001
0000
0000
0000
,
0001
0000
0000
0000
,
0100
0000
0000
0000
,
0010
0000
0000
0000
,
0010
0000
0000
0000
,
0100
0000
0000
0000
,
1001
0000
0000
0000
,
0000
0000
0000
0000
,
0110
0000
0000
0000
,
0000
0000
0000
0000
,
1000
0000
0000
0000
,
0001
0000
0000
0000
,
0010
0000
0000
0000
,
0100
0000
0000
0000
,
0100
0000
0000
0000
,
0010
0000
0000
0000
,
0001
0000
0000
0000
,
1000
0000
0000
0000
,
1001
0000
0000
0000
,
0000
0000
0000
0000
,
0010
0000
0000
0000
,
0000
0000
0000
0000
,
0100
0000
0000
0000
,
0000
0000
0000
0000
,
1000
0000
0000
0000
,
0001
0000
0000
0000
,
0100
0000
0000
0000
,
0100
0000
0000
0000
,
0001
0000
0000
0000
,
0010
0000
0000
0000
,
0010
0000
0000
0000
,
0010
0000
0000
0000
,
0100
0000
0000
0000
,
1000
0000
0000
0000
,
1100
0000
0000
0000
,
1100
0000
0000
0000
,
0011
0000
0000
0000
,
0011
0000
0000
0000
,
0010
0000
0000
0000
,
0001
0000
0000
0000
,
0010
0000
0000
0000
,
1000
0000
0000
0000
,
1010
0000
0000
0000
,
1010
0000
0000
0000
,
0101
0000
0000
0000
,
0101
0000
0000
0000
,
0100
0000
0000
0000
,
0001
0000
0000
0000
,
0100
0000
0000
0000
,
1000
0000
0000
0000
,
2002
0000
3003
0000
,
0000
0000
0000
0000
,
2020
0000
3030
0000
,
0000
0000
0000
0000
,
0022
0000
0033
0000
,
0000
0000
0000
0000
,
2002
0000
3003
0000
,
0000
0000
0000
0000
,
0220
0000
0330
0000
,
0000
0000
0000
0000
,
2020
0000
3030
0000
,
0000
0000
0000
0000
,
0202
0000
0303
0000
,
0000
0000
0000
0000
,
0220
0000
0000
0000
,
0330
0000
0000
0000
,
1000
0000
0000
0000
,
0001
0000
0000
0000
,
0200
0000
0300
0000
,
0000
0000
0000
0000
,
0020
0000
0000
0000
,
0030
0000
0000
0000
,
2000
0000
0000
0000
,
3000
0000
0000
0000
,
0002
0000
0000
0000
,
0003
0000
0000
0000
,
0200
0000
0000
0000
,
0300
0000
0000
0000
,
0110
0000
0000
0000
;

//---------------dance-single - Neo Aspect Normal----------------
#NOTES:
     dance-single:
     :
     Easy:
     6:
     0.144483,0.213419,0.239989,0.377126,0.000000,118.000000,90.000000,28.000000,44.000000,0.000000,0.000000,0.144483,0.213419,0.239989,0.377126,0.000000,118.000000,90.000000,28.000000,44.000000,0.000000,0.000000:
0000
0000
0000
0000
,
0000
0000
0000
0000
,
1000
0000
0000
0000
,
1000
0000
0000
0000
,
0010
0000
0000
0000
,
0010
0000
0000
0000
,
0100
0000
0000
0000
,
0100
0000
0000
0000
,
0001
0000
0000
0000
,
0001
0000
0000
0000
,
1001
0000
0000
0000
,
1001
0000
0000
0000
,
0110
0000
0000
0000
,
0110
0000
0000
0000
,
2000
0000
3000
0000
,
0020
0000
0030
0000
,
2000
0000
0000
0000
,
3000
0000
0000
0000
,
0002
0000
0003
0000
,
0200
0000
0300
0000
,
0002
0000
0000
0000
,
0003
0000
0000
0000
,
1001
0000
0000
0000
,
0100
0000
0010
0000
,
0100
0000
0000
0000
,
0001
0000
0010
0000
,
0001
0000
0000
0000
,
1000
0000
0100
0000
,
1000
0000
0000
0000
,
0001
0000
0000
0000
,
0001
0000
0100
0000
,
0001
0000
0100
0000
,
0010
0000
1000
0000
,
0010
0000
1000
0000
,
0001
0000
0000
0000
,
1000
0000
0000
0000
,
0020
0000
0030
0000
,
0200
0000
0300
0000
,
0220
0000
0330
0000
,
0110
0000
0000
0000
,
2002
0000
3003
0000
,
1001
0000
0000
0000
,
0001
0000
0000
0000
,
1000
0000
0000
0000
,
0010
0000
0100
0000
,
0010
0000
0000
0000
,
2002
0000
3003
0000
,
1001
0000
0000
0000
,
0220
0000
0330
0000
,
0110
0000
0000
0000
,
0100
0000
0000
0000
,
0010
0000
0000
0000
,
1000
0000
0001
0000
,
1000
0000
0000
0000
,
2002
0000
3003
0000
,
2200
0000
3300
0000
,
2020
0000
3030
0000
,
1001
0000
0000
0000
,
2002
0000
3003
0000
,
0202
0000
0303
0000
,
0022
0000
0000
0000
,
0033
0000
0000
0000
,
0220
0000
0330
0000
,
0202
0000
0303
0000
,
0220
0000
0330
0000
,
2020
0000
3030
0000
,
0110
0000
0000
0000
,
0010
0000
0010
0000
,
0100
0000
0100
0000
,
0110
0000
0000
0000
,
1000
0000
1000
0000
,
0001
0000
0001
0000
,
2002
0000
0000
0000
,
3003
0000
0000
0000
,
2000
0000
0000
0000
,
3001
0000
0000
0000
,
0002
0000
0000
0000
,
1003
0000
0000
0000
,
0200
0000
0000
0000
,
0310
0000
0000
0000
,
0020
0000
0000
0000
,
0130
0000
0000
0000
,
0220
0000
0000
0000
,
0330
0000
0000
0000
;

//---------------dance-single - Neo Aspect Hard----------------
#NOTES:
     dance-single:
     Hard:
     Medium:
     1:
     0.227745,0.442266,0.222847,0.162850,0.000000,186.000000,160.000000,26.000000,19.000000,0.000000,0.000000,0.227745,0.442266,0.222847,0.162850,0.000000,186.000000,160.000000,26.000000,19.000000,0.000000,0.000000:
// measure 0
0000
0000
0000
0000
,  // measure 1
0000
0000
0000
0000
,  // measure 2
1000
0000
0010
0000
,  // measure 3
1000
0000
1000
0000
,  // measure 4
0001
0000
0010
0000
,  // measure 5
0001
0000
0001
0000
,  // measure 6
0100
0000
0001
0000
,  // measure 7
0100
0000
0100
0000
,  // measure 8
0010
0000
1000
0000
,  // measure 9
0010
0000
0010
0000
,  // measure 10
1010
0000
0000
0000
,  // measure 11
0011
0000
0000
0000
,  // measure 12
1100
0000
0000
0000
,  // measure 13
0101
0000
0000
0000
,  // measure 14
0200
0000
0001
0000
,  // measure 15
0010
0000
0301
0000
,  // measure 16
0020
0000
1000
0000
,  // measure 17
0100
0000
1030
0000
,  // measure 18
2000
0000
0001
0000
,  // measure 19
0010
0000
3001
0000
,  // measure 20
0002
0000
1000
0000
,  // measure 21
0100
0000
1003
0000
,  // measure 22
1001
0000
0000
0000
,  // measure 23
0000
0000
0000
0000
,  // measure 24
0000
0000
0000
0000
,  // measure 25
0000
0000
0000
0000
,  // measure 26
0110
0000
0000
0000
,  // measure 27
0000
0000
0000
0000
,  // measure 28
0000
0000
0000
0000
,  // measure 29
0000
0000
0000
0000
,  // measure 30
1000
0100
1000
0000
,  // measure 31
0001
0010
0001
0000
,  // measure 32
0100
0010
1000
0000
,  // measure 33
0010
0100
0001
0000
,  // measure 34
2000
0000
3001
0000
,  // measure 35
0002
0000
0103
0000
,  // measure 36
0200
0000
0310
0000
,  // measure 37
0020
0000
0030
0000
,  // measure 38
1010
0000
0000
0010
0000
0000
1010
0000
,  // measure 39
0000
1000
0000
0000
0010
0000
0100
0000
,  // measure 40
0101
0000
0000
0100
0000
0000
0101
0000
,  // measure 41
0000
0001
0000
0000
0001
0000
1000
0000
,  // measure 42
1001
0000
0100
0000
,  // measure 43
0010
0100
0001
0000
,  // measure 44
0100
0000
0010
0000
,  // measure 45
1000
0010
0100
0000
,  // measure 46
1001
0000
0000
0001
0000
0000
1001
0000
,  // measure 47
0000
1000
0000
0000
0001
0000
0100
0000
,  // measure 48
0110
0000
0000
0010
0000
0000
0110
0000
,  // measure 49
0000
0100
0000
0000
0001
0000
0000
0000
,  // measure 50
1000
0100
1000
0000
,  // measure 51
0001
0100
0001
0000
,  // measure 52
0100
0010
0100
0001
,  // measure 53
0100
0010
1000
0000
,  // measure 54
2000
0000
0000
0100
0000
0000
0010
0000
,  // measure 55
0000
0001
0000
0000
3010
0000
0100
0000
,  // measure 56
0002
0000
0000
0010
0000
0000
0100
0000
,  // measure 57
0000
1000
0000
0000
0103
0000
0010
0000
,  // measure 58
0200
0000
0000
0010
0000
0000
0001
0000
,  // measure 59
0000
0010
0000
0000
0301
0000
0010
0000
,  // measure 60
0020
0000
0000
0000
,  // measure 61
1000
0000
0030
0000
,  // measure 62
0010
0001
0010
0011
,  // measure 63
0001
1000
0001
1001
,  // measure 64
1000
0100
1000
1100
,  // measure 65
0100
0010
0100
0110
,  // measure 66
0220
0000
0000
0000
,  // measure 67
0000
0000
0030
0000
,  // measure 68
0010
0000
0010
0000
,  // measure 69
0310
0000
0000
0000
,  // measure 70
1100
0000
1100
0000
,  // measure 71
0011
0000
0011
0000
,  // measure 72
2002
0000
0000
0000
,  // measure 73
0000
0000
3003
0000
,  // measure 74
0220
0000
0000
0000
,  // measure 75
0000
0000
0330
0000
,  // measure 76
0010
0000
0000
0000
,  // measure 77
0010
0000
0000
0000
,  // measure 78
0100
0000
0000
0000
,  // measure 79
0100
0000
0000
0000
,  // measure 80
0001
0000
1000
0000
,  // measure 81
0001
0100
0010
1000
,  // measure 82
0002
0000
0000
0000
,  // measure 83
0000
0000
0000
0000
,  // measure 84
0000
0000
0000
0000
,  // measure 85
0000
0000
0000
0000
,  // measure 86
0003
0000
0000
0000
;
