#TITLE:NANI THE FUCK!!;
#SUBTITLE:;
#ARTIST:かめりあ feat. ななひら;
#TITLETRANSLIT:;
#SUBTITLETRANSLIT:;
#ARTISTTRANSLIT:Camellia feat. nanahira;
#GENRE:;
#CREDIT:;
#MENUCOLOR:;
#METERTYPE:DDR;
#BANNER:NANI THE FUCK!!.png;
#BACKGROUND:NANI THE FUCK!!-bg.png;
#LYRICSPATH:;
#CDTITLE:./CDTITLES/NONE.PNG;
#MUSIC:NANI THE FUCK!!.ogg;
#OFFSET:0.000;
#SAMPLESTART:89.143;
#SAMPLELENGTH:15.000;
#SELECTABLE:YES;
#LISTSORT:;
#BPMS:0.000=175.000;
#STOPS:;
#BGCHANGES:;
#ATTACKS:;

//---------------dance-single - ----------------
#NOTES:
     dance-single:
     :
     Beginner:
     4:
     0.126,0.237,0.008,0.000,0.000:
0000
0000
0000
0000
,
0000
0000
0000
0000
,
0000
0000
0000
0000
,
0000
0000
0000
0000
,
0000
0000
0000
0000
,
0000
0000
0000
0000
,
0000
0000
0000
0000
,
0000
0000
0000
0000
,
0000
0000
0000
0000
,
1000
0000
0000
0000
,
0001
0000
0000
0000
,
1000
0000
0000
0000
,
0001
0000
0000
0000
,
0100
0000
0100
0000
,
0010
0000
0010
0000
,
0100
0000
0100
0000
,
0010
0000
0000
0000
,
1000
0000
0000
0000
,
0001
0000
0000
0000
,
1000
0000
0000
0000
,
0001
0000
0000
0000
,
0100
0000
0000
0000
,
0010
0000
0000
0000
,
0100
0000
0100
0000
,
0100
0000
0000
0000
,
0010
0000
0000
0000
,
0010
0000
0100
0000
,
0010
0000
0000
0000
,
0100
0000
0010
0000
,
0100
0000
0000
0000
,
0001
0000
1000
0000
,
0001
0000
0000
0000
,
1000
0000
0000
0000
,
0001
0000
0001
0000
,
0001
0000
0000
0000
,
1000
0000
1000
0000
,
1000
0000
0000
0000
,
0010
0000
0010
0000
,
0010
0000
0000
0000
,
0100
0000
0100
0000
,
0100
0000
0000
0000
,
0001
0000
0000
0000
,
0000
0000
0000
0000
,
1000
0000
0000
0000
,
0000
0000
0000
0000
,
0010
0000
0000
0000
,
0000
0000
0000
0000
,
0100
0000
0000
0000
,
0000
0000
0000
0000
,
0001
0000
0000
0000
,
0001
0000
0000
0000
,
1000
0000
0000
0000
,
1000
0000
0000
0000
,
0010
0000
0010
0000
,
0100
0000
0100
0000
,
0010
0000
0100
0000
,
0010
0000
0000
0000
,
1000
0000
1000
0000
,
0001
0000
0001
0000
,
1000
0000
1000
0000
,
0001
0000
0000
0000
,
0001
0000
0001
0000
,
1000
0000
1000
0000
,
0001
0000
0001
0000
,
1000
0000
0000
0000
,
0010
0000
0010
0000
,
0010
0000
0000
0000
,
0100
0000
0100
0000
,
0010
0000
0100
0000
,
0010
0000
0010
0000
,
0100
0000
0010
0000
,
0100
0000
0100
0000
,
0100
0000
0000
0000
,
0001
0000
1000
0000
,
0001
0000
0000
0000
,
1000
0000
0100
0000
,
0010
0000
0000
0000
,
0001
0000
0010
0000
,
0100
0000
0000
0000
,
1000
0000
0001
0000
,
0100
0000
0000
0000
,
0010
0000
0010
0000
,
0010
0000
0000
0000
,
0100
0000
0100
0000
,
0100
0000
0000
0000
,
0001
0001
0001
0000
,
1000
1000
1000
0000
,
0010
0010
0010
0000
,
0100
0000
0000
0000
,
0110
0000
0000
0000
;

//---------------dance-single - ----------------
#NOTES:
     dance-single:
     :
     Easy:
     7:
     0.345,0.449,0.304,0.190,0.008: // measure 1
0000
0000
0000
0000
,  // measure 2
0000
0000
0000
0000
,  // measure 3
0000
0000
0000
0000
,  // measure 4
0000
0000
0000
0000
,  // measure 5
0000
0000
0000
0000
,  // measure 6
0000
0000
0000
0000
,  // measure 7
0000
0000
0000
0000
,  // measure 8
0000
0000
0000
0000
,  // measure 9
0000
0000
0000
0000
,  // measure 10
0001
0001
1000
1000
,  // measure 11
0001
0001
1000
1000
,  // measure 12
0010
0010
0100
0100
,  // measure 13
0010
0010
0100
0100
,  // measure 14
0001
0001
0010
0010
,  // measure 15
0100
0100
1000
1000
,  // measure 16
0001
0010
0100
1000
,  // measure 17
0220
0000
0000
0330
,  // measure 18
2020
3030
0001
0001
,  // measure 19
1000
0100
0010
0001
,  // measure 20
0100
0100
0010
0010
,  // measure 21
1000
0010
0200
0300
,  // measure 22
0220
0330
1000
1000
,  // measure 23
0001
0010
0100
1000
,  // measure 24
0020
0030
0200
0300
,  // measure 25
0002
0000
0000
0003
,  // measure 26
2000
0001
3001
1000
,  // measure 27
0001
0010
0100
1000
,  // measure 28
0010
0100
0100
0010
,  // measure 29
1000
0100
0010
0001
,  // measure 30
1000
1000
0010
0010
,  // measure 31
0100
0100
0001
0001
,  // measure 32
1000
0100
0010
0001
,  // measure 33
0220
0000
0000
0330
,  // measure 34
0010
0000
0011
0000
,  // measure 35
1000
0001
0100
0010
,  // measure 36
0100
0000
1010
0000
,  // measure 37
0001
1000
0010
0100
,  // measure 38
0001
0000
0011
0000
,  // measure 39
1000
0010
0001
0010
,  // measure 40
1000
0000
0100
0000
1100
0000
1000
0002
,  // measure 41
0000
0000
0000
0003
,  // measure 42
0100
0000
0000
0000
,  // measure 43
0100
0100
0100
0000
,  // measure 44
0010
0000
0000
0000
,  // measure 45
0010
0010
0010
0000
,  // measure 46
1000
0000
0000
0000
,  // measure 47
1000
1000
1000
0000
,  // measure 48
0001
0000
0000
0000
,  // measure 49
0001
0001
0001
0010
,  // measure 50
0001
0000
1001
0000
,  // measure 51
1100
0000
1001
0000
,  // measure 52
1000
0000
1001
0000
,  // measure 53
0101
0000
1001
0000
,  // measure 54
0010
0010
1010
1001
,  // measure 55
0010
0010
0011
1001
,  // measure 56
0100
0100
1100
1001
,  // measure 57
0020
0000
0000
0130
,  // measure 58
0001
0100
0010
1000
,  // measure 59
0001
0100
0010
0100
,  // measure 60
0001
0100
0010
1000
,  // measure 61
0001
0100
1000
0100
,  // measure 62
0001
0010
0100
1000
,  // measure 63
0001
0010
0100
0010
,  // measure 64
0001
0010
0100
1000
,  // measure 65
0001
0010
1000
0010
,  // measure 66
0001
0000
0000
0101
0000
0000
0000
2002
,  // measure 67
0000
0000
0000
3003
,  // measure 68
1000
0100
0010
0001
,  // measure 69
1000
0010
0100
0010
,  // measure 70
1000
0100
0010
0001
,  // measure 71
1000
0001
0100
0010
,  // measure 72
1000
0010
0001
0100
,  // measure 73
1000
0000
0001
0001
,  // measure 74
1001
0000
0000
1100
0000
0000
0000
2002
,  // measure 75
0000
0000
0000
3003
,  // measure 76
0001
0100
0010
1000
,  // measure 77
0001
0010
0100
0010
,  // measure 78
0001
0011
0001
1001
,  // measure 79
1000
1010
1000
1001
,  // measure 80
1000
0000
0000
1000
0000
0000
0000
0000
0001
0000
0000
0001
0000
0000
0020
0000
,  // measure 81
0000
0000
0000
0030
,  // measure 82
0001
0101
1001
0101
,  // measure 83
2000
0000
3001
0000
,  // measure 84
1000
1100
1001
1100
,  // measure 85
2000
0000
3010
0000
,  // measure 86
1000
1010
0010
0110
,  // measure 87
0100
0101
0001
1001
,  // measure 88
0001
0010
0100
1000
,  // measure 89
0020
0000
0000
0130
,  // measure 90
2002
0000
0000
0000
,  // measure 91
0000
0000
0000
0000
,  // measure 92
3003
0000
0000
0000
;

//---------------dance-single - ----------------
#NOTES:
     dance-single:
     :
     Medium:
     12:
     0.557,0.588,0.273,0.205,0.152: // measure 1
0000
0000
0000
0000
,  // measure 2
0000
0000
0000
0000
,  // measure 3
0000
0000
0000
0000
,  // measure 4
0000
0000
0000
0000
,  // measure 5
0000
0000
0000
0000
,  // measure 6
0000
0000
0000
0000
,  // measure 7
0000
0000
0000
0000
,  // measure 8
0000
0000
0000
0000
,  // measure 9
0000
0000
0000
0000
,  // measure 10
0001
0000
0000
0010
0000
0000
0001
0000
1000
0000
0000
0010
0000
0000
1000
0000
,  // measure 11
0001
0000
0000
0100
0000
0000
0001
0000
1000
0000
0000
0100
0000
0000
1000
0000
,  // measure 12
0001
0000
0000
0010
0000
0000
0100
0000
1000
0000
0000
0100
0000
0000
0010
0000
,  // measure 13
0001
0000
0000
0100
0000
0000
0010
0000
1000
0000
0000
0001
0000
0000
1000
0000
,  // measure 14
0001
0010
0100
0010
0001
0010
0100
0010
,  // measure 15
0001
0100
0010
0100
0001
0100
0010
0100
,  // measure 16
0001
0010
0100
1000
0001
0010
0100
1000
,  // measure 17
0020
0000
0000
0130
,  // measure 18
0220
0000
0330
0000
0001
0100
0001
0100
,  // measure 19
0010
1000
0010
1000
0001
1000
0001
0000
,  // measure 20
1100
0000
0101
0000
1000
0100
0010
0000
,  // measure 21
0001
1000
0010
0000
0220
0000
0330
0000
,  // measure 22
2020
0000
3030
0000
1000
0100
1000
0100
,  // measure 23
0010
0001
0010
0001
1000
0001
1000
0000
,  // measure 24
2001
0000
3010
0200
0000
0301
0010
0002
,  // measure 25
0000
1003
0100
0010
0001
1000
0020
0000
,  // measure 26
0230
0000
0000
0000
0310
1000
0010
1000
,  // measure 27
0001
0010
0001
0010
0100
1000
0100
0000
,  // measure 28
1010
0000
0011
0000
1000
0010
0100
0000
,  // measure 29
0001
0100
0010
1000
0001
0010
0002
0000
,  // measure 30
1003
0100
0010
0100
1000
0100
0010
0100
,  // measure 31
1000
0010
0100
0010
1000
0010
0100
0010
,  // measure 32
1000
0100
0010
0001
1000
0100
0010
0001
,  // measure 33
2000
0000
0000
3001
,  // measure 34
2100
0000
3010
1000
,  // measure 35
0001
0100
1010
0001
,  // measure 36
0012
0000
0000
1003
0100
0000
1000
0000
,  // measure 37
0010
0100
1001
0010
,  // measure 38
1000
0100
1000
0001
0100
0010
1000
0000
,  // measure 39
0001
0100
0001
1000
0001
0010
0100
0000
,  // measure 40
0010
0001
1000
0010
1000
0001
0100
0020
,  // measure 41
0000
0000
0000
0000
0000
0100
0130
0000
,  // measure 42
0010
0010
1000
1000
,  // measure 43
0001
0100
0001
1001
,  // measure 44
0010
0010
0001
0001
,  // measure 45
1000
0100
1000
1001
,  // measure 46
0010
0010
0100
0001
,  // measure 47
0100
0010
1000
1001
,  // measure 48
1000
1000
0100
0010
,  // measure 49
0001
0010
0100
1000
,  // measure 50
0001
0000
0000
1001
0000
0000
0000
0000
1000
0000
0000
1001
0000
0000
0000
0000
,  // measure 51
0100
0000
0000
0110
0000
0000
0000
0000
0010
0000
0000
0110
0000
0000
0000
0000
,  // measure 52
1000
0000
0000
1100
0000
0000
0000
0000
0010
0000
0000
0011
0000
0000
0000
0000
,  // measure 53
0001
0000
0000
0101
0000
0000
0000
0000
0010
0000
1000
0000
0001
0000
0000
0000
,  // measure 54
1000
0100
0010
0001
1000
0100
0010
0100
,  // measure 55
1000
0010
0100
0001
1000
0010
0100
0010
,  // measure 56
1000
0100
0001
0100
1000
0010
0001
0010
,  // measure 57
2000
0000
0000
3001
,  // measure 58
1000
0000
0000
0100
0000
0000
0010
0000
0001
0000
0000
1000
0000
0000
0001
0000
,  // measure 59
0010
0000
0000
0001
0000
0000
0100
0000
0010
0000
0000
1000
0000
0000
0001
0000
,  // measure 60
0010
0000
0000
0100
0000
0000
0010
0000
0001
0000
0000
1000
0000
0000
0010
0000
,  // measure 61
1000
0000
0000
0100
0000
0000
0001
0000
0100
0000
0000
1000
0000
0000
0010
0000
,  // measure 62
0100
0000
0000
0010
0000
0000
1000
0000
0001
0000
0000
0010
0000
0000
0001
0000
,  // measure 63
0100
0000
0000
0010
0000
0000
1000
0000
0001
0000
0000
0010
0000
0000
0001
0000
,  // measure 64
1000
0000
0000
0001
0000
0000
0100
0000
0010
0000
0000
1000
0000
0000
0001
0000
,  // measure 65
1000
0000
0000
0010
0000
0000
0001
0000
0010
0000
0000
1000
0000
0000
0001
0000
,  // measure 66
0010
0000
0000
0220
0000
0330
0000
0001
,  // measure 67
0010
0001
0010
0001
0100
0010
1000
0000
,  // measure 68
0001
0000
0100
0000
0010
0000
1000
0000
0001
0000
0000
0010
0000
0000
0001
0000
,  // measure 69
1000
0000
0100
0000
0010
0000
0001
0000
1000
0000
0000
0010
0000
0000
1000
0000
,  // measure 70
0001
0000
0100
0000
0100
0000
0001
0000
1000
0000
0000
0100
0000
0000
0010
0000
,  // measure 71
0100
0000
1000
0000
0010
0000
1000
0000
0001
0000
0000
0010
0000
0000
0001
0000
,  // measure 72
0100
0000
0001
0000
0010
0000
0100
0000
0010
0000
0000
0001
0000
0000
1000
0000
,  // measure 73
0010
0100
0010
0000
0100
0001
1000
0001
,  // measure 74
1000
0000
0000
2002
0000
3003
0000
1000
,  // measure 75
0100
1000
0100
1000
0010
0100
0001
0000
,  // measure 76
1000
0000
0000
0010
0000
0000
1000
0000
0001
0000
0010
0000
0100
0000
1000
0000
,  // measure 77
0001
0000
0000
0010
0000
0000
0001
0000
1000
0000
0010
0000
0100
0000
0001
0000
,  // measure 78
1000
0100
0010
0100
1000
0100
0010
0001
,  // measure 79
1000
0010
0100
0010
1000
0010
0100
0001
,  // measure 80
1000
0000
0000
1100
0000
0000
0001
0000
0010
0000
0000
0011
0000
0000
0220
0000
,  // measure 81
0000
0000
0000
0330
,  // measure 82
1001
1010
1001
0011
,  // measure 83
1000
0100
0001
0000
0100
0000
1000
0000
,  // measure 84
1001
0101
1001
1100
,  // measure 85
0001
0010
1000
0000
0010
0000
0001
0000
,  // measure 86
1000
0100
0010
0100
1000
0100
0010
0001
,  // measure 87
1000
0100
0010
0100
1000
0010
0100
0001
,  // measure 88
1000
0010
0001
0010
1000
0100
0001
0100
,  // measure 89
2000
0000
0000
3001
,  // measure 90
0220
0000
0000
0000
,  // measure 91
0000
0000
0000
0000
,  // measure 92
0330
0000
0000
0000
;

//---------------dance-single - ----------------
#NOTES:
     dance-single:
     :
     Hard:
     16:
     0.816,1.000,0.258,0.175,0.775: // measure 1
0000
0000
0000
0000
,  // measure 2
0000
0000
0000
0000
,  // measure 3
0000
0000
0000
0000
,  // measure 4
0000
0000
0000
0000
,  // measure 5
0000
0000
0000
0000
,  // measure 6
0000
0000
0000
0000
,  // measure 7
0000
0000
0000
0000
,  // measure 8
0000
0000
0000
0000
,  // measure 9
0000
0000
0000
0000
,  // measure 10
1000
0000
0000
0100
1000
0000
0100
0000
0010
0000
0000
0001
0010
0000
0001
0000
,  // measure 11
0100
0000
0000
0001
0100
0000
0010
0000
1000
0000
0000
0010
1000
0000
0001
0000
,  // measure 12
0010
0000
0000
0001
0010
0000
0100
0000
1000
0000
0000
0001
0100
0000
0001
0000
,  // measure 13
1000
0000
0000
0010
0100
0000
0010
0000
1000
0000
0000
0001
1000
0000
0001
0000
,  // measure 14
1000
0100
1000
0000
0001
0100
0001
0000
1000
0100
1000
0000
0001
0100
0001
0000
,  // measure 15
1000
0010
1000
0000
0001
0010
0001
0000
1000
0010
1000
0000
0001
0010
0001
0000
,  // measure 16
1000
0100
1000
0100
0010
0001
0010
0001
1000
0010
1000
0010
0100
0001
0100
0001
,  // measure 17
2000
0000
0000
0000
0000
0000
0000
0000
0000
0000
0000
3001
1000
0001
0000
0000
,  // measure 18
0210
0000
0000
0000
0310
0100
0001
0100
,  // measure 19
0001
0010
0100
1000
0100
0001
0200
0000
,  // measure 20
0310
0000
0000
0000
0010
0000
0000
0000
0001
0100
0001
0000
2000
0000
0000
0000
,  // measure 21
3010
0100
0010
0000
0200
0000
0000
0000
0301
0010
0100
1000
0002
0000
0000
0000
,  // measure 22
2003
0000
0000
0000
3100
1000
0100
0001
,  // measure 23
0100
0000
0010
0000
0100
0000
1000
0000
0100
0000
0010
0000
0001
0100
0010
1000
,  // measure 24
0002
0000
0103
0002
0000
1003
0001
0010
,  // measure 25
0001
0100
0010
1000
0001
0010
0200
0000
,  // measure 26
0320
0000
0000
0000
0031
1000
0001
1000
0001
0000
0100
0000
0010
0000
1000
0000
,  // measure 27
0010
0100
0010
0001
0010
0100
0010
1000
,  // measure 28
0001
0000
0000
0000
0011
0000
0000
0000
1000
0100
1000
0000
0001
0000
1000
0000
,  // measure 29
0001
0010
0001
0000
1000
0000
0010
0000
0100
0000
0001
0000
1000
0000
0000
0000
,  // measure 30
0001
0010
0001
0000
1000
0010
1000
0000
0001
0010
0001
0000
1000
0010
1000
0000
,  // measure 31
0001
0100
0001
0000
1000
0100
1000
0000
0001
0100
0001
0000
1000
0100
1000
0000
,  // measure 32
0001
0010
0001
0010
0100
1000
0100
1000
0001
0100
0001
0100
0010
1000
0010
1000
,  // measure 33
0002
0000
0000
0000
0000
0000
0000
0000
0000
0000
0000
1003
0001
1000
0000
0000
,  // measure 34
0102
0000
0013
0001
0100
1000
0100
0020
,  // measure 35
0000
1030
0100
0010
0100
1000
0001
0200
,  // measure 36
0000
0310
1000
0100
1000
0001
0010
0100
,  // measure 37
1000
0010
0001
0010
1000
0100
0010
0000
,  // measure 38
0100
1000
0100
0000
1000
0000
0001
0000
0100
0000
0010
0000
0100
0000
0001
0000
,  // measure 39
0010
0001
0010
0000
0100
0000
1000
0000
0010
0000
0100
0000
0001
0000
1000
0000
,  // measure 40
0001
0010
0001
0000
1000
0010
1000
0000
0001
0100
0001
0000
1000
0000
2001
0000
,  // measure 41
0000
0000
0000
0000
0000
3010
0010
0000
,  // measure 42
1000
0000
0100
0000
1000
0001
0100
0000
,  // measure 43
0001
0000
0100
0000
0001
1000
0010
0000
,  // measure 44
1000
0000
0100
0000
0010
0100
1000
0000
,  // measure 45
0001
0000
0100
0000
0010
0100
0001
0000
,  // measure 46
1000
0000
0100
0000
0001
0100
1000
0000
,  // measure 47
0001
0000
0100
0000
1000
0100
0001
0000
,  // measure 48
1000
0000
0010
0000
0001
0010
1000
0000
,  // measure 49
0001
0010
0011
1001
,  // measure 50
1100
0000
0000
1001
0000
0000
0100
0000
1100
0000
0000
1001
0000
0000
0100
0000
,  // measure 51
1100
0000
0000
0110
0000
0000
0100
0000
1100
0000
0000
0110
0000
0000
0010
0000
,  // measure 52
0011
0000
0000
1001
0000
0000
0010
0000
0011
0000
0000
1001
0000
0000
0010
0000
,  // measure 53
0011
0000
0000
0110
0000
0000
0010
0000
0001
0000
0010
0000
1010
0000
0000
0000
,  // measure 54
0010
0001
0010
0001
0010
0001
1000
0000
0010
1000
0010
1000
0010
1000
0001
0000
,  // measure 55
1000
0100
1000
0100
1000
0100
0010
0000
0001
0100
0001
0100
0001
0100
0010
0000
,  // measure 56
1000
0100
1000
0100
0010
0001
0010
0001
1000
0010
1000
0010
0100
0001
0100
0001
,  // measure 57
2000
0000
0000
0000
0000
0000
0000
0000
0000
0000
0000
3001
1000
0001
0000
0000
,  // measure 58
1100
0000
0010
0100
0000
0100
1000
0000
0001
0000
0100
0001
0000
1000
0001
0000
,  // measure 59
0010
0000
0001
0010
0000
0010
0100
0000
0010
0000
0001
0010
0000
0001
1000
0000
,  // measure 60
0010
0000
0100
0001
0000
0001
0100
0000
0010
0000
1000
0010
0000
1000
0001
0000
,  // measure 61
1000
0000
0100
1000
0000
1000
0001
0000
1000
0000
0100
0010
0000
0001
1000
0000
,  // measure 62
0010
0000
1000
0010
0000
0010
0100
0000
0010
0000
1000
0001
0000
0100
0010
0000
,  // measure 63
0100
0000
0001
0010
0000
0010
0100
0000
0010
0000
0001
1000
0000
0010
0100
0000
,  // measure 64
0010
0000
1000
0100
0000
0100
0001
0000
0100
0000
1000
0010
0000
0010
0001
0000
,  // measure 65
0010
0000
0100
0001
1000
0000
0001
1000
0100
1000
0000
1000
0001
0000
1000
0000
,  // measure 66
1001
0000
0010
1010
0000
0001
0100
0101
,  // measure 67
0001
0010
0001
0010
0100
1000
0100
1000
0001
0100
0010
1000
0002
0000
0000
0000
,  // measure 68
1003
0000
0100
0010
0000
0010
0001
0000
0100
0000
0010
1000
0000
0010
0001
0000
,  // measure 69
0010
0000
0100
0001
0000
0001
1000
0000
0001
0000
0010
0100
0000
1000
0001
1000
,  // measure 70
0100
0000
1000
0000
1010
0000
0100
0000
0001
0000
0010
0001
0000
1000
0001
0000
,  // measure 71
0100
0000
0001
0010
0000
0010
0100
0000
1000
0000
0010
1000
0000
0001
1000
0000
,  // measure 72
0001
0000
1000
0100
0000
0001
0100
0000
1000
0000
0010
0001
0000
0010
1000
0001
,  // measure 73
1000
0000
0100
0000
1100
0000
0000
0000
0001
0000
1000
0000
0001
0100
0001
0100
,  // measure 74
0010
0000
0100
0101
0000
1000
0100
1100
,  // measure 75
1000
0100
1000
0100
0010
0001
0010
0001
1000
0010
0100
0001
1000
0000
0000
0000
,  // measure 76
0010
0000
0100
0001
0000
0100
0010
0100
0001
0000
0010
0100
0000
0010
0100
0010
,  // measure 77
0001
0000
1000
0010
0000
0100
0010
0100
0001
0000
0010
0100
0000
1000
0001
1000
,  // measure 78
0010
1000
0010
0000
0100
0001
0100
0000
0001
0010
0001
0000
1000
0100
1000
0000
,  // measure 79
0010
1000
0010
0000
0100
0001
0100
0000
0001
0010
0100
1000
0001
1000
0001
0100
,  // measure 80
0010
0000
0000
0110
0000
0000
0001
0000
0101
0000
0000
0110
0000
0000
2020
0000
,  // measure 81
0000
0000
0000
3030
,  // measure 82
1000
0100
0010
0000
0001
0010
0100
0000
1000
0100
0010
0000
0001
0010
0100
0000
,  // measure 83
1000
0100
0001
0100
0010
0001
1000
0000
,  // measure 84
0001
0100
0010
0000
1000
0010
0100
0000
0001
0100
0010
0000
1000
0010
0100
0000
,  // measure 85
0001
0010
1000
0010
0100
1000
0001
0000
,  // measure 86
1000
0100
1000
0000
0001
0100
0001
0000
1000
0010
0100
0001
1000
0100
1000
0000
,  // measure 87
0001
0010
0001
0000
1000
0010
1000
0000
0001
0010
0100
1000
0001
0010
0001
0000
,  // measure 88
1000
0010
0100
0000
0001
0100
0010
0000
1000
0001
0100
0010
1000
0001
1000
0001
,  // measure 89
0020
0000
0000
0000
0000
0000
0000
0000
0000
0000
0000
0130
0010
0100
0000
0000
,  // measure 90
2002
0000
0000
0000
,  // measure 91
0000
0000
0000
0000
,  // measure 92
3003
0000
0000
0000
;
