#VERSION:0.83;
#TITLE:Mou Ichido Luminous;
#SUBTITLE:;
#ARTIST:Pastel*Palettes;
#TITLETRANSLIT:;
#SUBTITLETRANSLIT:;
#ARTISTTRANSLIT:;
#GENRE:;
#ORIGIN:;
#CREDIT:;
#BANNER:mouichidoluminousbn.jpg;
#BACKGROUND:mouichidoluminousbg.png;
#PREVIEWVID:;
#JACKET:mouichidoluminousbn.jpg;
#CDIMAGE:;
#DISCIMAGE:;
#LYRICSPATH:;
#CDTITLE:;
#MUSIC:MouIchidoLuminous.ogg;
#OFFSET:0.000000;
#SAMPLESTART:61.299999;
#SAMPLELENGTH:15.000000;
#SELECTABLE:YES;
#BPMS:0.000=169.000;
#STOPS:;
#DELAYS:;
#WARPS:;
#TIMESIGNATURES:0.000=4=4;
#TICKCOUNTS:0.000=4;
#COMBOS:0.000=1;
#SPEEDS:0.000=1.000=0.000=0;
#SCROLLS:0.000=1.000;
#FAKES:;
#LABELS:0.000=Song Start,
324.000=Song End;
#LASTSECONDHINT:116.000000;
#BGCHANGES:;
#KEYSOUNDS:;
#ATTACKS:
;

//---------------dance-single - ----------------
#NOTEDATA:;
#CHARTNAME:Easy;
#STEPSTYPE:dance-single;
#DESCRIPTION:;
#CHARTSTYLE:Pad;
#DIFFICULTY:Beginner;
#METER:2;
#RADARVALUES:0.092561,0.168461,0.103668,0.069112,0.000000,75.000000,63.000000,12.000000,8.000000,0.000000,0.000000,0.000000,0.000000,0.000000,0.092561,0.168461,0.103668,0.069112,0.000000,75.000000,63.000000,12.000000,8.000000,0.000000,0.000000,0.000000,0.000000,0.000000;
#CREDIT:ACLAN99;
#NOTES:
// measure 0
0000
0000
0000
0000
,  // measure 1
0000
0000
0000
0000
,  // measure 2
0000
0000
0000
0000
,  // measure 3
1000
0000
0000
0000
,  // measure 4
1000
0000
0000
0000
,  // measure 5
0001
0000
0000
0000
,  // measure 6
0001
0000
0000
0000
,  // measure 7
0100
0000
0000
0000
,  // measure 8
0100
0000
0000
0000
,  // measure 9
0010
0000
0000
0000
,  // measure 10
0010
0000
0000
0000
,  // measure 11
1000
0000
0000
0000
,  // measure 12
0010
0000
0000
0000
,  // measure 13
1000
0000
0000
0000
,  // measure 14
0010
0000
0000
0000
,  // measure 15
0100
0000
0000
0000
,  // measure 16
0001
0000
0000
0000
,  // measure 17
0100
0000
0000
0000
,  // measure 18
0001
0000
0000
0000
,  // measure 19
0001
0000
0000
0000
,  // measure 20
0000
0000
0000
0000
,  // measure 21
1000
0000
0000
0000
,  // measure 22
0000
0000
0000
0000
,  // measure 23
0100
0000
0000
0000
,  // measure 24
0000
0000
0000
0000
,  // measure 25
0010
0000
0000
0000
,  // measure 26
0000
0000
0000
0000
,  // measure 27
0100
0000
0000
0000
,  // measure 28
0100
0000
0000
0000
,  // measure 29
0010
0000
0000
0000
,  // measure 30
0010
0000
0000
0000
,  // measure 31
1000
0000
0000
0000
,  // measure 32
1000
0000
0000
0000
,  // measure 33
0001
0000
0000
0000
,  // measure 34
0001
0000
0000
0000
,  // measure 35
1001
0000
0000
0000
,  // measure 36
0000
0000
0000
0000
,  // measure 37
0110
0000
0000
0000
,  // measure 38
0000
0000
0000
0000
,  // measure 39
1000
0000
0000
0000
,  // measure 40
0001
0000
0000
0000
,  // measure 41
0100
0000
0000
0000
,  // measure 42
0010
0000
0000
0000
,  // measure 43
0110
0000
0000
0000
,  // measure 44
0200
0000
0000
0000
,  // measure 45
0300
0000
0000
0000
,  // measure 46
0020
0000
0000
0000
,  // measure 47
0030
0000
0000
0000
,  // measure 48
0100
0000
0000
0000
,  // measure 49
0010
0000
0000
0000
,  // measure 50
0100
0000
0000
0000
,  // measure 51
0000
0000
0000
0000
,  // measure 52
0002
0000
0000
0000
,  // measure 53
0003
0000
0000
0000
,  // measure 54
2000
0000
0000
0000
,  // measure 55
3000
0000
0000
0000
,  // measure 56
0001
0000
0000
0000
,  // measure 57
0001
0000
0000
0000
,  // measure 58
1000
0000
0000
0000
,  // measure 59
1000
0000
0000
0000
,  // measure 60
2002
0000
0000
0000
,  // measure 61
3003
0000
0000
0000
,  // measure 62
1000
0000
0000
0000
,  // measure 63
1010
0000
0000
0000
,  // measure 64
0001
0000
0000
0000
,  // measure 65
0011
0000
0000
0000
,  // measure 66
0001
0000
0000
0000
,  // measure 67
0101
0000
0000
0000
,  // measure 68
1000
0000
0000
0000
,  // measure 69
1100
0000
0000
0000
,  // measure 70
0100
0000
0000
0000
,  // measure 71
0110
0000
0000
0000
,  // measure 72
0010
0000
0000
0000
,  // measure 73
0110
0000
0000
0000
,  // measure 74
0002
0000
0003
0000
,  // measure 75
2000
0000
3000
0000
,  // measure 76
0101
0000
0000
0000
,  // measure 77
0000
0000
0000
0000
,  // measure 78
1010
0000
0000
0000
;

//---------------dance-single - ----------------
#NOTEDATA:;
#CHARTNAME:;
#STEPSTYPE:dance-single;
#DESCRIPTION:;
#CHARTSTYLE:Pad;
#DIFFICULTY:Easy;
#METER:5;
#RADARVALUES:0.170312,0.235845,0.129585,0.069112,0.000000,138.000000,123.000000,15.000000,8.000000,0.000000,0.000000,0.000000,0.000000,0.000000,0.170312,0.235845,0.129585,0.069112,0.000000,138.000000,123.000000,15.000000,8.000000,0.000000,0.000000,0.000000,0.000000,0.000000;
#CREDIT:ACLAN99;
#NOTES:
// measure 0
0000
0000
0000
0000
,  // measure 1
0000
0000
0000
0000
,  // measure 2
0000
0000
0000
0000
,  // measure 3
0100
0000
0100
0000
,  // measure 4
0001
0000
0001
0000
,  // measure 5
1000
0000
1000
0000
,  // measure 6
0010
0000
0010
0000
,  // measure 7
0100
0000
0100
0000
,  // measure 8
0001
0000
0001
0000
,  // measure 9
0100
0000
0100
0000
,  // measure 10
0010
0000
0010
0000
,  // measure 11
1000
0000
1000
0000
,  // measure 12
0010
0000
1000
0000
,  // measure 13
0001
0000
0100
0000
,  // measure 14
0010
0000
1000
0000
,  // measure 15
1001
0000
0000
0000
,  // measure 16
0000
0000
0000
0000
,  // measure 17
0110
0000
0000
0000
,  // measure 18
0000
0000
0000
0000
,  // measure 19
0010
0000
0100
0000
,  // measure 20
0010
0000
0010
0000
,  // measure 21
1000
0000
0001
0000
,  // measure 22
1000
0000
1000
0000
,  // measure 23
0100
0000
0010
0000
,  // measure 24
0100
0000
0100
0000
,  // measure 25
0001
0000
1000
0000
,  // measure 26
0001
0000
0001
0000
,  // measure 27
0100
0000
0000
0000
,  // measure 28
0110
0000
0000
0000
,  // measure 29
0010
0000
0000
0000
,  // measure 30
0110
0000
0000
0000
,  // measure 31
1000
0000
0000
0000
,  // measure 32
1001
0000
0000
0000
,  // measure 33
0001
0000
0000
0000
,  // measure 34
1001
0000
0000
0000
,  // measure 35
2000
0000
3000
0000
,  // measure 36
0002
0000
0003
0100
,  // measure 37
0010
0000
0000
0000
,  // measure 38
0200
0000
0300
0000
,  // measure 39
0001
0000
0001
0000
,  // measure 40
0100
0000
0100
0000
,  // measure 41
0010
0000
0010
0000
,  // measure 42
1000
0000
1000
0000
,  // measure 43
1001
0000
0000
0000
,  // measure 44
0010
0000
0100
0000
,  // measure 45
0001
0000
0001
0000
,  // measure 46
0100
0000
0010
0000
,  // measure 47
1000
0000
1000
0000
,  // measure 48
0100
0000
0010
0000
,  // measure 49
0001
0000
0001
0000
,  // measure 50
0010
0000
0100
0000
,  // measure 51
1000
0000
1000
0000
,  // measure 52
0001
0000
0100
0000
,  // measure 53
0010
0000
1000
0000
,  // measure 54
1000
0000
0010
0000
,  // measure 55
0100
0000
0001
0000
,  // measure 56
0002
0000
0000
0000
,  // measure 57
0103
0000
0000
0000
,  // measure 58
2000
0000
0000
0000
,  // measure 59
3100
0000
0000
0000
,  // measure 60
0200
0000
0000
0000
,  // measure 61
0310
0000
0000
0000
,  // measure 62
0110
0000
0100
0000
,  // measure 63
0001
0000
1000
0000
,  // measure 64
1001
0000
0010
0000
,  // measure 65
0100
0000
0001
0000
,  // measure 66
0101
0000
0100
0000
,  // measure 67
0010
0000
1000
0000
,  // measure 68
1010
0000
0000
0000
,  // measure 69
0011
0000
0000
0000
,  // measure 70
0110
0000
0010
0000
,  // measure 71
1000
0000
0001
0000
,  // measure 72
1001
0000
0100
0000
,  // measure 73
0010
0000
1000
0000
,  // measure 74
2000
0000
3100
0000
,  // measure 75
0002
0000
0103
0000
,  // measure 76
0100
0000
0000
0000
,  // measure 77
0010
0000
0000
0000
,  // measure 78
0110
0000
0000
0000
;

//---------------dance-single - Normal----------------
#NOTEDATA:;
#CHARTNAME:Normal;
#STEPSTYPE:dance-single;
#DESCRIPTION:Normal;
#CHARTSTYLE:Pad;
#DIFFICULTY:Medium;
#METER:8;
#RADARVALUES:0.255468,0.345020,0.112307,0.207336,0.000000,207.000000,194.000000,13.000000,24.000000,0.000000,0.000000,0.000000,0.000000,0.000000,0.255468,0.345020,0.112307,0.207336,0.000000,207.000000,194.000000,13.000000,24.000000,0.000000,0.000000,0.000000,0.000000,0.000000;
#CREDIT:ACLAN99;
#OFFSET:0.000000;
#BPMS:0.000000=169.000000
;
#STOPS:;
#DELAYS:;
#WARPS:;
#TIMESIGNATURES:0.000000=4=4
;
#TICKCOUNTS:0.000000=4
;
#COMBOS:0.000000=1
;
#SPEEDS:0.000000=1.000000=0.000000=0
;
#SCROLLS:0.000000=1.000000
,172.000000=0.500000
,176.000000=1.000000
;
#FAKES:;
#LABELS:0.000000=Song Start
,324.000000=Song End
;
#NOTES:
// measure 0
0000
0000
0000
0000
,  // measure 1
0000
0000
0000
0000
,  // measure 2
0000
0000
0000
0000
,  // measure 3
1000
0100
1000
1000
,  // measure 4
0001
0010
0001
0001
,  // measure 5
0100
0001
0100
0100
,  // measure 6
0010
1000
0010
0010
,  // measure 7
1000
0010
0100
0001
,  // measure 8
0001
0100
0010
1000
,  // measure 9
0100
0000
0010
0000
,  // measure 10
0002
0000
0003
0000
,  // measure 11
0100
0010
0100
0100
,  // measure 12
0001
1000
0001
0001
,  // measure 13
1000
0100
0010
0001
,  // measure 14
0001
0100
0010
1000
,  // measure 15
0010
0000
0110
0000
,  // measure 16
0001
0000
1001
0000
,  // measure 17
0200
0000
0300
0000
,  // measure 18
0000
0110
0000
0000
,  // measure 19
0001
0000
0000
0000
,  // measure 20
0001
0100
0010
1000
,  // measure 21
1000
0000
0000
0000
,  // measure 22
1000
0010
0100
0001
,  // measure 23
0100
0000
0000
0000
,  // measure 24
0100
0010
1000
0001
,  // measure 25
0010
0000
0000
0000
,  // measure 26
0010
0001
1000
0100
,  // measure 27
0002
0000
1003
0000
,  // measure 28
2000
0000
3001
0000
,  // measure 29
0020
0000
0130
0000
,  // measure 30
0200
0000
0310
0000
,  // measure 31
0001
0000
0010
0000
,  // measure 32
0100
0000
1000
0000
,  // measure 33
1000
0000
0100
0000
,  // measure 34
0010
0000
0001
0000
,  // measure 35
2002
0000
0003
0000
,  // measure 36
3001
0000
0000
0000
,  // measure 37
0220
0000
0300
0000
,  // measure 38
0130
0000
0000
0000
,  // measure 39
1000
1000
0001
0001
,  // measure 40
0100
0100
0010
0010
,  // measure 41
2000
0000
3010
0000
,  // measure 42
0200
0000
0301
0000
,  // measure 43
0101
0000
0000
0000
,  // measure 44
1000
0001
0100
0100
,  // measure 45
0001
1000
0010
0010
,  // measure 46
1000
0010
0100
0100
,  // measure 47
0001
0100
0010
0010
,  // measure 48
1000
0100
0010
0010
,  // measure 49
0001
0010
0100
0100
,  // measure 50
1000
0001
0100
0010
,  // measure 51
1000
0100
0010
0001
,  // measure 52
2000
0000
3010
0000
,  // measure 53
0002
0000
0013
0000
,  // measure 54
2000
0000
3100
0000
,  // measure 55
0002
0000
0103
0000
,  // measure 56
0001
0000
0011
0000
,  // measure 57
1000
0000
1010
0000
,  // measure 58
0010
0000
0110
0000
,  // measure 59
1000
0000
1001
0000
,  // measure 60
1000
0001
1000
0001
,  // measure 61
1000
0000
0010
0110
,  // measure 62
0200
0000
0310
0000
,  // measure 63
1000
0000
0001
0000
,  // measure 64
0002
0000
0103
0000
,  // measure 65
0010
0000
0100
0000
,  // measure 66
0020
0000
1030
0000
,  // measure 67
0100
0000
0001
0000
,  // measure 68
2000
0000
3001
0000
,  // measure 69
0010
0000
0100
0000
,  // measure 70
1000
1000
0001
0001
,  // measure 71
1000
0001
1001
0000
,  // measure 72
0010
0010
0100
0100
,  // measure 73
0010
0100
0110
0000
,  // measure 74
0002
0000
0000
0000
,  // measure 75
2003
0000
0000
0000
,  // measure 76
3020
0000
0000
0000
,  // measure 77
0230
0000
0000
0000
,  // measure 78
0301
0000
0000
0000
,  // measure 79
0000
0000
0000
0000
0000
0000
1000
0001
;

//---------------dance-single - Hard----------------
#NOTEDATA:;
#CHARTNAME:;
#STEPSTYPE:dance-single;
#DESCRIPTION:Hard;
#CHARTSTYLE:Pad;
#DIFFICULTY:Hard;
#METER:12;
#RADARVALUES:0.397394,0.586535,0.164141,0.302365,0.000000,322.000000,303.000000,19.000000,35.000000,0.000000,0.000000,0.000000,0.000000,0.000000,0.397394,0.586535,0.164141,0.302365,0.000000,322.000000,303.000000,19.000000,35.000000,0.000000,0.000000,0.000000,0.000000,0.000000;
#CREDIT:ACLAN99;
#OFFSET:0.000000;
#BPMS:0.000000=169.000000
;
#STOPS:;
#DELAYS:;
#WARPS:;
#TIMESIGNATURES:0.000000=4=4
;
#TICKCOUNTS:0.000000=4
;
#COMBOS:0.000000=1
;
#SPEEDS:0.000000=1.000000=0.000000=0
,312.000000=0.000000=8.000000=0
;
#SCROLLS:0.000000=1.000000
,172.000000=0.500000
,176.000000=1.000000
;
#FAKES:;
#LABELS:0.000000=Song Start
,324.000000=Song End
;
#NOTES:
// measure 0
0000
0000
0000
0000
,  // measure 1
0000
0000
0000
0000
,  // measure 2
0000
0000
0000
0000
,  // measure 3
0100
0001
0100
0001
0100
0010
0100
0000
,  // measure 4
0010
1000
0010
1000
0010
0100
0010
0000
,  // measure 5
0100
0001
1000
0010
,  // measure 6
0100
0001
0100
0010
,  // measure 7
1000
0010
1000
0010
1000
0100
1000
0000
,  // measure 8
0001
0010
0001
0010
0001
0100
0001
0000
,  // measure 9
2000
0100
0000
3100
,  // measure 10
0002
0100
0000
0103
,  // measure 11
0010
1000
0010
1000
0010
0100
0010
0000
,  // measure 12
0100
0001
0100
0001
0100
0010
0100
0000
,  // measure 13
0010
1000
0001
0100
,  // measure 14
1000
0010
0100
0001
,  // measure 15
0010
0000
0110
0000
,  // measure 16
0001
0000
1001
0000
,  // measure 17
0010
0000
1010
0000
,  // measure 18
0000
0011
0000
0000
,  // measure 19
0002
0000
0003
0000
,  // measure 20
0001
0100
0010
1000
0001
0100
0010
1000
,  // measure 21
2000
0000
3000
0000
,  // measure 22
1000
0010
0100
0001
1000
0010
0100
0001
,  // measure 23
0200
0000
0300
0000
,  // measure 24
0100
0010
0001
1000
0100
0010
0001
0100
,  // measure 25
0020
0000
0030
0000
,  // measure 26
0010
0001
1000
0100
,  // measure 27
2000
0000
3000
0000
,  // measure 28
1000
0010
0100
0001
1000
0010
0100
0001
,  // measure 29
0002
0000
0003
0000
,  // measure 30
0001
0100
0010
1000
0001
0100
0010
1000
,  // measure 31
0020
0000
0030
0000
,  // measure 32
0010
0100
1000
0001
0010
0100
1000
0010
,  // measure 33
0001
0000
0010
0000
,  // measure 34
0100
0000
1000
0000
,  // measure 35
2002
0000
3000
0000
,  // measure 36
1003
0000
0000
0110
,  // measure 37
0220
0000
0300
0000
,  // measure 38
0130
0000
0000
0000
,  // measure 39
0010
0010
0001
0001
,  // measure 40
1000
1000
0100
0100
,  // measure 41
2000
0000
3010
0000
,  // measure 42
0002
0000
0013
0000
,  // measure 43
1001
0000
0000
0000
,  // measure 44
1000
0010
1000
0100
1000
0010
0100
0001
,  // measure 45
0001
0010
0001
0100
0001
0010
0001
1000
,  // measure 46
0010
1000
0010
0100
0010
1000
0001
0100
,  // measure 47
0100
0001
0100
0010
0100
0001
1000
0010
,  // measure 48
1000
0100
0010
0001
1000
0100
0010
0000
,  // measure 49
0001
0010
0100
1000
0001
0010
0100
0000
,  // measure 50
1000
0010
0100
0001
0100
0010
1000
0000
,  // measure 51
0002
0000
1003
0000
,  // measure 52
2000
3010
0020
0130
,  // measure 53
0200
0301
0002
1003
,  // measure 54
2000
3001
0002
0103
,  // measure 55
0200
0310
0020
1030
,  // measure 56
1001
0000
1100
0000
,  // measure 57
1001
0000
0101
0000
,  // measure 58
1001
0000
1010
0000
,  // measure 59
1001
0000
0011
0000
,  // measure 60
0001
0100
0001
0100
0010
0100
0010
0100
,  // measure 61
0010
1000
0001
0000
1000
0000
1001
0000
,  // measure 62
2000
0000
3001
0000
,  // measure 63
0002
0000
1003
0000
,  // measure 64
0200
0000
0310
0000
,  // measure 65
0020
0000
0130
0000
,  // measure 66
0020
1000
1030
1000
,  // measure 67
2000
0010
3010
0010
,  // measure 68
0020
0100
0130
0100
,  // measure 69
0200
0001
0301
0001
,  // measure 70
0001
0100
0001
0000
1000
0100
1000
0000
,  // measure 71
0001
0010
0001
0000
1000
0010
1000
0000
,  // measure 72
0010
0100
0010
0000
0100
0010
0100
0000
,  // measure 73
0010
1000
0100
0000
0010
0100
0001
0000
,  // measure 74
0002
0000
1000
0000
,  // measure 75
2003
0000
0001
0000
,  // measure 76
3020
0000
0100
0000
,  // measure 77
0130
0110
0000
0000
,  // measure 78
1001
0000
0000
0000
,  // measure 79
0000
0000
0000
0000
0000
0000
1000
0001
;

//---------------dance-single - Normal----------------
#NOTEDATA:;
#CHARTNAME:Hard;
#STEPSTYPE:dance-single;
#DESCRIPTION:Normal;
#CHARTSTYLE:Pad;
#DIFFICULTY:Challenge;
#METER:15;
#RADARVALUES:0.594858,0.862551,0.302365,0.311004,0.168461,482.000000,447.000000,35.000000,36.000000,0.000000,0.000000,0.000000,0.000000,0.000000,0.594858,0.862551,0.302365,0.311004,0.168461,482.000000,447.000000,35.000000,36.000000,0.000000,0.000000,0.000000,0.000000,0.000000;
#CREDIT:ACLAN99;
#OFFSET:0.000000;
#BPMS:0.000000=169.000000
;
#STOPS:;
#DELAYS:;
#WARPS:;
#TIMESIGNATURES:0.000000=4=4
;
#TICKCOUNTS:0.000000=4
;
#COMBOS:0.000000=1
;
#SPEEDS:0.000000=1.000000=0.000000=0
,140.000000=0.750000=0.500000=0
,140.500000=1.000000=0.500000=0
,141.000000=0.500000=0.500000=0
,141.500000=1.000000=0.500000=0
,142.000000=0.750000=0.500000=0
,142.500000=1.000000=0.500000=0
,143.000000=0.500000=0.500000=0
,143.500000=1.000000=0.500000=0
,144.000000=0.750000=0.500000=0
,144.500000=1.000000=0.500000=0
,145.000000=0.500000=0.500000=0
,145.500000=1.000000=0.500000=0
,146.000000=0.750000=0.500000=0
,146.500000=1.000000=0.500000=0
,147.000000=0.500000=0.500000=0
,147.500000=1.000000=0.500000=0
,148.000000=0.750000=0.500000=0
,148.500000=1.000000=0.500000=0
,149.000000=0.500000=0.500000=0
,149.500000=1.000000=0.500000=0
,150.000000=0.750000=0.500000=0
,150.500000=1.000000=0.500000=0
,151.000000=0.500000=0.500000=0
,151.500000=1.000000=0.500000=0
,312.000000=0.000000=8.000000=0
;
#SCROLLS:0.000000=1.000000
,172.000000=0.500000
,176.000000=1.000000
;
#FAKES:;
#LABELS:0.000000=Song Start
,324.000000=Song End
;
#NOTES:
// measure 0
0000
0000
0000
0000
,  // measure 1
0000
0000
0000
0000
,  // measure 2
0000
0000
0000
0000
,  // measure 3
1000
0010
0100
0010
1000
0100
0010
0100
,  // measure 4
1000
0010
0100
0010
1000
0100
1000
0100
,  // measure 5
0001
0100
0010
0100
0001
0010
0100
0010
,  // measure 6
0001
0100
0010
0100
0001
0010
0001
0010
,  // measure 7
1000
0100
0010
1000
0100
0010
0001
0010
,  // measure 8
0100
0001
0010
0100
1000
0001
0100
0010
,  // measure 9
1000
0010
0100
0001
1000
0001
0100
0010
,  // measure 10
2000
0001
0001
3001
,  // measure 11
0100
0001
0010
0000
0001
0000
1000
0000
0010
0000
0100
0000
0001
0000
0100
0000
,  // measure 12
0010
1000
0100
0000
1000
0000
0001
0000
0100
0000
0010
0000
1000
0000
0010
0000
,  // measure 13
1000
0001
0100
0000
0010
0000
1000
0000
0100
0000
1000
0000
0001
0000
0100
0000
,  // measure 14
0001
1000
0010
0000
0100
0000
0001
0000
0010
0000
0001
0000
1000
0000
0010
0000
,  // measure 15
0010
0000
0110
0000
,  // measure 16
0001
0000
1001
0000
,  // measure 17
1000
0000
0001
0000
0100
0000
0010
0000
1000
0001
0100
0010
1000
0001
1000
0010
,  // measure 18
0100
0110
0000
0000
,  // measure 19
1002
0000
0010
0000
0103
0000
0010
0100
,  // measure 20
1020
0000
1000
0000
1030
0100
0010
1000
,  // measure 21
0001
0000
0012
0000
1003
0000
1000
0001
,  // measure 22
1000
0000
0100
0000
0010
0001
0010
0100
,  // measure 23
2001
0000
0010
0000
3100
0000
0100
0010
,  // measure 24
0001
0000
1000
0000
1000
0100
1000
0010
,  // measure 25
2010
0000
0001
0000
3100
0000
0010
0110
,  // measure 26
0000
0001
1001
0000
0001
1000
0010
0100
,  // measure 27
1002
0010
1003
0100
,  // measure 28
2001
0010
3001
0100
,  // measure 29
0020
0000
0130
0000
,  // measure 30
0200
0000
0000
0000
0310
0001
1000
0010
,  // measure 31
0200
0000
0000
0000
0310
1000
0001
0100
,  // measure 32
0010
0000
0001
0000
0000
1000
0100
1000
,  // measure 33
0010
0000
0000
0000
0001
0000
0010
0001
,  // measure 34
0010
0000
1001
0000
0001
0001
1000
0000
,  // measure 35
2002
0000
0003
0000
,  // measure 36
3001
0000
0000
0110
,  // measure 37
0220
0000
0300
0000
,  // measure 38
0130
0000
0000
0000
,  // measure 39
1000
0100
1000
0000
0001
0000
0010
0000
0001
0000
0100
0000
0001
0000
0100
0000
,  // measure 40
0001
0010
0001
0000
1000
0000
0010
0000
1000
0000
0100
0000
1000
0000
0001
0000
,  // measure 41
0100
0000
0010
0000
0100
0001
1000
0010
0100
0000
0001
0000
0100
0010
1000
0001
,  // measure 42
0100
0000
0001
0000
1000
0010
0100
0001
1000
0000
0001
0000
0100
0000
0000
0000
,  // measure 43
1100
0000
0000
0000
,  // measure 44
1000
0100
1000
0000
0100
0000
0001
0000
0010
0000
0100
0000
1000
0000
0001
0000
,  // measure 45
0001
0100
0001
0000
0100
0000
0010
0000
1000
0000
0100
0000
0010
0000
0001
0000
,  // measure 46
1000
0010
0100
0001
,  // measure 47
0001
0100
0010
1000
,  // measure 48
0010
1000
0010
0000
1000
0000
0100
0000
0010
0000
1000
0000
0001
0000
0100
0000
,  // measure 49
0100
0001
0100
0000
0001
0000
1000
0000
0010
0000
0100
0000
0001
0000
0100
0000
,  // measure 50
0010
0001
0100
0010
,  // measure 51
1000
0000
0001
0000
1000
0000
0001
0000
1000
0001
1000
0001
1000
0001
1000
0000
,  // measure 52
0002
0013
0020
0130
,  // measure 53
0200
1300
2000
3010
,  // measure 54
0020
0130
0200
0301
,  // measure 55
0002
0000
1003
0000
,  // measure 56
0001
1000
1001
0000
0010
0100
0110
0000
,  // measure 57
1000
0010
1010
0000
0001
0100
0101
0000
,  // measure 58
0010
0001
0011
0000
0100
1000
1100
0000
,  // measure 59
1000
0001
1001
0000
0100
0010
0110
0000
,  // measure 60
1000
1000
0001
0001
0100
0100
0010
0010
,  // measure 61
0100
0010
0100
0010
1000
0001
1000
0001
0100
0001
0100
0001
0010
1000
0010
1000
,  // measure 62
0002
0000
0010
0000
0013
0010
0011
0000
,  // measure 63
2000
0000
0100
0000
3100
0100
1100
0000
,  // measure 64
0200
0000
0001
0000
0301
0001
0101
0000
,  // measure 65
0020
0000
1000
0000
1030
1000
1010
0000
,  // measure 66
0020
1030
2000
3001
,  // measure 67
0002
0103
0200
0310
,  // measure 68
0020
1030
2000
3001
,  // measure 69
0010
0000
0100
0000
0010
0000
0100
0000
0001
1000
0001
1000
0010
0100
0010
0100
,  // measure 70
0001
0000
1000
0000
1000
1000
1000
0000
,  // measure 71
0001
0000
1000
0000
1000
1000
1000
0000
,  // measure 72
0010
0000
0100
0000
0100
0100
0100
0000
,  // measure 73
0100
0000
0010
0000
0010
0010
0010
0000
,  // measure 74
0012
0013
0120
0130
,  // measure 75
1200
1300
2001
3001
,  // measure 76
0001
0000
0001
0000
1000
0000
1000
0000
0010
0100
0010
0100
0010
0100
0010
0100
,  // measure 77
0010
0110
0000
0000
,  // measure 78
1001
0000
0000
0000
,  // measure 79
0000
0000
0000
0000
0000
0000
1000
0001
;

//---------------dance-single - Gimmick----------------
#NOTEDATA:;
#CHARTNAME:STOP Once More;
#STEPSTYPE:dance-single;
#DESCRIPTION:Gimmick;
#CHARTSTYLE:Pad;
#DIFFICULTY:Edit;
#METER:16;
#RADARVALUES:0.415907,0.574170,0.380116,0.388755,0.077751,337.000000,293.000000,44.000000,45.000000,0.000000,0.000000,0.000000,0.000000,0.000000,0.415907,0.574170,0.380116,0.388755,0.077751,337.000000,293.000000,44.000000,45.000000,0.000000,0.000000,0.000000,0.000000,0.000000;
#CREDIT:ACLAN99;
#OFFSET:0.000000;
#BPMS:0.000000=169.000000
;
#STOPS:12.000000=0.177515
,12.500000=0.532544
,13.000000=0.532544
,13.500000=0.532544
,15.000000=0.177515
,15.500000=0.532544
,16.000000=0.532544
,16.500000=0.532544
,18.000000=0.177515
,18.500000=0.532544
,19.000000=0.532544
,19.500000=0.532544
,21.000000=0.177515
,21.500000=0.532544
,22.000000=0.532544
,22.500000=0.532544
,24.000000=0.177515
,24.500000=0.177515
,25.000000=0.088757
,25.250000=0.088758
,26.500000=0.177515
,27.000000=0.177515
,27.500000=0.088757
,27.750000=0.088758
,29.000000=0.177515
,29.500000=0.177515
,30.000000=0.088757
,30.250000=0.088758
,31.500000=0.177515
,32.000000=0.177515
,32.500000=0.088757
,32.750000=0.088758
,34.000000=0.532545
,34.500000=0.532545
,35.000000=0.532545
,35.500000=0.532545
,44.000000=0.177515
,44.500000=0.177515
,45.000000=0.177515
,46.000000=0.355030
,46.500000=0.355030
,48.500000=0.355030
,49.000000=0.355030
,50.000000=0.355028
,50.500000=0.355030
,52.500000=0.355030
,53.000000=0.355030
,54.000000=0.355030
,54.500000=0.355030
,56.500000=0.355030
,57.000000=0.355030
,58.000000=0.177513
,59.000000=0.177513
,61.500000=0.177517
,62.000000=0.532547
,63.000000=0.355030
,63.500000=0.355030
,65.500000=0.177513
,66.000000=0.532547
,67.000000=0.355030
,67.500000=0.355030
,69.500000=0.177513
,70.000000=0.355030
,72.000000=0.177513
,72.500000=0.355030
,74.500000=0.177513
,75.000000=0.532547
,96.500000=0.177513
,97.000000=0.177517
,97.500000=0.177517
,98.000000=0.177517
,98.500000=0.177517
,99.000000=0.177517
,99.500000=0.177517
,100.000000=0.177517
,100.500000=0.532547
,101.000000=0.532547
,101.500000=0.532547
,102.000000=0.532547
,106.500000=0.177513
,107.000000=0.177517
,108.500000=0.177517
,109.000000=0.177517
,109.500000=0.177513
,111.000000=0.177513
,111.500000=0.177513
,112.000000=0.177513
,113.500000=0.177513
,114.000000=0.177513
,114.500000=0.177513
,116.000000=0.177513
,116.500000=0.177513
,117.000000=0.177513
,118.500000=0.177513
,119.000000=0.177513
,119.500000=0.177513
,121.000000=0.177513
,121.500000=0.177513
,122.000000=0.177513
,128.500000=0.177513
,129.000000=0.177513
,130.500000=0.177513
,131.000000=0.177513
,131.500000=0.177513
,133.000000=0.177513
,133.500000=0.177513
,134.000000=0.177513
,135.500000=0.177513
,136.000000=0.177513
,136.500000=0.177513
,138.000000=0.177513
,162.500000=0.177513
,163.000000=0.177513
,163.500000=0.177513
,164.000000=0.177513
,164.500000=0.177513
,165.000000=0.177513
,165.500000=0.177513
,166.000000=0.177513
,166.500000=0.177513
,167.000000=0.177513
,167.500000=0.177513
,168.000000=0.177513
,168.500000=0.177513
,169.000000=0.532547
,169.500000=0.177513
,170.000000=0.177513
,170.500000=0.532547
,171.000000=0.177513
,171.500000=0.177513
,172.000000=0.532547
,172.500000=0.177513
,173.000000=0.177513
,173.500000=0.532547
,174.000000=0.177513
,174.500000=0.177513
,175.000000=0.532539
,175.500000=0.177513
,176.000000=0.177513
,176.500000=0.177513
,177.000000=0.088760
,177.250000=0.088753
,177.500000=0.177513
,178.000000=0.177513
,178.500000=0.177513
,179.000000=0.088760
,179.250000=0.088753
,179.500000=0.177513
,180.000000=0.177513
,180.500000=0.177513
,181.000000=0.088760
,181.250000=0.088753
,181.500000=0.177513
,182.000000=0.177513
,182.500000=0.177513
,183.000000=0.088760
,183.250000=0.088753
,183.500000=0.177513
,184.000000=0.355034
,185.000000=0.355034
,186.000000=0.355034
;
#DELAYS:;
#WARPS:;
#TIMESIGNATURES:0.000000=4=4
;
#TICKCOUNTS:0.000000=4
;
#COMBOS:0.000000=1
;
#SPEEDS:0.000000=1.000000=0.000000=0
,36.000000=0.500000=4.000000=0
,40.000000=1.000000=0.500000=0
,92.000000=4.000000=4.000000=0
,102.500000=1.000000=4.000000=0
,138.500000=0.500000=1.000000=0
,139.500000=1.000000=1.000000=0
,140.500000=0.500000=1.000000=0
,141.500000=1.000000=1.000000=0
,142.500000=0.500000=1.000000=0
,143.500000=1.000000=1.000000=0
,144.500000=0.500000=1.000000=0
,145.500000=1.000000=1.000000=0
,146.500000=0.500000=1.000000=0
,147.500000=1.000000=1.000000=0
,148.500000=0.500000=1.000000=0
,149.500000=1.000000=1.000000=0
,150.500000=0.500000=1.000000=0
,151.500000=1.000000=1.000000=0
,152.500000=0.500000=1.000000=0
,153.500000=1.000000=1.000000=0
,184.000000=0.500000=0.500000=0
,184.500000=1.000000=0.500000=0
,185.000000=0.500000=0.500000=0
,185.500000=1.000000=0.500000=0
,186.000000=0.500000=0.500000=0
,186.500000=1.000000=0.500000=0
,187.000000=0.500000=0.500000=0
,187.500000=1.000000=0.500000=0
,194.000000=0.250000=4.000000=0
,197.000000=1000.000000=0.000000=0
,201.000000=1.000000=0.000000=0
,202.000000=0.000000=4.000000=0
;
#SCROLLS:0.000000=1.000000
,80.500000=0.250000
,102.500000=1.000000
,138.500000=0.500000
,154.500000=1.000000
;
#FAKES:;
#LABELS:0.000000=Song Start
,209.000000=Song End
;
#NOTES:
// measure 0
0000
0000
0000
0000
,  // measure 1
0000
0000
0000
0000
,  // measure 2
0000
0000
0000
0000
,  // measure 3
2000
0001
0001
0001
3001
0000
0002
1000
,  // measure 4
1000
1000
1003
0000
2000
0010
0010
0010
,  // measure 5
3010
0000
0002
0100
0100
0100
0103
0000
,  // measure 6
2000
0000
0001
0000
0001
0001
3001
0000
0000
0000
0002
0000
1000
0000
1000
1000
,  // measure 7
1003
0000
0000
0000
2000
0000
0100
0000
0100
0100
3100
0000
0000
0000
0002
0000
,  // measure 8
0010
0000
0010
0010
0013
0000
0000
0000
0011
0000
1001
0000
1010
0000
1001
0000
,  // measure 9
0101
0000
0000
0000
,  // measure 10
0000
1100
0000
0000
,  // measure 11
2000
0001
0010
0100
0100
0010
0001
3001
,  // measure 12
0002
1000
1000
0100
0100
0010
1000
1000
,  // measure 13
1003
2000
0010
0100
0100
0010
0001
0001
,  // measure 14
3001
0000
0000
0000
0000
0000
0000
0000
0000
0000
0000
0000
0000
0000
0000
0000
0000
0000
0000
0000
0000
0000
0000
0000
0002
0000
0000
0000
0000
0000
0000
0000
0000
0000
0000
0000
0000
0000
0000
0000
0000
0000
0000
0000
0000
0000
0000
0000
0010
0000
0000
0000
0000
0000
0000
0000
0000
0000
0000
0000
0000
0000
0000
0000
0000
0000
0000
0000
0000
0000
0000
0000
1000
0000
0000
0000
0000
0000
0000
0000
0000
0000
0000
0000
0000
0000
0000
0000
0000
0000
0000
0000
0000
0000
0000
0000
1000
0003
0000
0000
0000
0000
0000
0000
0000
0000
0000
0000
0000
0000
0000
0000
0000
0000
0000
0000
0000
0000
0000
0000
1000
0000
0000
0000
0000
0000
0000
0000
0000
0000
0000
0000
0000
0000
0000
0000
0000
0000
0000
0000
0000
0000
0000
0000
0001
0000
0000
0000
0000
0000
0000
0000
0000
0000
0000
0000
0000
0000
0000
0000
0000
0000
0000
0000
0000
0000
0000
0000
0001
0000
0000
0000
0000
0000
0000
0000
0000
0000
0000
0000
0000
0000
0000
0000
0000
0000
0000
0000
0000
0000
0000
0000
,  // measure 15
1000
0001
1000
0002
0010
1000
1003
0100
,  // measure 16
1000
0001
1000
2000
0001
0010
0010
0100
,  // measure 17
0001
0001
3001
0002
0010
1000
1000
1003
,  // measure 18
2000
0100
0001
0001
3001
0002
0103
0001
,  // measure 19
0001
0000
1000
1000
0000
0001
0001
1000
,  // measure 20
1000
0001
0000
0000
0000
0000
0000
0000
,  // measure 21
0000
0000
0000
0000
0000
0000
0000
1001
,  // measure 22
0000
1001
0000
0000
0000
0000
0000
0000
,  // measure 23
0000
0000
0000
0000
,  // measure 24
0000
1100
1010
1001
1001
0011
0101
1001
,  // measure 25
1010
0101
1100
0011
1010
0101
0000
0000
,  // measure 26
0000
0000
0000
0000
0000
2001
0010
0100
,  // measure 27
0100
3100
1002
0100
0010
0010
0013
2001
,  // measure 28
0100
0001
0001
3001
1002
0100
1000
1000
,  // measure 29
1003
2001
0010
0001
0001
3001
1002
0010
,  // measure 30
1000
1000
1003
2001
0010
0001
0001
3001
,  // measure 31
0000
1000
0001
1000
0001
1000
0001
1000
,  // measure 32
0001
0012
0100
1000
1000
1003
2100
0010
,  // measure 33
0001
0001
3001
0102
0010
1000
1000
1003
,  // measure 34
2100
0010
0001
0001
3001
1100
0000
0000
,  // measure 35
0000
0101
0000
0000
0000
0011
0000
0000
,  // measure 36
0000
1010
0000
0000
0000
1010
0000
0000
,  // measure 37
0000
0011
0000
0000
0000
0101
0000
0000
,  // measure 38
0000
1100
0000
0000
0000
1000
0001
1000
,  // measure 39
0001
0000
1000
0000
0001
0000
1000
0000
0001
0000
1000
0001
1000
0001
1000
0001
,  // measure 40
1000
0001
1000
0001
1000
0001
1000
0000
0000
0000
0002
0000
1003
0000
2000
0000
,  // measure 41
3001
0002
0103
2000
3100
0002
0013
2000
,  // measure 42
3010
0002
1000
1003
2000
0001
3001
0002
,  // measure 43
0100
0013
2000
0010
3100
0002
1000
0103
,  // measure 44
2000
0000
0010
0000
0100
0100
3100
0000
0002
0000
0010
0000
0100
0100
0103
0000
,  // measure 45
2000
0000
0100
0000
0010
0010
3010
0000
0002
0000
0100
0000
0010
0010
0013
0000
,  // measure 46
1000
1001
0001
1001
,  // measure 47
0000
0000
0000
0000
1000
0000
0001
0000
1000
0000
0001
0000
1000
0001
1000
0001
,  // measure 48
1000
0001
1000
0001
1000
0000
0000
0000
1001
0000
0000
0000
0000
0000
0000
0000
,  // measure 49
0000
0220
0000
0000
,  // measure 50
0000
0330
0000
0000
,  // measure 51
0100
0010
0000
0000
0000
0000
0000
0000
;
