#VERSION:0.83;
#TITLE:More;
#SUBTITLE:;
#ARTIST:Junkie XL feat. Lauren Rocket;
#TITLETRANSLIT:;
#SUBTITLETRANSLIT:;
#ARTISTTRANSLIT:;
#GENRE:;
#ORIGIN:;
#CREDIT:;
#BANNER:More.png;
#BACKGROUND:More-bg.png;
#PREVIEWVID:;
#JACKET:More-jacket.png;
#CDIMAGE:;
#DISCIMAGE:;
#LYRICSPATH:;
#CDTITLE:;
#MUSIC:More.ogg;
#OFFSET:-0.100000;
#SAMPLESTART:54.286728;
#SAMPLELENGTH:15.483871;
#SELECTABLE:YES;
#BPMS:0.000=124.000;
#STOPS:228.000=1.452;
#DELAYS:;
#WARPS:;
#TIMESIGNATURES:0.000=4=4;
#TICKCOUNTS:0.000=4;
#COMBOS:0.000=1;
#SPEEDS:0.000=1.000=0.000=0;
#SCROLLS:0.000=1.000;
#FAKES:;
#LABELS:0.000=Song Start;
#BGCHANGES:;
#KEYSOUNDS:;
#ATTACKS:
;

//---------------dance-single - ----------------
#NOTEDATA:;
#CHARTNAME:;
#STEPSTYPE:dance-single;
#DESCRIPTION:;
#CHARTSTYLE:;
#DIFFICULTY:Hard;
#METER:11;
#RADARVALUES:0.459933,0.477269,0.389174,0.148594,0.106138,455.000000,400.000000,55.000000,21.000000,0.000000,0.000000,0.000000,0.000000,0.000000,0.459933,0.477269,0.389174,0.148594,0.106138,455.000000,400.000000,55.000000,21.000000,0.000000,0.000000,0.000000,0.000000,0.000000;
#CREDIT:;
#NOTES:
0000
0000
0000
0000
,
0000
0000
0000
0000
,
0000
0000
0000
0000
,
0000
0000
0000
0000
,
1000
0000
1000
0000
1000
0000
1000
0100
,
0001
0000
0001
0000
0001
0000
0001
0100
,
1000
0000
1000
0000
1000
0000
1000
0010
,
0200
0000
0000
0000
0000
0000
0310
0100
0010
0100
0000
0000
,
0010
0000
1001
0000
0010
1000
0100
0000
,
0010
0000
1001
0000
0010
0001
0100
0010
,
0100
0000
1001
0000
0100
0001
0010
0000
,
0100
0000
1001
0000
0100
1000
0020
0000
,
0130
0000
0100
0000
0100
0001
1000
0000
,
0010
0000
0010
0000
0010
1000
0001
0010
,
0100
0000
0100
1000
0001
0100
1000
0000
,
1000
0100
0001
1000
0000
0100
0000
0010
,
0000
0010
0001
1000
0001
0010
0100
1000
,
0010
0001
1000
0001
0010
1000
0001
0010
,
0100
0000
1000
0000
0001
0100
0010
0000
,
0100
0000
0100
0000
0001
0000
0000
0000
1000
0000
0100
0010
0000
0000
0001
1000
,
0000
0000
0110
0000
0010
0100
0001
0000
,
1000
0100
0010
1000
0000
1000
0010
0100
,
1000
0100
1000
0001
1000
0010
0100
0010
,
0000
1000
0001
1000
0000
0100
0010
0100
,
1000
0000
0001
0010
1000
0010
0001
0100
,
1000
0100
0010
0001
0010
0100
1000
0100
,
0010
0000
0010
0100
0001
0000
0010
0000
,
0100
0010
0001
1000
,
0002
0000
0023
0000
1030
0100
0101
0000
,
2000
0000
3200
0000
0301
0010
1010
0000
,
0002
0000
0000
0023
0000
0000
0130
0010
0100
0110
0000
0000
,
1001
0000
0000
0001
0100
0000
0001
0000
1000
0000
0100
0000
0110
0000
0000
0000
,
2000
0000
3020
0000
0031
0100
1100
0000
,
0002
0000
0203
0000
1300
0010
0011
0000
,
2000
0000
0000
3020
0000
0000
0130
0010
0100
0110
0000
0000
,
1001
0000
0000
1000
0100
0000
1000
0000
0001
0000
0100
0000
0110
0000
0000
0000
,
0001
0010
0100
0000
0001
1000
0001
0000
,
1000
0100
0010
0000
1000
0001
1000
0000
,
0010
0000
0000
0001
1000
0000
0001
0000
0010
0000
0000
1000
0001
0000
1000
0000
,
0010
0000
0000
0001
1000
0000
0001
0000
0010
0000
0000
1000
0001
0000
0000
0000
,
0001
0100
0010
0000
0001
1000
0001
0000
,
1000
0010
0100
0000
1000
0001
1000
0000
,
1010
0000
0011
0000
1000
0010
0110
0000
,
1010
0000
0011
0000
1000
0010
0100
0001
,
0101
0000
1100
0000
0001
0100
0110
0000
,
1001
0000
0000
0001
0010
0000
0100
0000
1000
0000
0001
0000
1001
0000
0000
0000
,
1100
0000
0101
0000
1000
0100
0110
0000
,
1100
0000
0101
0000
1000
0100
0010
0001
,
0011
0000
1010
0000
0001
0010
0110
0000
,
1001
0000
0000
1000
0100
0000
0010
0000
0001
0000
1000
0000
1001
0000
0001
1000
,
0000
0000
1000
0000
0010
0100
0000
0000
0100
0000
0010
0100
0000
0000
0000
0000
,
0000
0000
0001
0000
0010
0100
0000
0000
0100
0000
0010
0200
0010
0000
0010
0000
,
0320
0000
0000
0000
0032
0000
0000
0000
1003
0000
0000
0010
0000
0000
0001
0000
,
0000
1000
1000
0100
0001
0010
0100
0000
,
0200
0000
0000
0000
2300
0000
0000
0000
3001
0000
0000
0100
0000
0000
1000
0000
,
0000
0001
0001
0010
1000
0100
0010
0000
,
0020
0000
0000
0000
0032
0000
0000
0000
1003
0000
0000
1000
0000
0000
0001
0000
,
0000
0000
1000
0010
0100
0000
1000
0001
,
1000
0000
0001
0100
0010
0000
0001
1000
,
0001
0000
0000
0000
0010
0000
0000
1000
0001
0000
1000
0000
0010
0000
0000
0001
,
1000
0000
0001
0000
0010
0000
0000
1000
0001
0000
1000
0000
0010
0000
0000
0001
,
1000
0000
1000
0100
0010
0000
1000
0001
,
1000
0000
0001
0010
0100
0000
0001
1000
,
0001
0000
0011
0000
1010
0000
0001
0010
,
0110
0000
0011
0000
1010
0000
0001
0010
,
0100
1000
1100
0000
0101
0000
1000
0100
,
0110
0000
0000
0000
1001
0000
0000
1000
0010
0000
0100
0000
0001
0000
1000
0000
,
1001
0000
0101
0000
1100
0000
0001
0100
,
0110
0000
0101
0000
1100
0000
0001
0100
,
0010
1000
1010
0000
0011
0000
1000
0010
,
0110
0000
0000
0000
1001
0000
0000
0001
0100
0000
0010
0000
1000
0000
0001
0000
,
1001
0000
0000
0000
;

//---------------dance-single - ----------------
#NOTEDATA:;
#CHARTNAME:;
#STEPSTYPE:dance-single;
#DESCRIPTION:;
#CHARTSTYLE:;
#DIFFICULTY:Medium;
#METER:8;
#RADARVALUES:0.337621,0.401910,0.240580,0.367946,0.007076,334.000000,300.000000,34.000000,52.000000,0.000000,0.000000,0.000000,0.000000,0.000000,0.337621,0.401910,0.240580,0.367946,0.007076,334.000000,300.000000,34.000000,52.000000,0.000000,0.000000,0.000000,0.000000,0.000000;
#CREDIT:;
#NOTES:
0000
0000
0000
0000
,
0000
0000
0000
0000
,
0000
0000
0000
0000
,
0000
0000
0000
0000
,
0001
0000
1000
0000
0001
0000
1000
0001
,
0100
0000
0010
0000
0100
0000
0010
1000
,
0001
0000
1000
0000
0001
0000
1000
0100
,
0020
0000
0130
1001
,
0001
1100
0001
1010
,
0001
1100
0001
1010
,
0001
0010
0100
1000
,
0001
0100
0010
2000
,
3001
0100
0010
0010
,
1000
0100
0010
0010
,
0001
0000
1000
0000
0010
0000
0100
0010
,
0100
0000
0001
0000
0010
0000
0100
0010
,
0100
1000
0010
0001
,
0100
1000
0010
0100
,
0010
0000
1000
0000
0001
0010
0001
0000
,
1000
0001
1000
0000
0010
0100
0000
0100
,
0000
1001
0010
1001
,
0010
0000
0010
0100
0000
0100
0010
0000
,
0100
1001
0100
1001
,
0100
0010
0000
0010
0100
0000
1001
0000
,
1000
1010
0010
0011
,
0001
0101
0100
1100
,
1000
1010
0001
0011
,
0110
1100
1001
0110
,
2000
3200
0001
1300
,
0002
0203
1000
0301
,
1000
0100
0110
1001
,
0001
0000
0010
0000
0100
1000
0001
0000
,
2000
3020
0001
1030
,
0002
0023
1000
0031
,
1000
0010
0110
1001
,
1000
0000
0100
0000
0010
0001
2000
0000
,
3002
0103
2000
3010
,
0002
0103
2000
3010
,
0001
0000
0110
0000
0001
0000
1000
0001
,
1000
0000
0110
0000
1000
0000
0001
1000
,
0002
0013
2000
3100
,
0002
0013
2000
3100
,
0002
0000
0023
0000
0130
0010
0100
0000
,
0200
0000
2300
0000
3001
1000
0001
0000
,
0002
0000
0203
0000
0310
0100
0010
0000
,
0110
0000
1001
0000
0001
0010
0100
0000
,
2000
0000
3020
0000
0130
0010
0100
0000
,
0200
0000
0302
0000
1003
0001
1000
0000
,
2000
0000
3200
0000
0310
0100
0010
0000
,
0110
0000
1001
0000
1000
0010
0100
0000
,
0000
0000
0010
0000
0010
0000
0000
0000
0100
0000
0000
0100
0000
0000
0000
0000
,
0000
0000
0001
0000
0001
0000
0000
0000
1000
0000
0000
2000
0000
0000
0000
0000
,
3001
0001
0001
0001
,
0001
0000
0001
0000
0001
0010
0100
0000
,
0010
0010
0010
0010
,
0010
0000
0010
0000
0010
0100
1000
0000
,
0001
0001
0001
0001
,
0000
2000
3010
0002
,
0103
2000
3010
0002
,
0103
1000
0110
1000
,
0001
1000
0001
0000
0110
0000
0001
0000
,
1000
0001
2000
0000
3100
0000
0002
0000
,
0013
2000
3100
0002
,
0013
0000
2000
0000
3200
0000
0310
0100
,
0010
0000
0020
0000
0032
0000
1003
0001
,
1000
0000
2000
0000
3020
0000
0130
0010
,
0100
0000
0110
0000
1001
0000
1000
0100
,
0010
0000
0002
0000
0203
0000
0310
0100
,
0010
0000
0020
0000
2030
0000
3001
1000
,
0001
0000
0002
0000
0023
0000
0130
0010
,
0100
0000
1000
0000
0010
0000
0100
0010
,
0100
0000
0000
0000
;

//---------------dance-single - ----------------
#NOTEDATA:;
#CHARTNAME:;
#STEPSTYPE:dance-single;
#DESCRIPTION:;
#CHARTSTYLE:;
#DIFFICULTY:Easy;
#METER:6;
#RADARVALUES:0.254732,0.251194,0.113214,0.332567,0.000000,252.000000,236.000000,16.000000,47.000000,0.000000,0.000000,0.000000,0.000000,0.000000,0.254732,0.251194,0.113214,0.332567,0.000000,252.000000,236.000000,16.000000,47.000000,0.000000,0.000000,0.000000,0.000000,0.000000;
#CREDIT:;
#NOTES:
// measure 0
0000
0000
0000
0000
,  // measure 1
0000
0000
0000
0000
,  // measure 2
0000
0000
0000
0000
,  // measure 3
0000
0000
0000
0000
,  // measure 4
0010
0010
0010
0010
,  // measure 5
0100
0100
0100
0100
,  // measure 6
0001
0001
0001
0001
,  // measure 7
2000
0000
3001
0001
,  // measure 8
0010
0001
0010
0001
,  // measure 9
1000
0010
1000
0010
,  // measure 10
1000
0001
0000
0001
,  // measure 11
0010
0100
0000
0200
,  // measure 12
0300
1000
1000
0000
,  // measure 13
0001
0100
1000
0100
,  // measure 14
0010
0000
0010
0100
,  // measure 15
0010
0000
1000
0001
,  // measure 16
1000
0100
0010
0001
,  // measure 17
0020
0001
0130
0010
,  // measure 18
0001
0001
1000
1000
,  // measure 19
0010
0000
0100
0000
0000
0010
0000
0010
,  // measure 20
0000
0110
0000
1010
,  // measure 21
0000
1001
0000
0011
,  // measure 22
0000
0110
0000
1001
,  // measure 23
0001
1000
0001
0000
,  // measure 24
0000
0110
0000
0011
,  // measure 25
0000
1001
0000
1010
,  // measure 26
0000
0110
0000
1001
,  // measure 27
1000
0001
1000
0001
,  // measure 28
1000
2000
0001
3010
,  // measure 29
0010
0020
1000
0130
,  // measure 30
0100
0200
0010
0301
,  // measure 31
1000
0100
0001
0010
,  // measure 32
1000
2000
0001
3100
,  // measure 33
0100
0200
1000
0310
,  // measure 34
0010
0020
0100
0031
,  // measure 35
1000
0010
0001
0200
,  // measure 36
2300
0010
3002
0010
,  // measure 37
2003
0100
3002
0100
,  // measure 38
2003
3001
0000
0011
,  // measure 39
0001
1000
0000
1010
,  // measure 40
0002
0010
2003
0010
,  // measure 41
3002
0100
2003
0100
,  // measure 42
3001
0002
1000
0013
,  // measure 43
0010
0020
0001
0130
,  // measure 44
0100
0200
0010
1300
,  // measure 45
0001
0100
1000
0010
,  // measure 46
0001
0002
1000
0103
,  // measure 47
0100
0200
0001
0310
,  // measure 48
0010
0020
0100
1030
,  // measure 49
0001
0010
1000
0100
,  // measure 50
0000
0001
0001
0001
,  // measure 51
0000
1000
1000
2000
,  // measure 52
3002
0023
0030
0000
,  // measure 53
0000
0010
0100
1000
,  // measure 54
0002
0023
0030
0000
,  // measure 55
0000
0010
0100
1000
,  // measure 56
0002
0023
0130
1000
,  // measure 57
0000
0002
0100
2003
,  // measure 58
0100
3002
0010
2003
,  // measure 59
0010
3002
1003
0000
,  // measure 60
1100
1000
0001
0000
,  // measure 61
0101
2000
0100
3002
,  // measure 62
0100
2003
0010
3002
,  // measure 63
0010
1003
2000
0001
,  // measure 64
3100
0100
0200
1000
,  // measure 65
0310
0010
0020
0100
,  // measure 66
0031
1000
0010
0001
,  // measure 67
0100
1000
2000
0001
,  // measure 68
3010
0010
0020
1000
,  // measure 69
0130
0100
0200
0010
,  // measure 70
0301
1000
0100
0010
,  // measure 71
0010
0000
0000
0000
;

//---------------dance-single - ----------------
#NOTEDATA:;
#CHARTNAME:;
#STEPSTYPE:dance-single;
#DESCRIPTION:;
#CHARTSTYLE:;
#DIFFICULTY:Beginner;
#METER:3;
#RADARVALUES:0.180941,0.251194,0.127366,0.268884,0.000000,179.000000,161.000000,18.000000,38.000000,0.000000,0.000000,0.000000,0.000000,0.000000,0.180941,0.251194,0.127366,0.268884,0.000000,179.000000,161.000000,18.000000,38.000000,0.000000,0.000000,0.000000,0.000000,0.000000;
#CREDIT:;
#NOTES:
0000
0000
0000
0000
,
0000
0000
0000
0000
,
0000
0000
0000
0000
,
0000
0000
0000
0000
,
1000
0000
0000
0000
,
0001
0000
0000
0000
,
0100
0000
0000
0000
,
0020
0000
0000
0030
,
0010
0010
0000
1000
,
0000
0001
0000
0010
,
0000
0100
0000
1000
,
0000
0010
0000
0200
,
0300
0010
0010
0000
,
1000
1000
1000
0000
,
0100
0000
0010
0000
,
0001
0000
0100
0000
,
0010
0000
0100
0000
,
0001
0001
0001
0000
,
1000
0000
0100
0000
,
0010
0000
0000
0001
,
0001
0001
0000
1001
,
0000
1000
0000
1001
,
0000
0010
0000
0110
,
0000
0100
0000
0110
,
0000
0001
0001
0000
,
0010
0010
0010
0000
,
0100
0000
0010
0000
,
0001
0000
0100
0000
,
0010
0020
0030
0000
,
1000
2000
3000
0000
,
0100
0200
0300
0000
,
0010
0010
0100
0100
,
0100
0200
0300
0000
,
1000
2000
3000
0000
,
0001
0002
0003
0000
,
1000
1000
0001
0001
,
0002
0003
0200
0300
,
2000
3000
0020
0030
,
0002
0003
0000
0110
,
0000
0000
0000
1000
,
2000
3000
0200
0300
,
0002
0003
0020
0030
,
1000
2000
3000
1001
,
0001
0002
0003
1001
,
1000
2000
3000
1001
,
0001
0001
0100
0100
,
0100
0200
0300
0110
,
0010
0020
0030
0110
,
0100
0200
0300
0110
,
0010
0010
1000
1000
,
0000
0001
0001
0001
,
0000
0001
0001
0001
,
1000
1000
0000
0000
,
0000
1000
0001
1000
,
0001
0001
0000
0000
,
0000
0001
1000
0001
,
1000
1000
0000
0000
,
0000
0002
0003
0200
,
0300
2000
3000
0020
,
0030
0002
0003
0000
,
0110
0000
0000
0000
,
1000
2000
3000
0200
,
0300
0002
0003
0020
,
0030
1000
2000
3000
,
1001
0001
0002
0003
,
1001
1000
2000
3000
,
1001
0001
0001
0100
,
0100
0100
0200
0300
,
0110
0010
0020
0030
,
0110
0100
0200
0300
,
0110
0010
0010
1000
,
1000
0000
0000
0000
;
