#TITLE:Mistress Ann ni hanataba wo;
#SUBTITLE:;
#ARTIST:soejima takuma feat. Nekomata Master;
#TITLETRANSLIT:;
#SUBTITLETRANSLIT:;
#ARTISTTRANSLIT:;
#GENRE:;
#CREDIT:;
#BANNER:banner.png;
#BACKGROUND:background.png;
#LYRICSPATH:;
#CDTITLE:;
#MUSIC:mistress ann ni hanataba wo.ogg;
#OFFSET:2.769937;
#SAMPLESTART:75.463585;
#SAMPLELENGTH:12.444443;
#LASTBEATHINT:3.911940;
#SELECTABLE:YES;
#BPMS:0.000000=135.000000
,104.000000=202.500000
;
#STOPS:
;
#BGCHANGES:3.667=mistress ann.avi=1.000=0=0=0=StretchNoLoop====,
99999=-nosongbg-=1.000=0=0=0 // don't automatically add -songbackground-
;
#KEYSOUNDS:;
#ATTACKS:;

//---------------dance-single - ----------------
#NOTES:
     dance-single:
     :
     Hard:
     15:
     0.679096,0.866555,0.288101,0.351124,0.328616,528.000000,496.000000,32.000000,39.000000,0.000000,0.000000,0.679096,0.866555,0.288101,0.351124,0.328616,528.000000,496.000000,32.000000,39.000000,0.000000,0.000000:
// measure 0
0000
0000
0000
0000
,  // measure 1
0000
0000
0000
0000
,  // measure 2
0000
0000
0000
0000
,  // measure 3
0000
0000
0000
0000
,  // measure 4
1002
0000
0000
0000
0000
0000
0103
0000
0000
0000
0000
0000
2010
0000
0000
0000
0000
0000
3001
0000
0000
0010
0001
0010
,  // measure 5
0200
0000
0000
0000
0000
0000
1300
0000
0000
0000
0000
0000
0012
0000
0000
0000
0000
0000
1003
0000
0000
0000
0010
1000
,  // measure 6
0002
0000
0000
0203
0000
0000
0320
0000
1000
0000
0000
0000
0001
0000
0000
0000
,  // measure 7
0230
0000
0000
0000
0301
0000
0010
0001
1000
0000
0100
0000
0001
0000
0100
0000
,  // measure 8
0020
0000
0000
0000
0000
0000
0000
0000
0000
0000
0000
0000
0031
0000
0000
0000
0000
0000
0010
0000
0000
0100
0000
0000
1000
0000
0000
0000
0000
0000
0000
0000
0010
0000
0000
0000
0100
0000
0000
0000
0001
0000
0000
0000
0000
0000
0000
0000
,  // measure 9
1002
0000
0013
0000
0100
1000
0001
1000
,  // measure 10
0010
0000
0100
0001
0010
0000
1000
0000
0010
0000
0000
0000
0011
0000
0000
0000
,  // measure 11
0001
0100
1000
0100
0001
1000
0110
0000
,  // measure 12
2010
0000
0000
0000
0000
0000
3001
0000
0000
0000
0000
0000
0012
0000
0000
0000
0000
0000
0103
0000
0000
0010
1000
0010
,  // measure 13
0200
0000
0000
0000
0000
0000
0301
0000
0000
0000
0000
0000
2100
0000
0000
0000
0000
0000
3001
0000
0000
0000
0010
0001
,  // measure 14
2000
0000
0000
3200
0000
0000
0320
0000
0001
0000
0000
0000
1000
0000
0000
0000
,  // measure 15
0230
0000
0000
0000
1300
0000
0010
1000
0001
0000
0010
0000
1000
0000
0010
0000
,  // measure 16
0200
0000
0000
0000
0000
0000
0000
0000
0000
0000
0000
0000
1300
0000
0000
0000
0000
0000
0010
0000
0000
0100
0000
0000
0001
0000
0000
0000
0000
0000
0000
0000
0010
0000
0000
0000
0100
0000
0000
0000
1000
0000
0000
0000
0000
0000
0000
0000
,  // measure 17
2001
0000
3010
0000
0100
0001
1000
0001
,  // measure 18
0010
0000
0100
1000
0010
0000
0001
0000
0010
0000
0000
0000
1010
0000
0000
0000
,  // measure 19
1000
0000
0001
1000
0010
0000
1000
0000
0001
0100
0001
0000
1001
0000
0000
0000
,  // measure 20
0010
0001
0100
0010
1000
0100
0001
0100
1000
0000
0001
0010
0000
0100
0000
0010
,  // measure 21
0100
0000
1000
0010
0000
1000
0001
0000
0010
0000
0100
0000
1000
0000
0001
1000
,  // measure 22
0010
1000
0100
0010
0001
0100
1000
0100
0001
0000
0010
0100
0000
1000
0000
0001
,  // measure 23
1000
0000
0001
0010
0000
0001
1000
0000
0100
0000
0010
0001
1000
0000
0010
1000
,  // measure 24
0100
0010
0001
0100
0010
1000
0100
0001
0100
0000
1000
0010
0000
0100
0000
0001
,  // measure 25
0100
0000
0010
0100
0000
0010
1000
0000
0001
0000
0010
0000
1000
0000
0010
0001
,  // measure 26
1000
0100
0001
0100
0001
0100
1000
0010
,  // measure 27
0001
0010
0001
0010
1000
0001
0010
0100
,  // measure 28
1000
0010
0100
0000
0000
0220
0000
0330
,  // measure 29
0001
0100
0010
0100
0001
0000
0011
0000
,  // measure 30
0001
0010
0100
0000
1000
0100
0010
0100
,  // measure 31
1000
0000
1010
0000
1000
0010
0100
0000
,  // measure 32
0001
0010
0100
0010
0001
0000
1000
0010
,  // measure 33
0100
0010
1000
0000
0100
0000
1000
0010
,  // measure 34
0100
0000
0001
0000
0001
1000
0000
1000
,  // measure 35
0001
0100
1000
0100
0001
0000
1010
0000
,  // measure 36
0010
1000
0001
0000
1000
0100
0001
0100
,  // measure 37
1000
0000
0011
0000
0010
0001
1000
0000
,  // measure 38
0100
1000
0010
1000
0001
0000
0100
0001
,  // measure 39
0010
0001
1000
0000
0002
0000
0013
0100
,  // measure 40
0010
0000
0200
0000
1300
0001
1000
0000
,  // measure 41
1010
0000
0010
0100
0001
0000
1001
0000
,  // measure 42
0001
1000
0100
0000
0011
0000
0010
0100
,  // measure 43
1000
0000
0101
0000
0010
0100
0001
1000
,  // measure 44
1000
0000
0010
1000
0001
0000
0101
0000
,  // measure 45
0100
0001
1000
0000
0001
1000
0010
1000
,  // measure 46
0100
0000
0000
0001
0000
0000
0000
0000
0000
0001
0000
0000
0100
0000
0000
1000
0000
0000
0100
0000
0000
0000
1000
0000
,  // measure 47
0001
0010
0100
0010
0001
0000
0101
0000
,  // measure 48
0001
0100
0010
0000
1000
0010
0100
0010
,  // measure 49
1000
0000
1100
0000
0100
0010
0001
1000
,  // measure 50
1000
0001
0010
0001
1000
0000
0001
1000
,  // measure 51
0010
0100
0001
0000
1001
0000
0001
0010
,  // measure 52
0100
1000
0002
0000
2003
0000
3200
0000
,  // measure 53
0310
0100
0001
0100
1000
0000
0010
0100
,  // measure 54
1000
0100
0001
0000
0010
0000
0100
0010
,  // measure 55
0000
0001
0010
0100
1000
0000
0000
0000
0001
0000
1000
0000
0100
0000
0000
0000
,  // measure 56
1000
0000
0000
0000
0000
0000
0010
0000
0000
1000
0000
0000
0010
0000
0000
0000
0010
0000
0100
0000
0000
0000
0000
0000
,  // measure 57
0001
0000
0100
0010
1000
0000
0001
0000
1000
0000
0000
0000
2020
0000
3030
0000
,  // measure 58
0000
1000
0100
1000
0001
0000
0000
0000
0022
0000
0033
0000
0000
0001
0100
0001
,  // measure 59
2000
0000
3010
0100
0010
1000
0100
0001
,  // measure 60
1000
0010
0001
0100
1000
0001
0020
0000
,  // measure 61
1030
0001
0200
0000
0000
0301
0000
0000
,  // measure 62
2001
0000
0000
3001
0000
0000
0001
0010
0001
0200
0000
0000
,  // measure 63
0310
1000
0100
0010
0001
0100
1000
0100
,  // measure 64
0010
0100
0001
0010
1000
0010
0100
0010
,  // measure 65
0001
0000
0010
0000
0100
0000
1000
0000
0000
1010
0000
0000
0101
0000
0000
0000
,  // measure 66
0001
1000
0100
0010
0001
1000
0010
1000
,  // measure 67
0100
0000
0000
0000
0000
0000
0000
0000
0100
0000
0000
0000
1000
0000
0000
0000
0000
0000
0010
0000
0000
0000
0000
0000
0100
0000
0000
0000
0000
0000
0010
0000
0000
0100
0000
0000
0001
0000
0000
0000
0000
0000
1000
0000
0000
0000
0000
0000
,  // measure 68
0001
0000
0000
0000
0101
0000
0000
0000
0001
0100
0010
1000
0001
0000
0000
0000
,  // measure 69
1100
0000
0000
0000
1000
0100
0010
0001
1000
0000
0000
0000
0010
0000
0100
0000
,  // measure 70
0010
1000
0100
0001
1000
0010
0001
1000
,  // measure 71
0001
0100
2000
0000
3100
0001
0020
0000
,  // measure 72
0031
1000
0100
0010
0001
1000
0010
1000
,  // measure 73
0001
0000
0010
0000
0100
0000
1000
0000
0000
0001
0000
0000
0010
0000
0000
0001
0000
0000
1000
0000
0000
0001
0000
0000
,  // measure 74
0200
0000
0000
0000
,  // measure 75
0000
0000
0000
0000
,  // measure 76
0000
0000
0000
0000
,  // measure 77
0300
0000
0000
0000
;

//---------------dance-single - ----------------
#NOTES:
     dance-single:
     :
     Medium:
     12:
     0.506750,0.658582,0.144051,0.234082,0.162057,394.000000,378.000000,16.000000,26.000000,0.000000,0.000000,0.506750,0.658582,0.144051,0.234082,0.162057,394.000000,378.000000,16.000000,26.000000,0.000000,0.000000:
0000
0000
0000
0000
,
0000
0000
0000
0000
,
0000
0000
0000
0000
,
0000
0000
0000
0000
,
0010
0000
0000
0000
1000
0000
0000
0000
0001
0000
0000
0000
0010
0000
0100
0010
,
0100
0000
0000
0000
1000
0000
0000
0000
0010
0000
0000
0000
0100
0000
0000
0001
,
0100
0000
0000
0010
0000
0000
1000
0000
0001
0000
0000
0000
0020
0000
0000
0000
,
0130
0000
0000
0000
1000
0000
0010
1000
0100
0000
0010
0000
0001
0000
0100
0000
,
0020
0000
0000
0000
0000
0000
0000
0000
0000
0000
0000
0000
1030
0000
0000
0000
0000
0000
0001
0000
0000
1000
0000
0000
0001
0000
0000
0000
0000
0000
0000
0000
0010
0000
0000
0000
0000
0000
0000
0000
0100
0000
0000
0000
0000
0000
0000
0000
,
1000
0000
0001
0000
0010
0001
1000
0010
,
0100
0000
0001
1000
0100
0000
0001
0000
0200
0000
0000
0000
1300
0000
0000
0000
,
0010
0001
0010
1000
0001
0000
0110
0000
,
1100
0000
0000
0000
0001
0000
0000
0000
1000
0000
0000
0000
0010
0000
0100
0010
,
0100
0000
0000
0000
0001
0000
0000
0000
0010
0000
0000
0000
0100
0000
0000
1000
,
0100
0000
0000
0010
0000
0000
0001
0000
1000
0000
0000
0000
0020
0000
0000
0000
,
0130
0000
0000
0000
0001
0000
0010
0001
0100
0000
0010
0000
1000
0000
0100
0000
,
0020
0000
0000
0000
0000
0000
0000
0000
0000
0000
0000
0000
0031
0000
0000
0000
0000
0000
1000
0000
0000
0001
0000
0000
1000
0000
0000
0000
0000
0000
0000
0000
0010
0000
0000
0000
0000
0000
0000
0000
0100
0000
0000
0000
0000
0000
0000
0000
,
0001
0000
1000
0000
0010
1000
0001
0010
,
0100
0000
1000
0001
0100
0000
1000
0000
0200
0000
0000
0000
0301
0000
0000
0000
,
0010
1000
0010
0001
0100
0010
1001
0000
,
0010
0000
1000
0001
0000
1000
0100
0000
0010
0000
0001
1000
0000
0010
0000
1000
,
0002
0000
1003
0100
0010
0001
1000
0001
,
0010
0000
0001
1000
0000
0001
0100
0000
0010
0000
1000
0001
0000
0010
0000
0001
,
2000
0000
3100
0010
0022
0033
2020
3030
,
0100
0000
1000
0001
0000
1000
0000
0010
0100
0000
0001
0100
0000
0010
0000
1000
,
0200
0000
0310
0001
0010
0100
2000
0000
,
3010
0100
0001
0100
0001
0100
0010
1000
,
0100
1000
0100
1000
0002
0000
0000
0013
,
0000
1001
0000
0000
,
1000
0010
0100
0001
,
0100
0010
0000
0010
,
0100
0010
1000
0100
,
0000
0010
0001
1000
,
0010
0100
0020
2030
,
3200
0000
0310
0000
0001
1000
0000
1000
,
0001
0010
0100
1000
,
0100
0010
0000
0010
,
0100
1000
0001
0100
,
0000
0010
1000
0001
,
0010
0000
0100
0000
1000
0000
0010
1000
,
0010
0000
0100
0000
0100
0001
0100
0000
,
0001
0000
1000
0001
0100
0000
0010
0000
,
0100
0000
0001
0000
1000
0000
0001
1000
,
0100
0000
0001
0000
0100
0000
1000
0001
,
0001
0000
0010
0001
1000
0000
0010
0000
,
0100
0000
0001
0000
0010
0000
0010
0100
,
0000
0000
0000
0010
0000
0000
0000
0000
0000
0010
0000
0000
0000
0000
0000
0100
0000
0000
0000
0000
0000
0000
0100
0000
,
1000
0000
0010
1000
0100
0000
0010
0000
,
0100
0000
1000
0000
0001
0000
0010
0001
,
0100
0000
1000
0000
0100
0000
0001
1000
,
1000
0000
0010
1000
0000
1000
0001
0000
,
0010
0001
0000
0001
0100
0000
0010
0100
,
0010
2000
3200
0310
,
0011
0001
0100
1010
,
1000
0000
0100
0000
0011
0000
0000
0010
,
0000
0100
1000
0000
0000
0000
0010
0000
,
1000
0000
0000
0002
0000
0000
0003
0000
0100
0010
0000
0000
,
0000
1000
0010
0100
0001
0000
0010
0000
,
0000
0100
1000
0000
0010
0000
0000
0100
,
0002
0000
0000
0000
0003
1000
0100
0010
,
0001
0010
0001
0100
0010
1000
0100
0000
,
0010
0100
2000
0000
0000
3010
0000
0000
,
0101
0000
0001
0000
1000
0001
1000
0000
,
0001
1000
0100
0010
0001
0000
0010
0000
,
1100
1000
0010
0101
,
1001
0000
0000
0000
0000
0000
1000
0000
0000
0100
0000
0000
0010
0000
0000
0000
,
0001
0000
1000
0010
1000
0000
0100
0000
,
0010
0000
0000
0000
0010
0000
0100
0000
0000
0000
0000
0000
1000
0000
0000
0001
0000
0000
0010
0000
0000
0100
0000
0000
,
1000
0000
0010
0000
0100
0010
0100
0001
,
0100
0001
0100
0010
1000
0000
0001
0000
,
0010
0100
0010
0001
1000
0010
0100
0001
,
0010
0100
1000
0000
0100
0010
0002
0000
,
0000
0013
0000
0010
0100
0010
0100
1000
,
0100
0010
0001
0000
0101
0000
1010
0000
,
2002
0000
0000
0000
,
0000
0000
0000
0000
,
0000
0000
0000
0000
,
3003
0000
0000
0000
;

//---------------dance-single - ----------------
#NOTES:
     dance-single:
     :
     Easy:
     8:
     0.327973,0.415946,0.225079,0.018006,0.040514,255.000000,230.000000,25.000000,2.000000,0.000000,0.000000,0.327973,0.415946,0.225079,0.018006,0.040514,255.000000,230.000000,25.000000,2.000000,0.000000,0.000000:
0000
0000
0000
0000
,
0000
0000
0000
0000
,
0000
0000
0000
0000
,
0000
0000
0000
0000
,
1000
0000
0000
0000
0010
0000
0000
0010
,
0100
0000
0010
1000
,
0001
0000
0010
0001
,
1000
0000
0000
0000
0001
1000
0001
0000
,
0010
0000
0100
1000
,
0001
0000
0010
0001
,
0100
0010
1000
0001
,
0010
0100
1000
1001
,
0001
0000
0000
0000
0010
0000
0000
0010
,
0100
0000
0010
0001
,
1000
0000
0010
1000
,
0001
0000
0000
0000
0100
0001
0100
0010
,
1000
0000
0000
0000
0000
0000
0001
0000
1000
0000
0001
0000
,
1000
0000
0010
0001
,
1000
0001
0010
0100
,
1000
0010
0100
0001
,
1000
0000
0000
1000
0000
0000
0000
0000
0001
0000
0000
0001
0000
0000
0000
0000
,
0011
0010
0100
1000
,
0001
0000
0000
0001
0000
0000
0000
0000
1000
0000
0000
1000
0000
0000
0000
0000
,
1010
0010
0100
0001
,
0010
0000
0000
0010
0000
0000
0000
0000
0100
0000
0000
0100
0000
0000
0000
0000
,
1001
1000
0001
0010
,
0100
0100
0100
0010
,
0010
0010
0001
0000
,
0000
1001
0000
0000
,
0000
0010
1000
0001
,
1000
0010
0000
0100
,
0001
0010
0001
1000
,
0000
0010
1000
0001
,
0010
0100
1000
0010
,
0100
0010
1000
0100
,
0000
0010
0001
1000
,
0001
0010
0000
0100
,
1000
0010
1000
0001
,
0000
0010
0001
1000
,
0010
0100
0001
0000
,
0000
0001
0010
0100
,
1000
0000
0000
1000
0000
0000
1010
0000
,
0000
0001
0000
0000
0010
0000
0000
0100
,
0000
0000
1100
0000
0000
1000
0000
1000
,
0001
0000
0000
0100
0000
0000
0101
0000
,
0000
0001
0000
0000
0010
0000
0001
0000
,
0010
0100
1000
0010
,
1000
0000
0000
0001
0000
0000
0011
0000
,
0000
0010
0000
0000
0100
0000
0000
1000
,
0000
0000
1010
0000
0000
0010
0000
0010
,
1000
0000
0000
0001
0000
0000
1001
0000
,
0000
0010
0000
0000
0110
0000
0000
0000
,
0000
1000
0001
0100
,
0010
1000
0100
0010
,
0001
0000
0100
0000
0010
0000
0000
1000
,
0000
0001
0000
0100
,
0001
0010
0000
1100
,
0000
1000
0001
0101
,
0000
1000
1100
0000
,
1001
0000
0000
1000
,
0001
0100
0001
0010
,
0100
0000
1000
0000
0000
0010
0000
0000
,
1001
0000
0001
0010
,
0000
0010
0100
1000
,
0001
0100
0010
1000
,
0100
0000
0000
0000
0000
0000
0010
0000
0000
0001
0000
0000
1000
0000
0000
0000
,
0000
0100
1000
0010
,
0000
0101
0000
0001
,
1000
1010
0000
0001
,
0011
0000
0110
0000
,
0000
0100
1000
0100
,
0010
0001
0100
0010
,
0000
1000
0000
0000
0101
0000
0100
0000
,
0010
1000
1100
0011
,
2002
0000
0000
0000
,
0000
0000
0000
0000
,
0000
0000
0000
0000
,
3003
0000
0000
0000
;

//---------------dance-single - ----------------
#NOTES:
     dance-single:
     :
     Beginner:
     5:
     0.214790,0.266494,0.144051,0.000000,0.000000,167.000000,151.000000,16.000000,0.000000,0.000000,0.000000,0.214790,0.266494,0.144051,0.000000,0.000000,167.000000,151.000000,16.000000,0.000000,0.000000,0.000000:
0000
0000
0000
0000
,
0000
0000
0000
0000
,
0000
0000
0000
0000
,
0000
0000
0000
0000
,
0010
0000
1000
0000
,
0001
0000
0010
0100
,
0010
0000
0001
0000
,
1000
0000
0010
0100
,
0010
0000
1000
0000
,
0100
0000
0010
0000
,
0001
0001
0001
0000
,
1000
1000
1000
0000
,
1001
0000
0001
0000
,
0010
0000
0100
0000
,
1000
0000
0001
1000
,
0001
0000
0010
0010
,
0100
0000
1000
0000
,
0010
0000
1000
0001
,
1000
0000
0100
0000
,
0010
0000
0001
0000
,
1000
0000
0001
0000
,
1001
0000
0010
0010
,
0010
0000
0100
0000
,
0110
0000
0100
0100
,
0100
0000
1000
0000
,
1001
0000
0001
0001
,
1000
0000
0000
0001
,
0000
0000
0010
0000
,
0000
1001
0000
0000
,
1000
0000
0000
1000
0000
0000
0001
0000
,
0000
0000
0000
0000
0001
0000
0000
0001
,
0000
1000
0000
0000
,
1000
0000
0000
1000
0000
0000
0010
0000
,
0000
0000
0000
0000
0010
0000
0000
1000
,
0000
0000
0001
0000
0000
1000
0000
0000
,
0001
0000
0000
0001
0000
0000
0010
0000
,
0000
0000
0000
0000
0010
0000
0000
0010
,
0000
0100
0000
0000
,
0100
0000
0000
0100
0000
0000
1000
0000
,
0000
0000
1000
0010
,
0000
0100
0010
0000
,
1000
0000
0000
1001
,
0000
0000
0010
0000
,
0000
0000
0110
0000
0000
0001
0000
0000
,
0001
0000
0000
1010
,
0000
0000
1000
0000
,
0000
0000
0011
0000
0000
0001
0000
0000
,
1000
0000
0000
1100
,
0000
0000
0010
0000
,
0000
0000
0011
0000
0000
0010
0000
0000
,
0100
0100
0000
0010
,
0010
0000
1001
0000
,
0000
0110
0000
0000
,
0010
0000
0000
0010
,
0000
0000
0000
0000
0010
0000
0000
1000
,
0000
0100
0000
0000
,
0100
0000
0000
0010
,
0000
0000
0001
0001
,
0000
1000
1000
0000
,
1001
0000
0000
1000
,
0000
0010
0000
0000
0100
0000
0000
0001
,
0000
0000
0010
0000
0000
0100
0000
0000
,
0100
0000
0000
0010
,
0000
0000
0010
0000
,
0010
0001
0000
0001
,
1000
0000
0000
0001
0000
0000
1000
0000
,
0000
0000
0100
0100
,
0000
0010
0000
0000
,
0010
0010
0000
0001
,
0001
0000
1001
0000
,
0000
0000
1000
0000
0000
0100
0000
0000
,
0010
0000
0000
0001
0000
0000
1000
0000
,
0000
0001
0000
0000
1001
0000
0000
0000
,
0000
0010
0010
0010
,
0100
0000
0000
0000
;
