#TITLE:Miss You (EmoCosine Remix);
#SUBTITLE:;
#ARTIST:RiraN;
#TITLETRANSLIT:;
#SUBTITLETRANSLIT:;
#ARTISTTRANSLIT:;
#GENRE:;
#CREDIT:;
#BANNER:Miss You (EmoCosine Remix).png;
#BACKGROUND:Miss You (EmoCosine Remix)-bg.png;
#LYRICSPATH:;
#CDTITLE:;
#MUSIC:Miss You (EmoCosine Remix).ogg;
#OFFSET:-0.072897;
#SAMPLESTART:38.780998;
#SAMPLELENGTH:15.000000;
#SELECTABLE:YES;
#BPMS:0.000000=155.000000
;
#STOPS:
;
#BGCHANGES:;
#KEYSOUNDS:;
#ATTACKS:;

//---------------dance-single - ----------------
#NOTES:
     dance-single:
     :
     Hard:
     14:
     0.556689,0.766123,0.317799,0.393465,0.359416,515.000000,473.000000,42.000000,52.000000,0.000000,0.000000,0.556689,0.766123,0.317799,0.393465,0.359416,515.000000,473.000000,42.000000,52.000000,0.000000,0.000000:
// measure 0
0000
0000
0000
0000
,  // measure 1
0000
0000
0000
0000
,  // measure 2
0000
0000
0000
0000
,  // measure 3
0000
0000
0000
0000
,  // measure 4
0000
0000
0000
0000
,  // measure 5
0000
0000
0000
0000
,  // measure 6
0000
0000
0000
0000
,  // measure 7
0000
0000
0000
0000
,  // measure 8
0000
0000
0000
0000
,  // measure 9
1001
0000
0000
0000
1000
0000
0000
0000
1000
0000
0000
0001
0000
0000
0100
0000
,  // measure 10
0010
0000
0000
0000
0010
0000
0000
0000
0010
0000
0000
1000
0000
0000
0001
0000
,  // measure 11
0100
0000
0000
0000
0100
0000
0000
0000
0100
0000
0000
0010
0000
0000
1000
0000
,  // measure 12
0001
0000
0000
0000
0001
0000
0000
0000
0001
0000
0000
0010
0000
0000
0100
0000
,  // measure 13
0001
0000
0000
0000
0001
0000
0000
0000
0001
0000
0000
0100
0000
0000
1000
0000
,  // measure 14
0010
0000
0000
0000
0010
0000
0000
0000
0010
0000
0000
0100
0000
0000
1000
0000
,  // measure 15
0100
0000
0000
0000
0100
0000
0000
0000
0100
0000
0000
0001
0000
0000
0010
0000
,  // measure 16
1000
0000
1000
0000
1000
0010
0001
0000
,  // measure 17
0011
0001
1000
1100
0000
0000
1001
0000
,  // measure 18
1010
1000
0001
0101
0000
0000
0110
0000
,  // measure 19
1001
0001
0010
0110
0000
0000
1001
0000
,  // measure 20
1010
0000
0000
0000
0101
0000
0000
0000
0110
0000
0000
0100
0000
0000
0010
0000
,  // measure 21
1000
0100
0010
0001
0100
0010
1000
0100
,  // measure 22
0001
0100
1000
0010
0001
0010
1000
0001
,  // measure 23
1000
0010
0100
0001
0100
0010
1000
0100
0010
0001
0010
0100
,  // measure 24
2000
0000
0000
0000
3001
0000
1000
0010
,  // measure 25
1010
0000
0000
0000
1001
0000
0000
0000
0101
0000
0000
0001
0010
0000
0100
0000
,  // measure 26
1100
0000
0000
0000
1001
0000
0000
0000
0011
0000
0000
0001
1000
0000
0010
0000
,  // measure 27
1000
0000
0100
0000
1000
0010
1000
0000
0002
0000
0000
0000
0013
0000
0000
0000
,  // measure 28
0100
0000
0000
0000
1000
0000
0000
0000
1100
0000
0000
1001
0000
0000
0101
0000
,  // measure 29
0001
0100
0010
0100
0001
0010
1000
0001
,  // measure 30
0100
1000
0010
1000
0001
0100
0010
1000
,  // measure 31
0001
0010
0100
1000
0100
0010
0001
0100
0010
1000
0010
0100
,  // measure 32
0002
0000
0000
1003
,  // measure 33
0110
0000
0000
0000
0010
0000
0000
0000
0010
0000
1000
0100
0010
0000
0100
0000
,  // measure 34
2000
0100
3100
0020
0100
0130
1000
0001
,  // measure 35
0200
1000
1300
0200
0001
0301
0010
0100
,  // measure 36
1000
0000
0001
0100
0000
0001
1000
0000
0010
0000
0100
0000
0101
0000
0000
0000
,  // measure 37
0002
0010
0013
0100
0010
0010
0001
1000
,  // measure 38
0010
0000
0100
0010
0000
1000
0010
0000
0100
0000
0001
0000
1000
0000
1000
0000
,  // measure 39
0200
1000
1300
0020
0100
0130
0001
1000
,  // measure 40
0100
0000
0010
0100
0000
1000
0001
0000
0010
0000
0100
0000
1100
0000
0000
0000
,  // measure 41
1000
0000
0001
0100
0001
0000
1000
0000
0100
0000
0010
0001
0010
0000
0100
0000
,  // measure 42
1000
0000
0001
0100
0000
0010
0100
0000
0001
0000
1000
0010
1000
0001
0010
0000
,  // measure 43
0010
0000
0100
1000
0100
0000
1000
0000
0010
0000
0100
0001
0100
0000
0010
0000
,  // measure 44
1000
0000
0001
0010
0000
0100
1000
0000
0001
0000
1000
0000
1001
0000
0000
0000
,  // measure 45
1000
0000
0100
0000
0001
0000
0100
0000
1000
0000
0001
0010
0001
0000
1000
0000
,  // measure 46
0001
0000
0100
0000
1000
0000
0100
0000
0001
0000
1000
0010
1000
0000
0001
1000
,  // measure 47
0001
0100
0001
1000
0100
1000
0001
0010
0001
1000
0010
1000
,  // measure 48
0001
0010
0100
0001
1000
0010
0100
1000
0010
0200
0000
0000
,  // measure 49
0301
0000
0000
0000
0001
0000
0000
0000
0001
0000
1000
0010
0100
0000
0001
0000
,  // measure 50
1000
0000
0000
0000
1000
0000
0000
0000
1000
0000
0100
1000
0001
0000
0010
0000
,  // measure 51
0100
0000
0000
0000
0100
0000
0000
0000
0100
0000
0010
0001
0100
0000
0010
0000
,  // measure 52
0100
0000
0000
0000
0100
0000
0001
0000
1000
0100
0000
0000
0110
0000
0000
0000
,  // measure 53
0011
0000
0000
0000
0001
0000
0100
0000
1000
0000
0100
0010
1000
0000
0100
0000
,  // measure 54
1100
0000
0000
0000
1000
0000
0100
0000
0001
0000
0100
0010
0001
0000
0100
0000
,  // measure 55
0101
0000
0000
0000
0100
0000
0010
0000
1000
0000
0100
0010
1000
0000
0010
0000
,  // measure 56
0110
0011
1100
0002
,  // measure 57
1003
0000
0010
0000
1000
0000
0100
0000
1000
0000
0010
0100
1000
0000
0100
0000
,  // measure 58
0001
0000
0010
0000
0001
0000
0100
0000
0001
0000
0010
0100
0001
0000
0100
0000
,  // measure 59
1000
0000
0010
0000
0100
0000
0010
0000
1000
0000
0100
0001
1000
0000
0010
0000
,  // measure 60
0001
0000
0000
1000
0010
0000
1000
0000
1001
0000
0000
0001
0010
0000
0100
0000
,  // measure 61
1100
1100
0110
0110
,  // measure 62
0011
0000
0000
0000
0011
0000
0000
0000
1001
0000
0000
0000
0001
0000
0010
0100
,  // measure 63
0010
0001
0100
0010
1000
0100
0010
1000
0010
0001
1000
0010
,  // measure 64
0100
0001
0100
1000
0100
0010
1000
0001
0010
0200
0000
0000
,  // measure 65
2300
0000
0000
0000
0001
0000
3002
0000
0100
0000
0000
0100
0000
0000
0203
0000
,  // measure 66
0010
0000
0320
0000
0000
2030
0000
0000
,  // measure 67
3002
0000
0000
0000
1000
0000
2003
0000
0100
0000
0000
0100
0000
0000
3200
0000
,  // measure 68
0010
0000
0320
0000
0000
0032
0000
0000
,  // measure 69
2003
0000
0000
0000
0001
0000
3002
0000
0010
0000
0000
0010
0000
0000
0023
0000
,  // measure 70
0100
0000
0230
0000
0000
2300
0000
0000
,  // measure 71
3002
0000
0000
0000
1000
0000
2003
0000
0010
0000
0000
0010
0000
0000
3020
0000
,  // measure 72
0100
0000
0000
0000
0230
0000
0000
0000
0301
0010
0100
1000
0001
0000
0000
0000
,  // measure 73
1002
0000
0000
0023
0000
0000
0000
2030
,  // measure 74
0000
0000
3002
0000
0000
0203
0000
0000
,  // measure 75
2300
0000
0000
3020
0000
0000
0000
0032
,  // measure 76
0000
0000
2003
0000
0000
3200
0000
0000
,  // measure 77
0302
0000
0000
2003
0000
0000
0000
3200
,  // measure 78
0000
0000
0302
0000
0000
2003
0000
0000
,  // measure 79
3020
0000
0000
0032
0000
0000
0000
2003
,  // measure 80
0000
0000
3020
0000
0000
0032
0000
0000
,  // measure 81
0013
0000
0000
0000
;

//---------------dance-single - ----------------
#NOTES:
     dance-single:
     :
     Medium:
     11:
     0.474537,0.704833,0.226999,0.325366,0.230783,439.000000,409.000000,30.000000,43.000000,0.000000,0.000000,0.474537,0.704833,0.226999,0.325366,0.230783,439.000000,409.000000,30.000000,43.000000,0.000000,0.000000:
// measure 0
0000
0000
0000
0000
,  // measure 1
0000
0000
0000
0000
,  // measure 2
0000
0000
0000
0000
,  // measure 3
0000
0000
0000
0000
,  // measure 4
0000
0000
0000
0000
,  // measure 5
0000
0000
0000
0000
,  // measure 6
0000
0000
0000
0000
,  // measure 7
0000
0000
0000
0000
,  // measure 8
0000
0000
0000
0000
,  // measure 9
1001
0000
0000
0000
0001
0000
0000
0000
0001
0000
0000
0001
0000
0000
0001
0000
,  // measure 10
1000
0000
0000
0000
1000
0000
0000
0000
1000
0000
0000
1000
0000
0000
1000
0000
,  // measure 11
0010
0000
0000
0000
0010
0000
0000
0000
0010
0000
0000
0010
0000
0000
0010
0000
,  // measure 12
0100
0000
0000
0000
0100
0000
0000
0000
0100
0000
0000
0100
0000
0000
0100
0000
,  // measure 13
0001
0000
0000
0000
0010
0000
0000
0000
0100
0000
0000
0100
0000
0000
0100
0000
,  // measure 14
1000
0000
0000
0000
0010
0000
0000
0000
0100
0000
0000
0100
0000
0000
0100
0000
,  // measure 15
0001
0000
0000
0000
1000
0000
0000
0000
0010
0000
0000
0010
0000
0000
0010
0000
,  // measure 16
1000
0000
0001
0000
0010
0100
1000
0000
,  // measure 17
1100
0000
0001
0100
0000
0000
0110
0000
,  // measure 18
0101
0000
1000
0100
0000
0000
0110
0000
,  // measure 19
0011
0000
1000
0010
0000
0000
0110
0000
,  // measure 20
1010
0000
0000
0000
0101
0000
0000
0000
1001
0000
0000
0001
0000
0000
1000
0000
,  // measure 21
0001
0010
0001
0010
0100
1000
0100
1000
,  // measure 22
0010
1000
0010
1000
0001
0100
0001
0100
,  // measure 23
0001
0010
0001
0010
0001
0010
0100
1000
0100
1000
0100
1000
,  // measure 24
0002
0000
1003
0001
,  // measure 25
1010
0000
0010
1000
0100
0000
0110
0000
,  // measure 26
0011
0000
0010
0001
0100
0000
0001
0100
,  // measure 27
0001
1000
0100
0000
2000
0000
3001
0000
,  // measure 28
1000
0000
0000
0000
1000
0000
0000
0000
0010
0000
0000
0010
0000
0000
0010
0000
,  // measure 29
0100
0001
1000
0001
0100
0001
1000
0010
,  // measure 30
1000
0001
1000
0010
1000
0001
1000
0100
,  // measure 31
1000
0010
1000
0010
1000
0010
0100
0001
0100
0001
0100
0001
,  // measure 32
2000
0000
0000
3001
,  // measure 33
1000
0000
1000
0000
1000
0001
0100
0001
,  // measure 34
0010
0100
0100
1000
0001
0000
0101
0000
,  // measure 35
0001
1000
1000
0100
1000
0000
1010
0000
,  // measure 36
0100
0000
0000
0001
0000
0000
1000
0000
0001
0000
0010
0000
0100
0000
0000
0000
,  // measure 37
1000
0010
0010
0100
0001
1000
1000
0000
,  // measure 38
0010
0100
0100
0001
1000
0000
1100
0000
,  // measure 39
1000
0001
0001
0100
0001
0000
0011
0000
,  // measure 40
0100
0000
0000
1000
0000
0000
0001
0000
1000
0000
0010
0000
0100
0000
0000
0000
,  // measure 41
0001
0100
1000
0000
1000
0100
0001
0000
,  // measure 42
1000
0000
0000
0100
0000
0000
0010
0000
0001
0000
0100
0000
0100
0000
0000
0000
,  // measure 43
0001
0010
1000
0000
1000
0010
0001
0000
,  // measure 44
1000
0000
0000
0001
0000
0000
0010
0000
0100
0000
1000
0000
1000
0000
0000
0000
,  // measure 45
0001
1000
0001
0100
0001
0010
0001
1000
,  // measure 46
0100
1000
0001
1000
0010
0000
0000
1000
,  // measure 47
0001
0010
0001
1000
0010
1000
0001
0100
0001
1000
0100
1000
,  // measure 48
0001
1000
0001
1000
0001
1000
0010
0100
0010
0200
0000
0000
,  // measure 49
0301
0000
0001
0000
0001
0100
1000
0100
,  // measure 50
0001
0000
0001
0000
0001
0010
1000
0010
,  // measure 51
0001
0000
0001
0000
0001
0100
1000
0100
,  // measure 52
0010
0000
0000
1000
0000
0000
0001
0000
0010
0100
0000
0000
0100
0000
0000
0000
,  // measure 53
1100
0000
1001
0000
1000
0100
0001
0100
,  // measure 54
1000
0000
1001
0000
1000
0010
0001
0010
,  // measure 55
1000
0000
1001
0000
1000
0100
0001
0100
,  // measure 56
0010
0000
0000
0001
0000
0000
1000
0000
0010
0000
0000
0100
0000
0000
0001
0000
,  // measure 57
1000
0100
1000
0001
0100
0001
1000
0000
,  // measure 58
0001
0010
0001
1000
0010
1000
0001
0000
,  // measure 59
0001
0100
0001
1000
0100
1000
0001
0000
,  // measure 60
1000
0010
1000
0001
0010
0001
1000
0001
,  // measure 61
0101
0101
0110
0110
,  // measure 62
1010
0000
1010
0000
1001
0000
0000
1000
,  // measure 63
0001
0100
0001
1000
0100
1000
0001
0010
0001
1000
0010
1000
,  // measure 64
0001
0010
0100
1000
0010
0100
0001
1000
0100
0020
0000
0000
,  // measure 65
0032
0000
0100
0203
0001
0000
0000
0320
,  // measure 66
0000
0000
2030
0000
0000
3002
0000
1000
,  // measure 67
2003
0000
0100
3200
1000
0000
0000
0320
,  // measure 68
0000
0000
0032
0000
0000
2003
0000
0001
,  // measure 69
3002
0000
0010
0023
0001
0000
0000
0230
,  // measure 70
0000
0000
2300
0000
0000
3002
0000
1000
,  // measure 71
2003
0000
0010
3020
1000
0000
0000
0230
,  // measure 72
0000
0000
0301
0000
1000
0100
0110
0000
,  // measure 73
2001
0000
0000
3020
0000
0000
0000
0230
,  // measure 74
0000
0000
2300
0000
0000
3200
0000
0000
,  // measure 75
0302
0000
0000
0023
0000
0000
0000
0230
,  // measure 76
0000
0000
0302
0000
0000
0203
0000
0000
,  // measure 77
2300
0000
0000
3200
0000
0000
0000
0320
,  // measure 78
0000
0000
2030
0000
0000
3020
0000
0000
,  // measure 79
0032
0000
0000
0203
0000
0000
0000
0320
,  // measure 80
0000
0000
0032
0000
0000
0023
0000
0000
,  // measure 81
1030
0000
0000
0000
;

//---------------dance-single - ----------------
#NOTES:
     dance-single:
     :
     Easy:
     8:
     0.286452,0.490318,0.174033,0.279966,0.000000,265.000000,242.000000,23.000000,37.000000,0.000000,0.000000,0.286452,0.490318,0.174033,0.279966,0.000000,265.000000,242.000000,23.000000,37.000000,0.000000,0.000000:
// measure 0
0000
0000
0000
0000
,  // measure 1
0000
0000
0000
0000
,  // measure 2
0000
0000
0000
0000
,  // measure 3
0000
0000
0000
0000
,  // measure 4
0000
0000
0000
0000
,  // measure 5
0000
0000
0000
0000
,  // measure 6
0000
0000
0000
0000
,  // measure 7
0000
0000
0000
0000
,  // measure 8
0000
0000
0000
0000
,  // measure 9
1001
0001
0001
0001
,  // measure 10
1000
1000
1000
1000
,  // measure 11
0100
0100
0100
0100
,  // measure 12
0010
0010
0010
0010
,  // measure 13
0001
0100
0001
0001
,  // measure 14
1000
0100
1000
1000
,  // measure 15
0001
0010
0001
0001
,  // measure 16
1000
0010
0110
0000
,  // measure 17
0001
0000
1000
1000
0000
0000
0010
0000
,  // measure 18
0100
0000
0001
0001
0000
0000
0010
0000
,  // measure 19
0100
0000
1000
1000
0000
0000
0100
0000
,  // measure 20
0010
0001
1000
0001
,  // measure 21
1000
1000
0001
0001
,  // measure 22
0100
0100
0010
0010
,  // measure 23
2000
0000
3002
0000
,  // measure 24
2003
0000
0000
3000
,  // measure 25
0001
0010
0100
1000
,  // measure 26
0001
0010
0100
1000
,  // measure 27
1000
0010
0100
0001
,  // measure 28
1000
0001
1001
0000
,  // measure 29
0001
0100
1000
0100
,  // measure 30
0001
0100
1000
0100
,  // measure 31
0001
0001
1000
1000
,  // measure 32
2002
0000
0000
3003
,  // measure 33
1000
1000
1000
0110
,  // measure 34
0001
0000
0100
0001
,  // measure 35
1000
0000
0100
1000
,  // measure 36
0010
0010
0100
0010
,  // measure 37
0110
0000
0010
0100
,  // measure 38
0001
0001
0001
1000
,  // measure 39
0001
0000
0010
0100
,  // measure 40
1000
1000
1000
0001
,  // measure 41
1000
0100
0001
0000
,  // measure 42
0001
0100
1000
0000
,  // measure 43
1000
0010
0001
0000
,  // measure 44
0001
0010
1000
0000
,  // measure 45
0001
0001
1000
1000
,  // measure 46
0010
0100
0001
1000
,  // measure 47
0001
0010
1000
0010
,  // measure 48
0001
1000
0002
0000
,  // measure 49
1003
1000
1000
1001
,  // measure 50
0001
0001
0001
1001
,  // measure 51
0010
0010
0010
0110
,  // measure 52
1001
1000
0001
1001
,  // measure 53
0001
1000
0100
1001
,  // measure 54
1000
0001
0100
1001
,  // measure 55
0001
1000
0010
1001
,  // measure 56
0110
0010
0110
0100
,  // measure 57
0001
0000
1000
0000
0001
0100
0001
0000
,  // measure 58
1000
0000
0001
0000
1000
0100
1000
0000
,  // measure 59
0001
0000
1000
0000
0001
1000
0001
0000
,  // measure 60
0010
0100
1000
0001
,  // measure 61
0011
0011
0110
0110
,  // measure 62
1100
1100
1001
0000
,  // measure 63
0001
0100
1000
0100
,  // measure 64
0001
0010
0100
1000
,  // measure 65
0002
0000
0000
0023
0000
0000
0000
0230
,  // measure 66
0000
0000
2300
0000
0000
3002
0000
0000
,  // measure 67
2003
0000
0000
3020
0000
0000
0000
0230
,  // measure 68
0000
0000
0302
0000
0000
2003
0000
0000
,  // measure 69
3002
0000
0000
0203
0000
0000
0000
0320
,  // measure 70
0000
0000
2030
0000
0000
3002
0000
0000
,  // measure 71
2003
0000
0000
3200
0000
0000
0000
0320
,  // measure 72
0000
0000
0032
0000
1003
0001
1000
0000
,  // measure 73
0020
0000
0000
0000
,  // measure 74
0230
0000
0000
0000
,  // measure 75
0302
0000
0000
0000
,  // measure 76
2003
0000
0000
0000
,  // measure 77
3002
0000
0023
0000
,  // measure 78
0230
0000
2300
0000
,  // measure 79
3020
0000
0230
0000
,  // measure 80
0302
0000
2003
0000
,  // measure 81
3001
0000
0000
0000
;
