#TITLE:Meow;
#SUBTITLE:;
#ARTIST:Anamanaguchi;
#TITLETRANSLIT:;
#SUBTITLETRANSLIT:;
#ARTISTTRANSLIT:;
#GENRE:;
#CREDIT:;
#MUSIC:Meow.ogg;
#BANNER:Meow.png;
#BACKGROUND:Meow-bg.png;
#CDTITLE:;
#SAMPLESTART:38.363;
#SAMPLELENGTH:14.998;
#SELECTABLE:YES;
#OFFSET:0.850;
#BPMS:0.000=200.445
,192.000=100.223
,210.000=200.445
;
#STOPS:;
#DISPLAYBPM:100.000:200.000;
#BGCHANGES:;
#FGCHANGES:;

//--------------- dance-single - Talkion ----------------
#NOTES:
     dance-single:
     Talkion:
     Beginner:
     4:
     0,0,0,0,0:
0000
0000
0000
0000
,
0000
0000
0000
0000
,
0000
0000
0000
0000
,
0000
0000
0000
0000
,
0000
0000
0000
0000
,
0000
0000
0000
0000
,
0000
0000
0000
0000
,
0000
0000
0000
0000
,
0000
0000
0000
0000
,
0000
0001
0000
0001
,
0000
0000
0000
0000
,
0000
1000
0000
1000
,
0000
1000
0000
0000
,
0000
0001
0000
0001
,
0000
0001
0000
0000
,
0000
1000
0000
1000
,
0000
1000
0000
0000
,
0001
0000
0001
0000
,
0000
0001
0001
0000
,
1000
0000
1000
0000
,
1000
1000
1000
0000
,
0001
0000
0001
0000
,
0000
0001
0001
0000
,
1000
0000
1000
0000
,
1000
1000
1000
0000
,
0010
0000
0010
0000
,
0100
0000
0100
0000
,
0010
0000
0010
0000
,
0100
0000
0100
0000
,
0001
0000
0001
0000
,
1000
0000
1000
0000
,
0001
0000
0001
0000
,
1000
0000
1000
0000
,
0000
0000
1001
0000
,
0000
0000
1001
0000
,
0001
0000
0001
0000
,
0001
0000
0000
0000
,
0000
0000
0110
0000
,
0000
0000
0110
0000
,
0010
0000
0010
0000
,
0010
0000
0000
0000
,
1000
0000
0100
0000
,
1000
0000
0100
0000
,
1000
0000
0000
0000
,
1000
0000
0000
0000
,
0001
0000
0100
0000
,
0001
0000
0100
0000
,
0001
0000
0000
0000
,
0001
0000
1000
0000
,
1000
0000
0200
0000
,
0300
0000
0001
0000
,
0001
0000
0200
0000
,
0300
0000
0000
1000
,
0000
1000
0000
1000
,
0000
1000
0000
1000
,
0000
1000
0000
1000
,
1000
0000
0000
0001
,
0000
0001
0000
0001
,
0000
0001
0000
0001
,
0000
0001
0000
0001
,
0001
0000
0000
0100
,
0000
0100
0000
0100
,
0000
0100
0000
0100
,
0000
0100
0000
0100
,
0000
0100
0000
0000
,
0000
0000
0000
0000
,
0000
0000
0000
0000
,
0000
0000
0000
0000
,
0000
0000
0001
0000
,
0000
0100
0001
0000
,
1000
0000
0200
0000
,
0300
0000
0020
0000
,
0030
0000
0001
0000
,
0000
0010
0001
0000
,
1000
0000
0020
0000
,
0030
0000
0200
0000
,
0300
0000
0001
0000
,
0000
1000
0100
0000
,
0010
0000
0002
0000
,
0003
0000
2000
0000
,
3000
0000
0010
0000
,
0010
0000
0010
0000
,
0010
0000
0010
0000
,
0000
0000
0000
0000
,
0000
0000
1000
0000
,
0000
0000
1001
0000
,
0000
0000
0001
0000
,
0000
0000
1001
0000
,
0000
0000
0100
0000
,
0000
0000
0110
0000
,
0000
0000
0010
0000
,
0000
0000
0110
0000
,
0000
0000
0000
0000
1000
0000
0000
1000
,
0000
0000
0000
0000
0001
0000
0000
0001
,
0000
0000
0000
0000
1000
0000
0000
1000
,
0000
0000
0000
0000
0001
0000
0000
0001
,
0000
0000
0000
0000
0100
0000
0000
0100
,
0000
0000
0000
0000
0010
0000
0000
0010
,
0000
0000
0000
0000
0100
0000
0000
0100
,
0000
0000
0000
0000
0010
0000
0000
0010
,
0000
0000
1001
0000
;

//--------------- dance-single - Talkion ----------------
#NOTES:
     dance-single:
     Talkion:
     Easy:
     7:
     0,0,0,0,0:
0000
0000
0000
0000
,
0000
0000
0000
0000
,
0000
0000
0000
0000
,
0000
0000
0000
0000
,
0000
0000
0000
0000
,
0000
0000
0000
0000
,
0000
0000
0000
0000
,
0000
0000
0000
0000
,
0000
0000
0000
0000
,
0000
1000
0100
0020
,
0000
0000
0000
0000
,
0030
0001
0010
0200
,
0000
2300
0000
3002
,
0000
0103
0010
2000
,
0000
3002
0000
0023
,
0000
0130
1000
0002
,
0000
0203
0000
0310
,
1000
0100
1000
1000
,
0001
0001
0001
0100
,
0001
0010
0010
0001
,
0100
0100
0100
0000
,
0001
0010
0001
0001
,
1000
1000
1000
0010
,
1000
0100
0100
1000
,
0010
0010
0010
0000
,
1000
0100
0001
0100
,
1000
1000
1000
0001
,
1000
0010
0001
0010
,
1000
0001
1001
0000
,
0001
0010
1000
0010
,
0001
0001
0001
1000
,
0001
0100
1000
0100
,
0001
1000
1001
0000
,
0021
0000
0230
0000
,
2300
0000
3002
0000
,
0103
0000
0110
0000
,
0010
0000
0110
0000
,
1020
0000
0230
0000
,
0302
0000
0023
0000
,
0130
1000
0100
1000
,
0001
0100
0010
0000
,
2100
0000
0010
0000
,
0001
0000
0100
0000
,
3010
1000
0100
1000
,
0010
1000
0001
0010
,
0012
0000
0100
0000
,
1000
0000
0010
0000
,
0103
1000
0100
0001
,
0100
0000
0010
1000
,
0100
0010
0002
0000
,
0000
0003
0010
0001
,
0100
0010
2000
0000
,
0000
3000
0000
0001
,
0000
0001
0000
1000
,
0000
1000
0000
0001
,
0000
0001
0000
1000
,
1000
1000
0000
0010
,
0000
0010
0000
0100
,
0000
0100
0000
0010
,
0000
0010
0000
0100
,
0100
0100
0000
0001
,
0000
1000
0000
0001
,
0000
1000
0000
0010
,
0000
0100
0000
0010
,
0010
0010
0020
0000
,
0000
0000
0000
0000
,
0000
0000
0000
0000
,
0000
0000
0030
0000
,
0000
0000
1000
0100
,
0001
1000
0010
0100
,
1000
0001
0100
0010
,
0010
0010
0100
0001
,
1001
0000
0001
0010
,
1000
0010
0001
0100
,
0010
1000
0002
1000
,
0000
1003
0001
0100
,
0110
0000
0001
0010
,
1000
0001
0100
0010
,
0001
1000
0001
0100
,
0100
0100
0010
1000
,
1001
0000
0021
0000
,
0230
0000
2300
0000
,
3020
0000
0100
0100
,
0100
0130
0010
0000
,
0000
0000
0110
0000
1000
0000
0000
0100
,
0000
0000
0010
0000
0001
0000
0000
0010
,
0000
0000
0100
0000
1000
0000
0000
0010
,
0000
0000
0100
0000
0001
0000
0000
0100
,
0000
0000
0010
0000
1000
0000
0000
0001
,
0000
0000
1000
0000
0100
0000
0000
0001
,
0000
0000
0100
0000
1000
0000
0000
0001
,
0000
0000
1000
0000
0010
0000
0000
0100
,
0000
0000
0001
0000
0010
0000
0000
0110
,
0000
0000
0010
0000
0100
0000
0000
1100
,
0000
0000
0100
0000
1000
0000
0000
1010
,
0000
0000
1000
0000
0010
0000
0000
0110
,
0000
0000
0010
0000
0100
0000
0000
0101
,
0000
0000
0100
0000
0001
0000
0000
0011
,
0000
0000
0001
0000
0010
0000
0000
0110
,
0000
0000
0010
0000
0100
0000
0000
1100
,
0000
0100
0200
0000
,
0000
0000
0000
0000
,
0000
0000
0000
0300
;

//--------------- dance-single - Talkion ----------------
#NOTES:
     dance-single:
     Talkion:
     Medium:
     10:
     0,0,0,0,0:
0000
0000
0000
0000
,
0000
0000
0000
0000
,
0000
0000
0000
0000
,
0000
0000
0000
0000
,
0000
0000
0000
0000
,
0000
0000
0000
0000
,
0000
0000
0000
0000
,
0000
0000
0000
0000
,
0000
0000
0000
0000
,
2000
3200
0320
0032
,
0000
0100
0000
0103
,
0020
2030
3002
0023
,
0000
0100
0000
0130
,
2000
3020
0230
0302
,
0000
0010
0000
0013
,
0200
0320
0032
0203
,
0320
2030
3001
1001
,
1000
0000
0100
0000
1000
0100
1000
0000
,
0001
0100
0001
0100
0001
0000
0100
0000
,
0010
0100
1100
0101
,
0001
1000
0001
0000
1001
0000
0000
0000
,
0001
0000
0010
0000
0001
0010
0001
0000
,
1000
0010
1000
0010
1000
0000
0010
0000
,
0100
0010
0011
1010
,
1000
0001
1000
0000
1001
0000
0000
0000
,
0001
0010
1000
0010
,
0001
0010
1000
0010
,
0001
0100
1000
0100
,
0001
0100
1000
0100
,
0001
0010
1000
0001
,
1000
0010
0001
0100
,
1000
0001
0010
1000
,
0001
1000
0100
0010
,
0022
0033
0202
0303
,
0220
0330
2020
3030
,
1000
0001
1000
0001
0100
0000
0000
0000
,
0100
0010
1010
0000
,
2200
3300
0220
0330
,
0022
0033
0202
0303
,
0100
0010
0100
0010
1000
0000
0001
0000
,
1000
0000
0100
0000
0010
0000
0001
1000
,
0020
0130
0002
0013
,
2000
3010
0002
0103
,
0010
1000
0010
2000
0000
0000
0100
0000
,
3100
0000
1000
0000
0001
0000
0100
0001
,
2000
3100
0002
0103
,
2000
3010
0200
0301
,
1000
0001
1100
0101
,
1001
0000
0001
0010
,
0100
0000
0000
0000
1000
0000
0000
0000
0001
1000
0001
2000
0000
0000
0000
0000
,
0000
3000
1000
0100
,
0010
0000
0000
0000
0001
0000
0000
0000
1000
0001
1000
0002
0000
0000
0000
0000
,
0000
0003
0100
0100
,
0010
0010
1000
1000
,
0100
0100
0010
0010
,
0001
0000
0001
0000
1000
0001
1000
0000
,
1001
0000
0001
0001
,
0100
0100
0010
0010
,
1000
1000
0100
0100
,
0010
0000
0010
0000
0001
1000
0001
0000
,
1001
0000
1000
0010
,
1000
0010
0001
0010
,
0001
0010
0001
0100
,
0001
0100
1000
0100
,
1000
0100
2000
0000
,
0000
0000
0000
0000
,
0000
0000
0000
0000
,
0000
0000
3000
0000
,
0000
0000
0001
0100
,
1000
0000
0100
0001
0010
0000
0001
0000
,
0101
0100
0110
1010
,
0011
0000
1010
0000
1000
0000
0001
1000
,
0001
1001
1000
0100
,
0001
0000
0100
1000
0010
0000
1000
0000
,
1100
0000
0100
0000
0110
0000
0010
0001
,
0010
0000
0001
0000
0101
0000
0100
0010
,
0100
0010
1000
0010
,
0001
0000
0010
1000
0100
0000
1000
0000
,
1010
0010
0110
0101
,
1100
0000
0101
0000
0001
1000
0001
0000
,
1001
1000
0200
0301
,
0200
1300
0200
0301
,
0200
0000
0310
0000
0001
0010
0001
0000
,
1000
0010
1000
0000
1001
0000
0000
0000
,
0000
0000
0000
0000
0101
0000
0000
0100
,
0000
0000
0010
0000
1010
0000
0000
1000
,
0000
0000
0100
0000
0110
0000
0000
0010
,
0000
0000
0001
0000
0101
0000
0000
0100
,
0000
0000
0010
0000
1010
0000
0000
1000
,
0000
0000
0001
0000
0011
0000
0000
0010
,
0000
0000
0100
0000
1100
0000
0000
1000
,
0000
0000
0001
0000
0101
0000
0000
0100
,
0000
0000
0010
0000
1000
0000
0100
1000
,
0000
1000
0010
0000
0001
0000
0010
0100
,
0000
0100
0001
0000
0010
0000
1000
0010
,
0000
0010
0001
0000
1000
0000
0001
0100
,
0000
0100
1000
0000
0100
0000
0010
1000
,
0000
1000
0100
0000
0010
0000
0100
1000
,
0000
1000
0010
0000
0001
0000
0010
0100
,
0000
0100
0001
0000
1000
0000
0001
0010
,
0100
1000
0100
0010
0002
0000
0000
0000
,
0000
0000
0000
0000
,
0000
0000
0000
0003
;

//--------------- dance-single - Talkion ----------------
#NOTES:
     dance-single:
     Talkion:
     Hard:
     14:
     0,0,0,0,0:
0000
0000
0000
0000
,
0000
0000
0000
0000
,
0000
0000
0000
0000
,
0000
0000
0000
0000
,
0000
0000
0000
0000
,
0000
0000
0000
0000
,
0000
0000
0000
0000
,
0000
0000
0000
0000
,
0000
0000
0000
0000
,
2100
3010
0102
0013
,
0001
0100
0001
0000
1000
0100
1000
0000
,
0012
0103
2010
3100
,
1000
0010
1000
0000
0001
0010
0001
0000
,
0201
0310
1200
0310
,
0001
0010
0001
0000
1000
0010
1000
0000
,
1020
0000
0130
0000
0001
1000
0001
0100
,
0010
1000
0100
0010
0001
0000
1001
0000
,
0101
0000
0001
0100
0100
0001
0100
0000
,
0010
1000
1000
0010
1000
0000
1001
0000
,
0011
0000
0010
0100
0010
0100
0000
0100
,
0100
1000
0001
1000
0010
0000
0110
0000
,
1010
0000
1000
0010
0010
1000
0010
0000
,
0100
0001
0001
0100
0001
0000
1001
0000
,
1100
0000
0100
0010
0100
0010
0000
0010
,
0010
1000
0010
0001
0010
0000
0110
0000
,
1000
0010
1000
0000
0010
0001
0010
0000
,
1000
0010
1000
0000
0010
0001
0010
0000
,
1000
0010
0100
0000
0001
0010
0100
0000
,
0001
0100
1000
0000
0001
0100
1000
0000
,
0100
0001
0010
0000
0100
1000
0010
0000
,
0001
0010
1000
0000
0001
0010
1000
0000
,
0010
0001
0010
0100
0010
1000
0010
0001
,
0010
0100
1000
0001
0100
0000
0010
1000
,
0100
0000
0000
0100
1000
0010
1010
0000
,
0010
0100
0010
0000
0101
0000
0001
0000
,
0010
0000
0100
0010
0001
0101
0000
0100
,
0010
0100
0010
0000
1010
0000
0000
0000
,
1000
0000
0000
0010
1000
0100
1100
0000
,
0100
0010
0100
0000
0011
0000
0001
0000
,
0110
1100
0110
0101
,
0001
0100
1000
0100
0001
0000
0010
0100
,
2000
3010
0102
0013
,
2100
3010
1002
0013
,
0001
0010
0100
2000
0010
0000
0010
0000
,
3100
1000
0001
0100
0010
1000
0001
0010
,
0200
1300
2010
3100
,
0012
0103
2001
3100
,
1000
0100
0010
0001
0100
0000
0110
0000
,
1001
0000
0000
0000
0000
0000
0001
1000
0200
0000
0000
0000
0320
0000
0000
0000
,
0032
0000
0000
0000
0203
0000
0000
0000
0310
1000
0001
0020
0000
0000
0000
0000
,
0000
0000
0000
0000
0000
0000
0130
1000
0002
0000
0000
0000
0203
0000
0000
0000
,
0320
0000
0000
0000
2030
0000
0000
0000
3001
0010
0100
2000
0000
0000
0000
0000
,
0000
0000
0000
0000
0000
0000
3010
1000
0001
0000
0000
0000
0011
0000
0000
0000
,
0010
1010
1000
1100
,
0100
0101
0001
1001
,
1000
0000
1100
0000
0100
0010
0100
0010
,
0001
1001
1000
1010
,
0010
0011
0001
0101
,
0100
1100
1000
1001
,
0001
0000
0101
0000
0100
0010
0100
0010
,
1000
1001
0002
0010
,
2003
0010
3002
0100
,
2003
0100
3020
0001
,
0230
1000
0320
0001
,
0230
1000
0302
0000
,
0000
0000
0000
0000
,
0000
0000
0000
0000
,
0000
0000
0003
0000
,
0000
0000
1001
0000
1000
0100
0001
1000
,
0010
0001
1000
0001
0100
0010
1000
0100
,
0010
0012
0103
1100
,
0101
0000
1100
0000
0001
0100
1000
0100
,
0001
0000
1001
0000
1000
0100
0010
1000
,
0001
0100
0010
0001
1000
0010
0100
0001
,
1000
0000
2100
0000
3020
0000
0130
0001
,
0010
0000
0110
0000
1000
0100
0010
0001
,
0100
0010
1000
0000
0001
0010
1000
0001
,
0100
1000
0001
1000
0010
0100
0001
0010
,
0100
2100
3010
0011
,
1010
0000
0011
0000
1000
0010
0001
0010
,
1000
0000
0100
0010
0002
0000
0103
0000
,
1020
0130
0021
0130
,
2001
0000
3100
0000
0010
0100
0010
0100
,
0010
0100
0010
0100
2000
0000
0000
0000
,
3000
0000
1001
0000
0202
0000
0303
2020
,
0000
3030
1001
0000
2200
0000
3300
0022
,
0000
0000
0033
0000
0001
0000
1000
0002
2000
0000
0000
0000
3003
0000
2020
0000
,
0000
3030
0110
0000
2002
0000
3003
0022
,
0000
0000
0033
0000
0010
0000
0100
0020
0200
0000
0000
0000
0330
0000
2200
0000
,
0000
3300
1001
0000
0220
0000
0330
0202
,
0000
0000
0303
0000
0001
0000
1000
0002
2000
0000
0000
0000
3003
0000
2200
0000
,
0000
3300
0011
0000
2002
0000
3003
0202
,
0000
0000
0303
0000
0010
0000
1000
0010
1000
0000
0001
0000
0001
0000
0100
0000
,
0001
0001
0010
0001
0100
0010
0010
1000
,
0010
0010
0100
0001
1000
0100
0100
0010
,
0100
0100
1000
0001
1000
0010
0010
0100
,
0010
0010
1000
0001
1000
0010
0010
0001
,
0010
0010
1000
0001
1000
0100
0100
0001
,
0100
0100
1000
0001
0100
1000
1000
0100
,
0010
0010
0100
0001
0100
0010
1000
0100
,
0020
0000
0000
0000
0031
1000
0001
1000
0020
0000
0000
0000
0000
0000
0000
0000
,
0000
0000
0000
0000
,
0000
0000
0000
0030
;

//--------------- dance-single - Talkion ----------------
#NOTES:
     dance-single:
     Talkion:
     Challenge:
     15:
     0,0,0,0,0:
0000
0000
0000
0000
,
0000
0000
0000
0000
,
0000
0000
0000
0000
,
0000
0000
0000
0000
,
0000
0000
0000
0000
,
0000
0000
0000
0000
,
0000
0000
0000
0000
,
0000
0000
0000
0000
,
0000
0000
0000
0000
,
1000
0100
1000
0000
0001
0100
0001
0000
,
1000
0100
0010
0000
0001
0010
0100
0000
,
1000
0010
1000
0000
0001
0010
0001
0000
,
1000
0010
0100
0000
0001
0100
0010
0000
,
0100
0001
0010
0000
0100
1000
0010
0000
,
0100
0010
1000
0000
0100
0010
0001
0000
,
0010
0000
0001
0000
0100
0000
0000
0000
0010
0000
0100
0000
0001
0000
1000
0001
,
1000
0100
0010
0001
0100
0000
0110
0000
,
0101
0000
0001
0100
010M
0100
0001
0000
,
1000
0100
M100
0100
1000
0000
1001
0000
,
0102
0000
0010
0010
0010
0013
0000
0001
,
0100
010M
1000
0001
1001
0000
0011
0000
,
1010
0000
1000
0010
M010
0010
1000
0000
,
0001
0010
001M
0010
0001
0000
1001
0000
,
2010
0000
0100
0100
0100
3100
0000
1000
,
0010
M010
0001
1000
1002
0000
0103
0000
,
0001
0100
1000
0100
0001
0100
1000
0100
,
0010
1000
0001
1000
0100
1000
0001
1000
,
0010
0001
0010
1000
0010
0001
0010
0100
,
0010
1000
0100
0010
0001
1000
1001
0000
,
1000
0010
0001
0010
1000
0010
0001
0010
,
0100
0001
1000
0001
0010
0001
1000
0001
,
0100
1000
0001
0010
1000
0001
0100
1000
,
0100
0001
0010
0100
1000
0000
1000
0010
,
0100
0000
0000
0100
0001
0010
0011
0000
,
0110
0100
1000
0010
1020
0000
0130
0000
,
1001
0000
0001
0010
0011
0001
0000
0001
,
0101
0100
0010
1000
1010
0000
0001
0010
,
0100
0000
0000
0100
1000
0010
1010
0000
,
0110
0100
0001
0010
0021
0000
0130
0000
,
1001
0000
1010
1000
1100
0100
0010
0001
,
0100
1000
0100
0001
1001
0000
0011
0010
,
0200
1300
1020
0130
,
0021
0130
1002
0103
,
0001
0100
1000
0200
0010
0000
0010
0000
,
0301
0010
1000
0001
0100
1000
0001
0100
,
0020
1030
1200
0310
,
0201
0310
1002
0013
,
0101
110M
M101
110M
,
1001
0000
0000
0000
0000
0000
0001
0100
0010
0000
0000
0010
1000
0010
1000
0000
,
0000
0100
1000
0100
1000
0000
0001
0000
0100
0000
0100
0010
0100
0000
0010
0000
,
1000
0010
0001
0010
1000
0000
1000
0000
0001
0000
0000
0001
0010
0001
0010
0000
,
0000
0001
0100
0001
0100
0000
0010
0000
1000
0000
1000
0001
1000
0000
0100
0000
,
0010
0100
0010
0100
0010
0000
0001
0000
0100
0000
0000
0000
1M10
0000
0000
0000
,
0100
0M11
0100
1M10
,
0100
0M11
0001
011M
,
1000
0000
M110
0000
0001
0010
001M
1000
,
1001
1010
0010
01M1
,
0010
11M0
0010
01M1
,
0010
11M0
1000
M110
,
0001
0000
011M
0000
1000
0100
M100
0001
,
1001
0101
0002
0043
,
2030
3004
0203
4300
,
3020
0034
2003
3004
,
0023
4030
3200
0340
,
0032
0203
0020
0000
,
0000
0000
0000
0000
,
0000
0000
0000
0000
,
0000
0000
0000
0330
0MM0
0000
0000
0000
,
0000
0000
1001
0000
1200
0000
0301
1000
,
0010
0001
1000
0100
0010
0001
0100
0010
,
1000
0001
1000
0000
0100
0000
0000
0000
1001
0000
0000
0000
0011
0000
0000
0000
,
101M
0000
M011
0000
0001
0010
001M
1000
,
1001
0000
0101
0000
1200
0000
0301
0100
,
1000
0001
0100
1000
0100
0001
0010
0100
,
1000
0001
1000
0000
0010
0000
0000
0000
0001
0000
0010
0000
1000
0000
0200
0000
,
0010
0000
0000
0000
0010
0000
0000
0000
1300
0000
0001
0000
1000
0000
0010
0100
,
0010
0100
0101
0000
0021
0000
1030
0001
,
0100
1000
0001
0010
0100
1000
0010
0100
,
0001
1000
0001
0000
0010
0000
0000
0000
1001
0000
0000
0000
110M
0000
0000
0000
,
M101
0000
110M
0000
1000
0100
M100
0001
,
1001
0000
0101
0100
0020
0000
1030
0000
,
1200
0301
0201
1300
,
1020
0000
0000
0000
0130
0000
0000
0000
0001
0100
0001
0000
1000
0100
1000
0000
,
0001
0100
0001
0000
1000
0100
1000
0000
0010
0000
0100
0000
0001
0000
0010
0000
,
0100
0010
0011
0000
1002
0000
0103
0120
,
0000
1030
1100
0000
2001
0000
3010
0210
,
0000
0000
0301
0000
0100
0001
0100
0001
2000
0000
0000
0000
3100
0000
0120
0000
,
0000
0031
0101
0000
1002
0000
0103
0120
,
0000
0000
1030
0000
0010
0100
0010
0100
0020
0000
0000
0000
1030
0000
1200
0000
,
0000
0310
0110
0000
0012
0000
0103
0120
,
0000
0000
1030
0000
0001
1000
0001
1000
0200
0000
0000
0000
0310
0000
0210
0000
,
0000
1300
1010
0000
0210
0000
0301
0021
,
0000
0000
0130
0000
1000
0001
1000
0001
1000
0000
0010
0000
1000
0000
0001
0000
,
0010
0001
1000
1000
0001
0100
0001
1000
,
0100
0000
1000
0000
0001
0100
0001
0100
0010
0000
0100
0000
0010
0000
1000
0000
,
0001
1000
0100
0100
0001
0100
1000
0001
,
0100
0000
0010
0000
0100
0010
0100
0010
0100
0000
0001
0000
0010
0000
0100
0000
,
1000
0010
0100
0100
0010
1000
0100
0010
,
0001
0000
0100
0000
0010
1000
0010
1000
0001
0000
0010
0000
1000
0000
0001
0000
,
0100
1000
0001
0001
1000
0010
0001
0010
,
2000
0000
0000
0000
3001
0010
0100
1000
0002
0000
0000
0000
0000
0000
0000
0000
,
0000
0000
0000
0000
,
0000
0000
0000
0003
;

//--------------- dance-double - Talkion ----------------
#NOTES:
     dance-double:
     Talkion:
     Edit:
     15:
     0,0,0,0,0:
00000000
00000000
00000000
00000000
,
00000000
00000000
00000000
00000000
,
00000000
00000000
00000000
00000000
,
00000000
00000000
00000000
00000000
,
00000000
00000000
00000000
00000000
,
00000000
00000000
00000000
00000000
,
00000000
00000000
00000000
00000000
,
00000000
00000000
00000000
00000000
,
00000000
00000000
00000000
00000000
,
00100000
00001000
00010000
00000000
00000010
00010000
00001000
00000000
,
00100000
00010000
01000000
00000000
00100000
10000000
01000000
00000000
,
00100000
00001000
00010000
00000000
00000010
00010000
00001000
00000000
,
00000100
00000010
00001000
00000000
00000100
00000010
00000001
00000000
,
00000010
00001000
00010000
00000000
00100000
00010000
00001000
00000000
,
00000100
00001000
00010000
00000000
01000000
00010000
00001000
00000000
,
00100000
00010000
01000000
00000000
00100000
00010000
00001000
00000100
,
00010000
00001000
00000100
00000010
00000001
00001000
00001001
00000000
,
00000011
00000000
00000001
00000100
0000010M
00000100
00001000
00000000
,
00010000
00100000
001M0000
00100000
10000000
00000000
10010000
00000000
,
12000000
00000000
00100000
00100000
00100000
03100000
00000000
01000000
,
00010000
00001000
00100000
00010000
01000000
00000000
01100000
00000000
,
10100000
00000000
10000000
00100000
M0100000
00100000
00010000
00000000
,
00001000
00000100
0000M100
00000100
00000001
00000000
00001001
00000000
,
00000021
00000000
00000100
00000100
00000100
00000130
00000000
00000010
,
00001000
00010000
00000100
00001000
00000020
00000000
00010030
00000000
,
00001000
00100000
01000000
00100000
00001000
01000000
00100000
01000000
,
00001000
00010000
00000100
00001000
00000010
00000100
00000001
00000100
,
00000010
00001000
00000100
00001000
00000010
00010000
00001000
00010000
,
00000010
00001000
00010000
00100000
01000000
10000000
10010000
00000000
,
00010000
00100000
00001000
00100000
00010000
01000000
00001000
01000000
,
00010000
00001000
00000100
00000010
00000001
00001000
00000010
00001000
,
00000001
00000010
00001000
00010000
00100000
10000000
00010000
10000000
,
01000000
00100000
00001000
00010000
00001000
00000000
00010000
01000000
,
00100000
00000000
00000000
00100000
00001000
00010000
00011000
00000000
,
00011000
00001000
00000010
00000001
00000021
00000000
00001030
00000000
,
00011000
00000000
00010000
00100000
10000000
10100000
00000000
10000000
,
10100000
00100000
01000000
00001000
00011000
00000000
00001000
00000100
,
00000001
00000000
00000000
00000001
00000100
00001000
00001100
00000000
,
00001100
00001000
00010000
01000000
02100000
00000000
13000000
00000000
,
10010000
00000000
10000000
00100000
00010000
00001000
00000100
00000001
,
00001000
00000100
00000010
00000001
00001001
00000000
00000011
00000010
,
00000200
00010300
01002000
00013000
,
00020100
00031000
00201000
01300000
,
10000000
00100000
00010000
20000000
01000000
00000000
01000000
00000000
,
30010000
00100000
10000000
01000000
00010000
00001000
00000100
00000001
,
00000020
00001030
00102000
00013000
,
00020010
00031000
02001000
03100000
,
10010000
M0011000
000M1001
00000110
,
00001001
00000000
00000000
00000000
00000000
00000000
00000001
00000010
00000100
00000000
00000000
00000100
00010000
00000100
00010000
00000000
,
00000000
00001000
00100000
00001000
00100000
00000000
00010000
00000000
01000000
00000000
01000000
00100000
01000000
00000000
00100000
00000000
,
00010000
00001000
00000010
00001000
00010000
00000000
00100000
00000000
10000000
00000000
00000000
01000000
10000000
01000000
10000000
00000000
,
00000000
00100000
10000000
00100000
10000000
00000000
01000000
00000000
00100000
00000000
00100000
00010000
00100000
00000000
00001000
00000000
,
00000010
00000100
00000010
00000100
00000010
00000000
00000001
00000000
00000100
00000000
00000000
00000000
00011M00
00000000
00000000
00000000
,
01000000
0M011000
00000100
00011M00
,
01000000
0M011000
00000010
000101M0
,
01000000
00000000
0M101000
00000000
00001000
00010000
0001M000
01000000
,
01100000
01010000
01000000
0M011000
,
00000100
00011M00
01000000
0M011000
,
00000100
00011M00
00100000
01M01000
,
00000100
00000000
00010M10
00000000
00010000
00001000
000M1000
00000100
,
00000110
00001100
00000002
00004003
,
00023000
00034000
00003002
00004003
,
00023000
40030000
30020000
00034000
,
00023000
40030000
30020000
00034000
,
00003002
00002003
00020000
00000000
,
00000000
00000000
00000000
00000000
,
00000000
00000000
00000000
00000000
,
00000000
00000000
00000000
00033000
000MM000
00000000
00000000
00000000
,
00000000
00000000
01100000
00000000
10000000
00100000
00010000
00001000
,
00100000
00010000
00001000
00000010
00010000
00001000
00000010
00000001
,
00000100
00000010
00010000
00001000
00011000
00000000
00101000
00000000
,
00M10010
00000000
001010M0
00000000
00001000
00000100
0000M100
00000010
,
00000110
00000000
00001001
00000000
00000001
00000010
00001000
00010000
,
00100000
00001000
00010000
00100000
00001000
00010000
01000000
10000000
,
00100000
01000000
00010000
10000000
01000000
00100000
00010000
00002000
,
00000100
00000000
00000000
00000000
00000100
00000000
00000000
00000000
00003010
00000000
00001000
00000000
00000100
00000000
00001000
00000100
,
00001000
00000001
00000101
00000000
00000001
00000100
00001000
00010000
,
00000100
00001000
00010000
01000000
00001000
00010000
01000000
10000000
,
00100000
01000000
00001000
00010000
00011000
00000000
00010100
00000000
,
01001M00
00000000
0M010100
00000000
00010000
00100000
001M0000
01000000
,
01100000
00000000
10000000
00100000
00020000
00000000
00031000
00000000
,
00020100
00031000
01002000
00013000
,
00010200
00000000
00000000
00000000
00000310
00000000
00000000
00000000
00000001
00001000
00000001
00000000
00001000
00000001
00001000
00000000
,
00000100
00001000
00000100
00000000
00010000
00001000
00010000
00000000
00001000
00000000
00010000
00000000
00100000
00000000
10000000
00000000
,
01000000
00100000
00110000
00000000
20010000
00000000
30100000
00020000
,
00000000
00031000
00000010
00000000
00001002
00000000
00000013
00002000
,
00000000
00000000
00013000
00000000
00100000
01000000
00100000
01000000
00200000
00000000
00000000
00000000
10300000
00000000
02000000
00000000
,
00000000
03010000
00001000
00000000
00001200
00000000
00000301
00000020
,
00000000
00000000
00001030
00000000
00010000
00001000
00010000
00001000
00020000
00000000
00000000
00000000
00030100
00000000
00000020
00000000
,
00000000
00000130
00001000
00000000
00021000
00000000
01030000
00200000
,
00000000
00000000
01300000
00000000
00010000
10000000
00010000
10000000
00020000
00000000
00000000
00000000
00130000
00000000
00002000
00000000
,
00000000
00003010
00000001
00000000
00001002
00000000
00000103
00002000
,
00000000
00013000
00011000
00000000
00001000
00010000
00100000
00001000
,
00010000
00100000
01000000
10000000
00100000
01000000
00001000
00010000
,
00000010
00000000
00000100
00000000
00000001
00001000
00000001
00001000
00000001
00000000
00000010
00000000
00001000
00000000
00010000
00000000
,
00000010
00001000
00010000
00100000
01000000
10000000
00010000
01000000
,
00100000
00000000
01000000
00000000
00001000
00010000
00001000
00010000
00001000
00000000
00000010
00000000
00000001
00000000
00001000
00000000
,
00000010
00000001
00001000
00000100
00000010
00001000
00000100
00010000
,
00001000
00000000
00100000
00000000
00010000
10000000
00010000
10000000
00010000
00000000
01000000
00000000
00100000
00000000
00001000
00000000
,
00010000
00000100
00000010
00001000
00000001
00000010
00001000
00010000
,
00002000
00000000
00000000
00000000
00103000
00010000
00100000
00010000
02000000
00000000
00000000
00000000
00000000
00000000
00000000
00000000
,
00000000
00000000
00000000
00000000
,
00000000
00000000
00000000
03000000
;
