#VERSION:0.83;
#TITLE:Mami Mami Zone;
#SUBTITLE:;
#ARTIST:REDALiCE feat. 野宮あゆみ;
#TITLETRANSLIT:;
#SUBTITLETRANSLIT:;
#ARTISTTRANSLIT:REDALiCE feat. Ayumi Nomiya;
#GENRE:;
#ORIGIN:;
#CREDIT:;
#BANNER:Mami Mami Zone.png;
#BACKGROUND:Mami Mami Zone-bg.png;
#PREVIEWVID:;
#JACKET:Mami Mami Zone-jacket.png;
#CDIMAGE:;
#DISCIMAGE:;
#LYRICSPATH:;
#CDTITLE:cdtitle.png;
#MUSIC:Mami Mami Zone.ogg;
#OFFSET:0.406000;
#SAMPLESTART:57.859001;
#SAMPLELENGTH:15.000000;
#SELECTABLE:YES;
#BPMS:0.000=173.000;
#STOPS:;
#DELAYS:;
#WARPS:;
#TIMESIGNATURES:0.000=4=4;
#TICKCOUNTS:0.000=4;
#COMBOS:0.000=1;
#SPEEDS:0.000=1.000=0.000=0;
#SCROLLS:0.000=1.000;
#FAKES:;
#LABELS:0.000=Song Start;
#BGCHANGES:;
#KEYSOUNDS:;
#ATTACKS:
;

//---------------dance-single - ----------------
#NOTEDATA:;
#CHARTNAME:9646_CSP;
#STEPSTYPE:dance-single;
#DESCRIPTION:;
#CHARTSTYLE:Dance;
#DIFFICULTY:Challenge;
#METER:16;
#RADARVALUES:0.694992,0.932800,0.613406,0.740318,0.415988,690.000000,603.000000,87.000000,105.000000,0.000000,0.000000,0.000000,0.000000,0.000000,0.694992,0.932800,0.613406,0.740318,0.415988,690.000000,603.000000,87.000000,105.000000,0.000000,0.000000,0.000000,0.000000,0.000000;
#CREDIT:9646;
#NOTES:
0000
0000
0000
0000
,
0000
0000
0000
0000
,
0000
0000
0000
0000
,
0000
0000
0000
0000
,
0000
0000
0000
0000
,
1000
0000
0000
1000
0000
0000
1000
0000
0100
0000
0000
0100
0000
0000
0100
0000
,
0001
0000
0000
0001
0000
0000
0001
0000
0100
0000
0010
0000
0001
0000
0100
0000
,
0010
0000
0000
0010
0000
0000
0010
0000
1000
0000
0000
1000
0000
0000
0100
0000
,
0220
0000
0000
0000
0330
0010
0010
0010
,
0110
0000
0100
0010
0001
0000
1000
0000
0001
0010
0100
0000
2000
0000
3002
0000
,
0103
0000
0010
1000
0100
0000
1000
0000
0010
0100
0001
0000
0020
0000
0030
0000
,
0110
0000
0100
1000
0001
0000
1000
0000
0010
0100
0001
0000
2000
0000
3020
0000
,
0130
0000
0001
1000
0010
0000
0100
0000
0001
0010
0100
0000
0020
0000
0030
0000
,
0110
0000
0010
0100
1000
0000
0001
0000
1000
0100
0010
0000
0002
0000
2003
0000
,
3010
0000
0100
0001
0010
0000
0001
0000
0100
0010
1000
0000
0200
0000
0300
0000
,
0110
0000
0010
0001
1000
0000
0001
0000
0100
0010
1000
0000
0002
0000
0203
0000
,
0310
0000
0100
0001
2000
0000
3100
0000
0000
0000
0110
0000
0100
0000
0010
0000
,
0001
0000
1000
0100
0010
0000
0001
0000
0200
0000
0000
0000
0320
0000
0000
0000
,
2030
0000
0100
0000
3001
0000
1000
0010
,
0100
0001
0100
0001
0010
0100
0010
0100
,
1000
0010
0001
0010
0000
0110
0010
0100
,
0001
0000
0010
0100
1000
0000
0001
0000
2000
0000
0000
0000
3020
0000
0000
0000
,
0230
0000
1000
0000
0301
0000
0100
0010
,
1000
0000
0000
1000
0000
0000
0100
0000
0010
0000
0000
0010
0000
0000
0001
0000
,
2002
0000
0000
3003
0000
0110
0110
0110
,
0001
0000
1000
0010
0100
0000
0001
0000
0020
0000
0000
0000
0230
0000
0000
0000
,
2300
0000
0010
0000
3001
0000
1000
0100
,
0010
0001
0010
0001
0100
0010
0100
0010
,
1000
0100
0001
0100
0000
0110
0110
0110
,
0001
0000
0100
0010
1000
0000
0001
0000
2000
0000
0000
0000
3200
0000
0000
0000
,
0320
0000
1000
0000
0031
0010
0100
1000
,
0020
0000
0130
0002
0000
0013
0100
0010
,
0220
0000
0000
0330
0000
0100
1000
0001
,
2002
0000
0000
3000
,
0200
0000
0000
0300
,
2000
0000
0000
0003
,
3200
0000
0000
0020
0000
0000
0330
0000
,
2200
0000
0000
0300
,
3002
0000
0000
2000
0000
3003
0020
0200
,
0000
0000
0000
0330
,
1000
0001
0000
0101
0000
0010
1000
0100
,
0110
0000
0000
0110
0000
0000
0011
0000
2002
0000
0000
0000
3003
0000
0000
0000
,
0010
0000
0000
1100
0000
0000
1100
0000
0001
0000
0000
0101
0000
0000
0101
0000
,
0010
1000
0100
0100
0010
0002
2000
3003
,
0010
0000
0000
0101
0000
0000
0101
0000
1000
0000
0000
1100
0000
0000
1100
0000
,
0110
1010
1100
0011
,
0100
0000
0000
1001
0000
0000
1001
0000
0010
0000
0000
0110
0000
0000
0110
0000
,
0001
1000
0010
0100
0010
2000
0002
3003
,
0010
0000
0000
1100
0000
0000
1001
0000
0010
0000
0000
0101
0000
0000
1001
0000
,
0020
0000
0130
0010
0100
0000
0010
0000
0000
0000
1001
0000
1001
0000
0000
0000
,
0021
0000
0130
1000
0000
0100
1000
0000
0020
0000
0130
0001
0000
0100
0001
0000
,
1000
0100
0001
0100
1000
0002
0020
0033
,
0210
0000
1300
0010
0000
1000
0010
0000
0200
0000
0301
0010
0000
0001
0010
0000
,
0110
0101
1100
1010
,
0210
0000
0301
0010
0000
0001
0010
0000
0200
0000
1300
0010
0000
1000
0010
0000
,
0100
0001
0010
1000
0010
0002
2000
3003
,
0010
0000
0100
0001
0000
0001
0100
0000
0010
0000
1000
0100
0000
0100
1000
0000
,
0020
0000
0130
0001
1000
0000
0100
0000
0000
0000
0110
0000
0110
0000
0000
0000
,
2002
0000
0000
0000
3003
0200
0020
0330
,
2001
0000
3100
0010
0100
0000
1000
0000
0001
0010
0100
1000
0100
0000
0010
0000
,
0001
1000
0001
0100
0010
0000
0100
0001
0010
0000
0100
0000
0020
0000
0030
0000
,
0100
1000
0100
1000
0001
0000
1000
0010
0100
0001
0100
0010
1000
0000
0001
0010
,
0100
0010
0100
0010
0001
0010
0001
0010
0100
0000
1000
0000
0001
0000
0100
0000
,
0010
0000
0010
0100
1000
0100
0010
1000
0010
0000
1000
0000
0100
0010
0100
0000
,
0001
0000
0100
1000
0100
0010
0001
0010
0100
0000
2000
0000
0020
0000
3030
0000
,
0100
0000
0100
0010
1000
0100
1000
0100
0010
0001
0010
0001
0100
0001
0100
0001
,
1000
0020
0000
0000
1030
0200
0000
0000
1300
0001
1000
0001
0100
0000
0010
0000
,
0200
0000
0000
0300
,
2002
0000
0000
0003
,
0200
0000
0000
0300
,
0002
0000
0000
3000
,
0203
0000
0000
0020
0000
0000
0330
0000
,
0202
0000
0000
0300
,
2003
0000
0000
0002
0000
3003
0020
0200
,
0000
0000
0000
0330
,
0001
1000
0000
1100
0000
0010
0001
0100
,
0110
0000
0000
1010
0000
0000
1100
0000
0011
0000
0000
0110
0000
0000
0101
0000
,
1100
0000
0000
1001
0000
0000
0110
0000
2002
0000
0000
0000
3003
0000
0000
0000
,
1200
0000
0310
0001
0000
0010
0001
0000
0200
0000
0310
1000
0000
0010
1000
0000
,
0001
0010
1000
0010
0001
0001
1000
0100
,
0120
0000
0031
0100
0000
0001
0100
0000
0020
0000
1030
0100
0000
1000
0100
0000
,
0110
1010
0011
0101
,
0120
0000
1030
0100
0000
1000
0100
0000
0020
0000
0031
0100
0000
0001
0100
0000
,
0010
1000
0100
0001
0100
0100
1000
0001
,
0100
0000
0010
1000
0000
1000
0010
0000
0100
0000
0001
0010
0000
0010
0001
0000
,
0200
0000
0310
1000
0001
0000
0010
0000
0000
0000
0110
0000
0110
0000
0000
0000
,
2000
0000
3010
0001
0010
0000
1000
0000
0002
0000
0013
1000
0010
0000
0001
0000
,
1000
0100
0001
0001
1000
0010
0001
1000
,
0002
0000
0013
1000
0010
0000
0001
0000
2000
0000
3010
0001
0010
0000
1000
0000
,
1010
1100
0011
0101
,
0020
0000
0130
0001
0010
0000
0100
0000
0002
0000
0103
0010
0001
0000
0100
0000
,
0010
0001
0010
0010
1000
0100
0001
0100
,
0010
0000
0001
0100
0001
0000
0100
0000
0010
0000
1000
0100
1000
0000
0100
0000
,
0020
0000
0031
0100
0010
0000
1000
0000
0000
0000
1100
0000
0110
0000
0000
0000
,
0200
0000
1300
0010
0100
0000
0001
0000
0000
0000
0011
0000
0110
0000
0000
0000
,
0002
0000
1003
0100
0010
0000
0100
0000
0000
0000
1001
0000
0220
0000
0000
0000
,
0000
0000
0000
0000
,
0000
0000
0000
0000
,
0330
0000
0000
0000
;

//---------------dance-single - ----------------
#NOTEDATA:;
#CHARTNAME:9646_ESP;
#STEPSTYPE:dance-single;
#DESCRIPTION:;
#CHARTSTYLE:Dance;
#DIFFICULTY:Hard;
#METER:13;
#RADARVALUES:0.590240,0.656415,0.169215,0.507646,0.186842,586.000000,562.000000,24.000000,72.000000,0.000000,0.000000,0.000000,0.000000,0.000000,0.590240,0.656415,0.169215,0.507646,0.186842,586.000000,562.000000,24.000000,72.000000,0.000000,0.000000,0.000000,0.000000,0.000000;
#CREDIT:9646;
#NOTES:
0000
0000
0000
0000
,
0000
0000
0000
0000
,
0000
0000
0000
0000
,
0000
0000
0000
0000
,
0000
0000
0000
0000
,
1000
0000
0000
0100
0000
0000
1000
0000
0010
0000
0000
0100
0000
0000
0001
0000
,
0010
0000
0000
0100
0000
0000
0010
0000
0001
0000
1000
0000
0002
0000
0003
0000
,
0100
0000
0000
0010
0000
0000
1000
0000
0100
0000
0000
0010
0000
0000
0100
0000
,
2002
0000
0000
0000
3003
0010
0010
0010
,
1000
0100
0001
0100
1000
0010
0001
1000
,
0100
0001
0010
0100
1000
0001
0020
0030
,
0100
0100
1000
0001
0010
1000
0001
0100
,
1000
1000
0100
0010
0001
1000
0020
0030
,
0100
0001
0010
1000
0010
0001
0100
0010
,
1000
0100
0001
0100
1000
0001
0020
0030
,
0100
1000
0010
0001
1000
0100
0001
1000
,
0010
0010
0100
0010
0000
1000
1000
1000
,
0100
1000
0010
0100
0002
0000
0023
0000
,
0230
0000
0001
0000
0310
0000
0100
1000
,
0100
0010
0000
0010
0100
1000
0001
1000
,
0010
0100
0001
1000
0000
0001
0001
0001
,
0010
0001
0100
0010
2000
0000
3200
0000
,
0320
0000
1000
0000
0130
0000
1000
0001
,
0010
0000
0000
0100
0000
0000
0010
0000
0001
0000
0000
0100
0000
0000
0010
0000
,
2000
0000
0000
3000
0000
0010
0010
0010
,
0100
0001
0010
0100
2000
0000
3020
0000
,
0230
0000
1000
0000
0310
0000
0100
0001
,
0100
0010
0000
0010
0100
0001
1000
0001
,
0010
0100
1000
0001
0000
1000
1000
1000
,
0010
1000
0100
0010
0002
0000
0203
0000
,
0320
0000
0001
0000
0130
0001
1000
0100
,
0010
0001
0010
0001
0100
0010
1000
0001
,
2002
0000
0000
3003
0000
0010
0010
0010
,
1000
0100
1000
0001
0010
0200
0000
0300
,
1000
0000
0000
1000
0000
0000
1000
0000
0001
0000
0200
0000
0000
0000
0300
0000
,
0010
0100
0001
0010
0100
0020
0000
0030
,
0002
0000
0000
2000
0000
0000
3003
0000
,
0010
0100
0001
1000
0100
2000
0000
3000
,
0200
0000
0000
0020
0000
0330
0002
2000
,
0000
0000
0000
3003
,
0010
0010
0000
0101
0000
0010
0100
0001
,
1000
0000
0000
1000
0000
0000
0001
0000
0220
0000
0000
0000
0330
0000
0000
0000
,
1000
0000
0000
1000
0000
0000
0010
0000
0100
0000
0000
0100
0000
0000
0001
0000
,
0010
0100
0001
0100
0010
0001
1000
0000
,
0010
0000
0000
0010
0000
0000
0001
0000
1000
0000
0000
1000
0000
0000
0100
0000
,
0001
0101
1000
1100
,
0010
0000
0000
0010
0000
0000
0001
0000
1000
0000
0000
1000
0000
0000
0010
0000
,
0001
0010
1000
0100
0010
0100
1000
0000
,
0010
0000
0000
0001
0000
0000
1000
0000
0100
0000
0000
0001
0000
0000
0010
0000
,
0100
0100
1000
0010
0000
0100
0110
0000
,
0020
0000
0000
0130
0001
0000
1000
0000
0020
0000
0000
0130
0001
0000
1000
0000
,
0100
0010
0100
1000
0001
0010
0100
1000
,
0200
0000
0000
0310
0001
0000
1000
0000
0200
0000
0000
0310
0001
0000
1000
0000
,
0010
0101
1000
0110
,
2000
0000
0000
3100
0010
0000
0001
0000
2000
0000
0000
3010
0100
0000
0001
0000
,
1000
0100
0010
0100
1000
0001
0010
0000
,
0100
0000
0000
0100
0010
0000
0001
0000
0100
0000
0000
0100
0010
0000
1000
0000
,
0001
0010
0100
0010
0000
0100
1001
0000
,
0220
0000
0000
0330
,
1000
0010
0100
0010
1000
0001
0010
0100
,
1000
0001
0010
0100
0010
0001
2000
3000
,
0010
0100
0001
0100
0010
1000
0100
0010
,
0100
0100
1000
1000
0010
0100
0001
1000
,
0001
0001
0010
0100
1000
1000
0010
0100
,
0001
1000
0010
0001
0010
1000
0002
0003
,
0010
1000
0010
0001
0010
1000
0001
0100
,
2000
0000
3020
0000
0031
0010
1000
0100
,
0020
0000
0000
0030
,
0001
0100
0001
1000
0010
0200
0000
0300
,
0001
0000
0000
0001
0000
0000
0001
0000
1000
0000
0200
0000
0000
0000
0300
0000
,
0010
0100
1000
0010
0100
0020
0000
0030
,
2000
0000
0000
0002
0000
0000
3003
0000
,
0010
0100
1000
0001
0100
0002
0000
0003
,
0200
0000
0000
0020
0000
0330
2000
0002
,
0000
0000
0000
3003
,
0010
0010
0000
1100
0000
0010
0100
1000
,
0001
0000
0000
0001
0000
0000
0100
0000
1000
0000
0000
1000
0000
0000
0001
0000
,
0010
0000
0000
0010
0000
0000
1000
0000
2002
0000
0000
0000
3003
0000
0000
0000
,
0020
0000
0000
0130
1000
0000
0001
0000
0020
0000
0000
0130
1000
0000
0001
0000
,
0100
0010
0100
0001
1000
0010
0100
0001
,
0200
0000
0000
0310
1000
0000
0001
0000
0200
0000
0000
0310
1000
0000
0001
0000
,
0010
1100
0001
0110
,
0002
0000
0000
0103
0010
0000
1000
0000
0002
0000
0000
0013
0100
0000
1000
0000
,
0001
0100
0010
0100
0001
1000
0010
0000
,
0100
0000
0000
0100
0010
0000
1000
0000
0100
0000
0000
0100
0010
0000
0001
0000
,
1000
0010
0100
0010
0000
0100
1001
0000
,
0200
0000
1300
0010
0000
1000
0010
0000
0200
0000
0301
0010
0000
0001
0010
0000
,
0100
1000
0001
1000
0010
0100
0001
1000
,
0020
0000
1030
0100
0000
1000
0100
0000
0020
0000
0031
0100
0000
0001
0100
0000
,
0010
1100
0001
1010
,
0200
0000
0301
1000
0000
1000
0001
0000
0020
0000
0130
1000
0000
1000
0001
0000
,
0010
0100
1000
0001
0010
0100
0010
0000
,
0001
0000
1000
0100
0000
1000
0100
0000
0010
0000
0001
1000
0000
0001
1000
0000
,
0010
0100
0001
1000
0000
0011
0011
0000
,
0100
0010
0001
1000
0000
0101
0101
0000
,
1000
0100
0001
0100
0000
0110
2002
0000
,
0000
0000
0000
0000
,
0000
0000
0000
0000
,
3003
0000
0000
0000
;

//---------------dance-single - ----------------
#NOTEDATA:;
#CHARTNAME:9646_DSP;
#STEPSTYPE:dance-single;
#DESCRIPTION:;
#CHARTSTYLE:Dance;
#DIFFICULTY:Medium;
#METER:11;
#RADARVALUES:0.482466,0.587319,0.253823,0.296127,0.014101,479.000000,443.000000,36.000000,42.000000,0.000000,0.000000,0.000000,0.000000,0.000000,0.482466,0.587319,0.253823,0.296127,0.014101,479.000000,443.000000,36.000000,42.000000,0.000000,0.000000,0.000000,0.000000,0.000000;
#CREDIT:9646;
#NOTES:
// measure 0
0000
0000
0000
0000
,  // measure 1
0000
0000
0000
0000
,  // measure 2
0000
0000
0000
0000
,  // measure 3
0000
0000
0000
0000
,  // measure 4
0000
0000
0000
0000
,  // measure 5
1000
1100
0001
0101
,  // measure 6
1000
0000
1010
0000
0001
0010
0100
0010
,  // measure 7
0001
0110
1000
0110
,  // measure 8
2002
0000
0000
3003
,  // measure 9
0100
0001
0100
0000
0010
0000
1100
0000
,  // measure 10
0010
0001
0010
0000
0100
1000
0010
0000
,  // measure 11
0100
1000
0100
0000
0010
0000
0101
0000
,  // measure 12
0010
1000
0010
0000
0100
0001
0010
0000
,  // measure 13
0100
1000
0010
0000
0100
0000
1001
0000
,  // measure 14
1000
0100
0001
0000
1000
0010
0001
0000
,  // measure 15
0010
0001
0100
0000
0010
0000
1001
0000
,  // measure 16
0001
0010
1000
0001
0000
1000
0010
0001
,  // measure 17
0010
0100
0010
0000
0001
0000
1000
0000
,  // measure 18
0020
0001
0100
1030
,  // measure 19
0001
0010
0001
0000
1000
0010
1000
0000
,  // measure 20
0100
0010
0100
0010
0000
0100
1000
0001
,  // measure 21
0010
0100
0010
0000
0001
0000
1000
0000
,  // measure 22
0020
0000
0001
0000
1030
0000
0001
0010
,  // measure 23
1000
1010
0001
0011
,  // measure 24
2002
0000
0000
3003
0000
1000
0010
0001
,  // measure 25
0010
0100
0010
0000
1000
0000
0001
0000
,  // measure 26
0020
1000
0100
0031
,  // measure 27
1000
0010
1000
0000
0001
0010
0001
0000
,  // measure 28
0100
0010
0100
0010
0000
0100
0001
1000
,  // measure 29
0010
0100
0010
0000
1000
0000
0001
0000
,  // measure 30
0020
0000
1000
0000
0031
0010
1000
0010
,  // measure 31
0002
0000
1003
0100
0002
0000
0103
1000
,  // measure 32
0020
0000
0000
0030
0000
0100
1000
0100
,  // measure 33
0002
0000
0000
0000
,  // measure 34
0023
0000
0000
0000
,  // measure 35
0230
0000
0000
0000
,  // measure 36
2300
0000
0000
0020
0000
0000
3030
0000
,  // measure 37
0102
0000
0000
0000
,  // measure 38
2003
0000
0000
0200
0000
3300
0020
0002
,  // measure 39
0000
0000
0000
0033
,  // measure 40
0001
0100
0000
1001
0000
1000
0100
0001
,  // measure 41
0100
0000
0000
1000
0000
0000
0001
0000
2002
0000
0000
0000
3003
0000
0000
0000
,  // measure 42
0010
1010
0010
0011
,  // measure 43
1000
0000
0001
0000
0010
0100
1000
0000
,  // measure 44
0010
0011
0010
1010
,  // measure 45
1001
0100
1001
0010
,  // measure 46
0100
0101
0100
1100
,  // measure 47
0001
0000
1000
0000
0010
0100
0001
0000
,  // measure 48
0100
0010
1000
0000
0100
0010
0001
0000
,  // measure 49
0010
0100
0010
0100
0000
1000
0001
0000
,  // measure 50
1000
0100
1000
0000
0001
0100
0001
0000
,  // measure 51
0010
0000
0010
0000
0100
1000
0001
0000
,  // measure 52
0010
0001
0010
0000
0100
1000
0100
0000
,  // measure 53
1001
0100
1001
0100
,  // measure 54
1000
0010
1000
0000
0001
0010
0001
0000
,  // measure 55
0100
0000
0100
0000
0010
1000
0001
0000
,  // measure 56
0010
0100
1000
0000
0100
0010
0001
0000
,  // measure 57
0100
0010
0100
0010
0000
1000
0001
0000
,  // measure 58
0220
0000
0000
0330
,  // measure 59
1000
0100
0010
0100
1000
0010
0001
0010
,  // measure 60
1000
0100
1000
0100
0010
0001
1000
0000
,  // measure 61
0010
0100
0001
1000
0100
0010
0100
1000
,  // measure 62
0001
0010
0001
0010
0100
1000
0001
0000
,  // measure 63
1000
0001
0100
0100
1000
0001
0010
0010
,  // measure 64
1000
0100
0001
1000
0010
0001
0010
0000
,  // measure 65
1000
0010
0100
0010
0001
0010
0100
1000
,  // measure 66
0002
0000
0023
0000
0130
0100
1000
0000
,  // measure 67
0020
0000
0000
0030
,  // measure 68
2001
0000
0000
0000
,  // measure 69
3200
0000
0000
0000
,  // measure 70
0320
0000
0000
0000
,  // measure 71
0032
0000
0000
0200
0000
0000
0303
0000
,  // measure 72
2010
0000
0000
0000
,  // measure 73
3002
0000
0000
0020
0000
0033
0200
2000
,  // measure 74
0000
0000
0000
3300
,  // measure 75
1000
0010
0000
1001
0000
0001
0010
1000
,  // measure 76
0010
0000
0000
0001
0000
0000
1000
0000
0010
0000
0000
0001
0000
0000
1000
0000
,  // measure 77
0100
0000
0000
0001
0000
0000
0010
0000
0220
0000
0000
0000
0330
0000
0000
0000
,  // measure 78
0001
0010
0001
0000
1000
0010
1000
0000
,  // measure 79
0100
0000
0100
0000
0010
0001
1000
0000
,  // measure 80
0100
1000
0100
0000
0010
0001
0010
0000
,  // measure 81
1001
0010
1001
0010
,  // measure 82
0001
0100
0001
0000
1000
0100
1000
0000
,  // measure 83
0010
0000
0010
0000
0100
0001
1000
0000
,  // measure 84
0100
0010
0001
0000
0010
0100
1000
0000
,  // measure 85
0010
0100
0010
0100
0000
0001
1000
0000
,  // measure 86
0100
0010
0100
1000
0010
0100
1000
0100
,  // measure 87
0010
1000
0010
0100
0001
0010
0100
0000
,  // measure 88
0010
0100
0010
0001
0100
0010
0100
0001
,  // measure 89
1001
0100
1001
0100
,  // measure 90
0010
0100
0010
0001
0100
0010
0001
0010
,  // measure 91
0100
0001
0100
0010
1000
0100
0010
0000
,  // measure 92
0001
0010
0100
0010
1000
0001
0100
0010
,  // measure 93
0100
1000
0001
0010
0000
0100
1000
0000
,  // measure 94
0001
0100
0010
1000
0000
0010
0100
0000
,  // measure 95
0001
0010
0100
1000
0000
0001
2002
0000
,  // measure 96
0000
0000
0000
0000
,  // measure 97
0000
0000
0000
0000
,  // measure 98
3003
0000
0000
0000
;

//---------------dance-single - ----------------
#NOTEDATA:;
#CHARTNAME:9646_BSP;
#STEPSTYPE:dance-single;
#DESCRIPTION:;
#CHARTSTYLE:Dance;
#DIFFICULTY:Easy;
#METER:8;
#RADARVALUES:0.339438,0.449126,0.303178,0.317279,0.000000,337.000000,294.000000,43.000000,45.000000,0.000000,0.000000,0.000000,0.000000,0.000000,0.339438,0.449126,0.303178,0.317279,0.000000,337.000000,294.000000,43.000000,45.000000,0.000000,0.000000,0.000000,0.000000,0.000000;
#CREDIT:9646;
#NOTES:
0000
0000
0000
0000
,
0000
0000
0000
0000
,
0000
0000
0000
0000
,
0000
0000
0000
0000
,
0000
0000
0000
0000
,
1000
1000
0100
0100
,
0001
0001
0010
0010
,
0100
0100
0010
0010
,
2002
0000
0000
3003
,
0110
0001
1000
0100
,
0010
0001
0100
1001
,
0100
1000
0010
0100
,
1000
0001
0010
1001
,
0100
0001
1000
0100
,
0010
0001
0100
1001
,
0100
1000
0010
0100
,
1000
1000
0000
0110
,
0001
0001
1000
0001
,
0020
0100
0030
0010
,
0100
0100
1000
1000
,
0001
1000
0000
1100
,
0010
0001
0100
0010
,
2000
0100
3000
1000
,
0001
0010
1000
0010
,
2002
0000
3003
0110
,
1000
1000
0001
1000
,
0200
0010
0300
0100
,
0010
0010
0001
0001
,
1000
0001
0000
0011
,
0100
1000
0010
0100
,
0002
0010
0003
0001
,
1000
0100
0001
0100
,
2002
0000
3003
0110
,
2001
0000
0000
0000
,
3020
0000
0000
0000
,
0230
0000
0000
0000
,
0302
0000
2000
3003
,
0021
0000
0000
0000
,
0230
0000
0300
2002
,
0000
0000
0000
3003
,
0010
0000
0000
1000
0000
0000
0100
0000
,
0010
0100
2002
3003
,
1000
1000
0001
0001
,
1000
0010
0001
0100
,
1000
1000
0001
0001
,
0101
0001
1100
1000
,
0001
0001
1000
1000
,
0010
0001
0010
1000
,
0100
0100
0010
0010
,
0001
1000
0000
0110
,
1000
0100
0001
0100
,
1000
0010
0001
0001
,
1000
0100
0001
0010
,
0110
0100
1001
0100
,
1000
0010
0001
0010
,
1000
0100
0001
0001
,
1000
0010
0001
0100
,
0010
0010
0000
1001
,
0220
0000
0000
0330
,
0110
1000
0010
0100
,
0001
1000
0010
0110
,
0001
0010
1000
0010
,
0001
1000
0010
0010
,
0100
0001
0010
0100
,
1000
0001
0010
0110
,
1000
0010
0001
0010
,
2000
3100
0002
0103
,
0020
0000
0000
0030
,
1002
0000
0000
0000
,
0203
0000
0000
0000
,
0320
0000
0000
0000
,
2030
0000
0002
3003
,
1200
0000
0000
0000
,
0320
0000
0030
2002
,
0000
0000
0000
3003
,
0100
0000
0000
0001
0000
0000
0010
0000
,
0100
0100
0010
0010
,
0100
0100
2002
3003
,
1000
0010
0001
0010
,
1000
0100
0001
0001
,
1000
0010
0001
0100
,
0110
0010
1001
0010
,
1000
0100
0001
0100
,
1000
0010
0001
0001
,
1000
0100
0001
0010
,
0100
0100
0000
1001
,
2100
3100
0102
0103
,
0001
0010
1000
0010
,
0012
0013
2010
3010
,
1001
0010
0100
0100
,
0021
0130
1020
0130
,
0001
1000
0100
0010
,
0001
0001
1000
1000
,
0010
0100
0000
0101
,
0010
0100
0000
1100
,
1000
0001
0000
0220
,
0000
0000
0000
0000
,
0000
0000
0000
0000
,
0330
0000
0000
0000
;

//---------------dance-single - ----------------
#NOTEDATA:;
#CHARTNAME:9646_BEG;
#STEPSTYPE:dance-single;
#DESCRIPTION:;
#CHARTSTYLE:Dance;
#DIFFICULTY:Beginner;
#METER:5;
#RADARVALUES:0.229650,0.345482,0.359583,0.183317,0.000000,228.000000,177.000000,51.000000,26.000000,0.000000,0.000000,0.000000,0.000000,0.000000,0.229650,0.345482,0.359583,0.183317,0.000000,228.000000,177.000000,51.000000,26.000000,0.000000,0.000000,0.000000,0.000000,0.000000;
#CREDIT:9646;
#NOTES:
0000
0000
0000
0000
,
0000
0000
0000
0000
,
0000
0000
0000
0000
,
0000
0000
0000
0000
,
0000
0000
0000
0000
,
0010
0000
0010
0000
,
0100
0000
0100
0000
,
0010
0000
0010
0000
,
0110
0000
0000
0000
,
1000
0000
0001
0000
,
0010
0010
0010
0000
,
1000
0000
0001
0000
,
0100
0100
0100
0000
,
1000
0000
0100
0000
,
0010
0010
0010
0000
,
0001
0000
0100
0000
,
0010
0010
0000
0110
,
1000
1000
1000
0000
,
0002
0000
0003
0000
,
0010
0000
0100
0000
,
0110
0000
0000
0000
,
0100
0100
0100
0000
,
0020
0000
0030
0000
,
0001
0000
1000
0000
,
2002
0000
3003
0000
,
0100
0100
0100
0000
,
0020
0000
0030
0000
,
1000
0000
0001
0000
,
1001
0000
0000
0000
,
0001
0001
0001
0000
,
0020
0000
0030
0000
,
1000
0000
0100
0000
,
0002
0000
0003
0000
,
0020
0000
0000
0000
,
0030
0000
0000
0000
,
0200
0000
0000
0000
,
0300
0000
0000
0000
,
2000
0000
0000
0000
,
3000
0000
0000
0220
,
0000
0000
0000
0330
,
1001
0000
0010
0000
,
0100
0000
0220
0330
,
1001
0000
1001
0000
,
0010
0010
0010
0000
,
1001
0000
1001
0000
,
0110
0000
0110
0000
,
1001
0000
1001
0000
,
0010
0010
0010
0000
,
0100
0000
0010
0000
,
0001
0001
0000
1001
,
0110
0000
0110
0000
,
1000
1000
1000
0000
,
0110
0000
0110
0000
,
1001
0000
1001
0000
,
0110
0000
0110
0000
,
0001
0001
0001
0000
,
1000
0000
0001
0000
,
0010
0010
0000
0110
,
2002
0000
0000
3003
,
0100
0100
0100
0000
,
0010
0010
0010
0000
,
1000
0000
1000
0000
,
1000
1000
1000
0000
,
0001
0000
0010
0000
,
0100
0100
0100
0000
,
1000
0000
0001
0000
,
0110
0000
1000
0000
,
0002
0000
0000
0003
,
0020
0000
0000
0000
,
0030
0000
0000
0000
,
0200
0000
0000
0000
,
0300
0000
0000
0000
,
2000
0000
0000
0000
,
3000
0000
0000
0220
,
0000
0000
0000
0330
,
1001
0000
0010
0000
,
0100
0000
0010
0000
,
0100
0000
0220
0330
,
1001
0000
1001
0000
,
0010
0010
0010
0000
,
1001
0000
1001
0000
,
0110
0000
0110
0000
,
1001
0000
1001
0000
,
0010
0010
0010
0000
,
0100
0000
0010
0000
,
0001
0001
0000
1001
,
0110
0000
0110
0000
,
1000
1000
1000
0000
,
0110
0000
0110
0000
,
1001
0000
1001
0000
,
0110
0000
0110
0000
,
0001
0001
0001
0000
,
1000
0000
0001
0000
,
0010
0010
0000
0110
,
1000
1000
0000
1001
,
0010
0010
0000
0220
,
0000
0000
0000
0000
,
0000
0000
0000
0000
,
0330
0000
0000
0000
;
