#TITLE:Love U Betta;
#SUBTITLE:;
#ARTIST:Neon Hitch;
#TITLETRANSLIT:;
#SUBTITLETRANSLIT:;
#ARTISTTRANSLIT:;
#GENRE:;
#CREDIT:;
#MUSIC:Love U Betta.mp3;
#BANNER:Love U Betta.png;
#BACKGROUND:Love U Betta-bg.png;
#CDTITLE:;
#SAMPLESTART:96.072;
#SAMPLELENGTH:14.749;
#SELECTABLE:YES;
#OFFSET:-0.052;
#BPMS:0.000=130.000;
#STOPS:;
#BGCHANGES:;
#FGCHANGES:;

//--------------- dance-single - Shortysnmn2010 ----------------
#NOTES:
     dance-single:
     Shortysnmn2010:
     Beginner:
     2:
     0.102648,0.184603,0,0.068796,0,94,94,0,9,0,0,0.102648,0.184603,0,0.068796,0,94,94,0,9,0,0:
0000
0000
0000
0000
,
0000
0000
0000
0000
,
0000
0000
0000
0000
,
0000
0000
0000
0000
,
0001
0000
0001
0000
,
0000
0000
0000
0000
,
1000
0000
1000
0000
,
0000
0000
0000
0000
,
0010
0000
0100
0000
,
0000
0000
0000
0000
,
0100
0000
0010
0000
,
0000
0000
0000
0000
,
1000
0000
0001
0000
,
0000
0000
0000
0000
,
0001
0000
1000
0000
,
0000
0000
0000
0000
,
0010
0000
0100
0000
,
0000
0000
0000
0000
,
0100
0000
0010
0000
,
0000
0000
0000
0000
,
1000
0000
0000
0000
,
0002
0000
0003
0000
,
0010
0000
0000
0000
,
0200
0000
0300
0000
,
1000
0000
0000
0000
,
0200
0000
0300
0000
,
0010
0000
0000
0000
,
0002
0000
0003
0000
,
1000
0000
1000
0000
,
0001
0000
0001
0000
,
1000
0000
1000
0000
,
0001
0000
0000
0000
,
0010
0000
0010
0000
,
0100
0000
0100
0000
,
0010
0000
0010
0000
,
0100
0000
0000
0000
,
1000
0000
0001
0000
,
1000
0000
0000
0000
,
0010
0000
0100
0000
,
0010
0000
0000
0000
,
1000
0000
0100
0000
,
1000
0000
0000
0000
,
0001
0000
0010
0000
,
0001
0000
0000
0000
,
0100
0000
0000
0000
,
0020
0000
0030
0000
,
1000
0000
0000
0000
,
0002
0000
0003
0000
,
0010
0000
0000
0000
,
0200
0000
0300
0000
,
1000
0000
0000
0000
,
0020
0000
0030
0000
,
1000
0001
1000
0000
,
0001
1000
0001
0000
,
1000
0001
1000
0000
,
0001
0000
0000
0000
,
0010
0100
0010
0000
,
0100
0010
0100
0000
,
0010
0100
0010
0000
,
0100
0000
0000
0000
,
1000
0100
1000
0000
,
0100
0000
0000
0000
,
0010
0000
0100
0000
,
0010
0000
0000
0000
,
0001
0010
0001
0000
,
0010
0000
0000
0000
,
0100
0000
0010
0000
,
0100
0000
1000
0000
,
0200
0000
0000
0000
,
0300
0000
0000
0000
;

//--------------- dance-single - Shortysnmn2010 ----------------
#NOTES:
     dance-single:
     Shortysnmn2010:
     Easy:
     4:
     0.176905,0.207918,0.030576,0.214033,0,162,158,4,28,0,0,0.176905,0.207918,0.030576,0.214033,0,162,158,4,28,0,0:
0000
0000
0000
0000
,
0000
0000
0000
0000
,
0000
0000
0000
0000
,
0000
0000
0000
0000
,
0002
0003
0002
0003
,
0000
1000
0010
0100
,
0020
0030
0020
0030
,
0000
0100
0001
0010
,
0200
0300
0200
0300
,
0000
1000
0100
0010
,
0002
0003
0002
0003
,
0000
0000
1001
0000
,
2000
3000
2000
3000
,
0000
0010
1000
0100
,
0020
0030
0020
0030
,
0000
0001
0100
0010
,
0200
0300
0200
0300
,
0000
0010
1000
0100
,
0002
0003
0002
0003
,
0000
0000
0110
0000
,
0100
0000
0000
0100
0000
0000
0000
0000
,
1000
0000
0000
1000
0000
0000
0000
0000
,
0010
0000
0000
0010
0000
0000
0000
0000
,
0100
0000
0000
0100
0000
0000
0000
0000
,
0001
0000
0000
0001
0000
0000
0000
0000
,
1000
0000
0000
1000
0000
0000
0000
0000
,
0010
0000
0100
0010
,
0100
0000
0010
0000
,
1000
0001
1000
0001
,
1000
0000
0001
0000
,
0010
0001
0010
0001
,
0010
0000
0100
0000
,
1000
0100
1000
0100
,
1000
0000
0010
0000
,
0100
0000
0001
0000
,
1000
0000
0010
0000
,
2000
3000
0002
0003
,
0000
1000
0010
0100
,
0020
0030
0200
0300
,
0000
0001
1000
0100
,
2000
3000
0002
0003
,
0000
0010
0001
0100
,
0020
0030
0200
0300
,
0000
0000
0110
0000
,
0001
0000
0000
0001
0000
0000
0000
0000
,
1000
0000
0000
1000
0000
0000
0000
0000
,
0100
0000
0000
0010
0000
0000
0000
0000
,
0010
0000
0000
0100
0000
0000
0000
0000
,
1000
0000
0000
0001
0000
0000
0000
0000
,
0001
0000
0000
1000
0000
0000
0000
0000
,
0010
0000
0100
0010
,
0100
0000
0010
0000
,
0100
0001
0100
0001
,
1000
0000
0100
0000
,
1000
0001
1000
0001
,
0100
0000
0010
0000
,
1000
0001
1000
0001
,
0010
0000
0001
0000
,
0010
0000
1000
0010
,
0100
0000
0010
0000
,
0200
0300
1000
0001
,
0100
0000
0001
1000
,
0020
0030
1000
0001
,
0010
0000
0100
0010
,
0002
0003
1000
0010
,
1000
0000
0100
0010
,
0200
0300
1000
0001
,
1000
0000
0010
0010
,
1001
0000
0000
0000
;

//--------------- dance-single - Shortysnmn2010 ----------------
#NOTES:
     dance-single:
     Shortysnmn2010:
     Medium:
     7:
     0.285013,0.341593,0.145237,0.267541,0,261,242,19,35,0,0,0.285013,0.341593,0.145237,0.267541,0,261,242,19,35,0,0:
0000
0000
0000
0000
,
0000
0000
0000
0000
,
0000
0000
0000
0000
,
0000
0000
0000
0000
,
0010
0000
2002
3003
,
0000
0001
0100
0000
0010
0000
1000
0000
,
0001
0000
0220
0330
,
0000
1000
0100
0000
0010
0000
0001
0000
,
1000
0000
0202
0303
,
0000
0010
1000
0000
0100
0000
1000
0000
,
0001
0000
2200
3300
,
0000
0000
0000
0220
0000
0330
0000
0000
,
0002
1003
2000
3001
,
0000
0001
0010
0000
0100
0000
1000
0000
,
0020
0130
0200
0310
,
0000
0010
0100
0000
0001
0000
0010
0000
,
0200
1300
2000
3100
,
0010
0100
0010
0000
0001
0010
0001
0000
,
0200
0301
0002
0103
,
0000
0000
0000
0220
0000
0330
0000
0000
,
0010
0000
0000
1010
0000
0000
0000
0000
,
1000
0000
0000
0101
0000
0000
0000
0000
,
0001
0000
0000
0011
0000
0000
0000
0000
,
0100
0000
0000
1001
0000
0000
0000
0000
,
1000
0000
0010
0000
0100
0000
0001
0010
,
0001
0000
0000
1001
0000
0000
0000
0000
,
0001
0000
1000
0100
1000
0000
0010
0000
,
0100
0000
0000
0100
0010
0000
0010
0000
,
1000
0100
1000
0000
0100
0000
0010
0000
,
0100
1000
0100
0000
1001
0000
0000
0000
,
0001
0100
0001
0000
0100
0000
0010
0000
,
0100
0001
0100
0000
0010
0000
0010
0000
,
1000
0100
1000
0000
0010
0000
0100
0000
,
0010
1000
0010
0000
1001
0000
0000
0000
,
0010
0000
0100
0001
1000
0000
0100
0000
,
0010
0000
0000
0100
0010
0000
0010
0000
,
0200
1300
2000
3010
,
0000
0100
0001
0000
0010
0000
0001
0000
,
0200
0301
0002
0013
,
0000
0100
1000
0000
0010
0000
0100
0000
,
0020
1030
2000
3001
,
0000
0100
0010
0000
0100
0000
0001
0000
,
0020
0130
0200
1300
,
0000
0000
0000
2002
0000
3003
0000
0000
,
0010
0000
0000
0101
0000
0000
0000
0000
,
0001
0000
0000
0110
0000
0000
0000
0000
,
1000
0000
0000
0011
0000
0000
0000
0000
,
0100
0000
0000
1001
0000
0000
0000
0000
,
1000
0000
0010
0100
0001
0000
1000
0000
,
0100
0000
0000
0110
0000
0000
0000
0000
,
0100
0000
1000
0100
0010
0000
0100
0000
,
1000
0000
0000
0001
1000
0000
1000
0000
,
0001
0100
0001
0000
1000
0000
0010
0000
,
0001
0000
0010
0100
0010
0000
0000
0000
,
1000
0100
1000
0000
0001
0000
0100
0000
,
1000
0000
0100
0000
0001
1000
0001
1000
,
0001
0000
0010
1000
0010
0000
0100
0000
,
1000
0000
0010
1000
0010
0000
0000
0000
,
0100
0000
0001
1000
0001
0000
0010
0000
,
0100
0000
0000
0100
1000
0000
0010
0000
,
0100
0000
0001
0100
0002
0000
0100
0000
,
0100
1000
0100
0103
,
0010
0000
1000
0010
2000
0000
0100
0000
,
0100
0001
0100
3001
,
0010
0000
0100
1000
0200
0000
0010
0000
,
0001
0000
0010
0000
1000
0000
1000
0300
,
0001
0000
0010
0100
1000
0000
0010
0000
,
0100
0000
0000
0010
0100
0000
0100
0000
,
0020
0200
0000
0000
0000
0000
0330
0000
;

//--------------- dance-single - Shortysnmn2010 ----------------
#NOTES:
     dance-single:
     Shortysnmn2010:
     Hard:
     10:
     0.377834,0.441825,0.298117,0.43571,0,346,307,39,57,0,0,0.377834,0.441825,0.298117,0.43571,0,346,307,39,57,0,0:
0000
0000
0000
0000
,
0000
0000
0000
0000
,
0000
0000
0000
0000
,
0000
0000
0000
0000
,
0200
0300
2002
3003
,
0000
0010
0001
0100
0001
1000
0100
0000
,
0020
0030
2002
3003
,
0000
0100
0010
1000
0001
0000
0100
0000
,
0020
0030
0202
0303
,
0000
0010
1000
0010
0100
0001
0010
0000
,
0200
0300
0022
0033
,
0000
0000
0000
0110
0000
0000
0000
0000
,
2100
3001
0102
1003
,
0010
1000
0100
1000
0001
0100
1000
0000
,
1200
0301
1020
0031
,
0010
0100
0001
1000
0100
0000
0010
0000
,
2100
3010
2010
3100
,
1000
0100
0010
1000
0010
0001
1000
0000
,
0102
0013
0012
0103
,
0000
0000
0000
0110
0000
0000
0000
0000
,
1000
0000
0000
0202
0000
0303
0000
0000
,
0010
0000
0000
2002
0000
3003
0000
0000
,
0010
0000
0000
2200
0000
3300
0000
0000
,
0001
0000
0000
0220
0000
0330
0000
0000
,
1000
0100
0010
0001
0100
0010
0100
0001
,
0010
0000
0000
2200
0000
3300
0000
0000
,
0020
0000
0031
1000
0001
0000
0100
0000
,
0110
0000
0100
0100
,
0001
0010
0001
0010
0100
1000
0010
1000
,
0100
0010
0100
0010
0002
0000
1003
0000
,
0010
1000
0010
1000
0100
0010
0001
0100
,
0010
0100
0010
0100
0001
0001
1000
1000
,
0100
0010
0100
0010
0001
1000
0001
1000
,
0010
0100
0001
0010
0002
0000
0103
0000
,
0010
0000
1000
0001
1000
0000
0100
0000
,
0110
0000
0000
0100
1000
0000
0010
0000
,
2010
3001
1002
0013
,
0200
0000
1300
0001
0010
0001
0100
0000
,
0210
0301
0102
0013
,
0100
1000
0001
1000
0100
0000
0001
0000
,
0201
1300
0021
1030
,
0010
0100
1000
0010
0100
0010
1000
0000
,
2010
3001
0102
0013
,
0000
0000
0000
0110
0000
0000
0000
0000
,
0100
0000
0000
2002
0000
3003
0000
0000
,
0010
0000
0000
0202
0000
0303
0000
0000
,
1000
0000
0000
0220
0000
0330
0000
0000
,
0001
0000
0000
2200
0000
3300
0000
0000
,
0010
0001
0100
1000
0100
0001
0010
0100
,
1000
0000
0000
2020
0000
3030
0000
0000
,
0200
0000
0301
1000
0001
0000
0010
0000
,
0110
0000
0100
0100
,
1000
0010
0100
0001
0010
0100
1000
0001
,
0100
0010
0100
0010
2000
0000
3001
0000
,
1000
0100
0001
0100
1000
0010
0100
0010
,
1000
0001
1000
0001
0010
0010
0100
0100
,
1000
0001
0100
0001
1000
0010
0100
0010
,
1000
0100
1000
0100
0020
0000
0130
0000
,
1000
0000
0010
0100
0010
0000
1000
0000
,
1001
0000
0001
0001
,
1000
0000
0100
0010
0001
0010
0100
0010
,
0100
1000
0010
1000
0100
0010
0100
0000
,
1000
0000
1001
0000
0100
0010
0100
0001
,
0010
0100
1000
0010
0100
0010
0010
0000
,
1000
0001
0100
0001
0010
0010
0000
0100
,
0010
0100
1000
0020
0100
0000
0130
0000
,
1001
0000
0010
1000
0100
0000
1000
0000
,
0020
0000
0030
0100
0010
0000
0100
0001
,
0010
0000
0000
0000
;

//--------------- dance-single - Shortysnmn2010 ----------------
#NOTES:
     dance-single:
     Shortysnmn2010:
     Challenge:
     12:
     0.461918,0.534127,0.275185,0.282829,0.080262,423,387,36,37,0,0,0.461918,0.534127,0.275185,0.282829,0.080262,423,387,36,37,0,0:
0000
0000
0000
0000
,
0000
0000
0000
0000
,
0000
0000
0000
0000
,
0000
0000
0000
0000
,
2100
3001
0102
1003
,
0010
1000
0100
1000
0001
0100
0010
0000
,
0102
1003
2100
3001
,
0010
0001
1000
0010
1000
0000
0001
0000
,
0012
0103
0102
0013
,
0100
1000
0001
1000
0100
0001
0100
0000
,
2100
3010
2010
3100
,
0010
0000
0000
2002
0000
3003
0000
0000
,
0102
1003
1020
0031
,
0010
1000
0010
1000
0001
0010
0100
0000
,
2100
3001
0201
1300
,
0100
0001
0010
0100
1000
0000
0010
0000
,
1000
0100
1000
0100
0010
0001
0100
0001
,
0010
0100
0010
0100
1000
0010
0100
0001
,
4000
0004
0000
0000
0000
0000
0000
0000
0000
0000
0000
0000
0000
0000
0000
0000
,
0000
0000
0000
3003
0000
0000
0000
0000
,
0010
1000
0100
0001
0100
1000
0002
0000
,
0010
0000
0000
0013
0000
0000
0000
0000
,
0100
1000
0001
0100
1000
0100
0001
1000
,
0010
0000
0000
1001
0000
0000
0000
0000
,
1000
0100
0010
1000
0010
0100
2000
0000
,
0010
0000
0000
3010
0000
0000
0000
0000
,
0110
0000
0100
0001
1000
0000
0010
0000
,
2000
0000
3000
0001
1000
0000
0001
0000
,
1000
0000
0100
1000
0100
0000
0010
0000
0001
0000
1000
0000
0001
0000
0100
0000
,
1000
0000
0100
0001
0100
0000
0010
0000
1000
0000
0100
0000
1100
0000
0000
0000
,
1000
0000
0010
0100
0010
0000
1000
0000
0001
0000
0010
0000
1000
0000
0010
0000
,
0001
0000
0100
0010
0100
0000
0002
0000
0010
0000
0010
0000
0010
0000
0013
0000
,
0100
0000
1000
0100
0010
0000
0001
0000
1000
0000
0010
0000
1000
0000
0001
0000
,
0100
0000
0010
0100
0001
0000
0010
0000
0100
0000
0010
0000
0011
0000
0000
0000
,
1000
0000
0010
0100
0001
0000
0010
0000
0001
0000
0100
0000
0110
0000
0000
0000
,
0002
0000
0003
1000
0001
0000
1000
0000
,
2010
0000
0000
0000
3100
0000
0000
0000
0012
0000
0000
0000
0100
0003
0000
0000
,
0010
0100
0001
0001
0010
0100
1000
0000
,
0102
0013
2100
3010
,
0100
0001
1000
0100
1000
0000
0010
0000
,
1020
0031
1200
0301
,
1000
0010
0001
1000
0100
0001
1000
0000
,
0021
1030
0201
1300
,
0001
0000
0000
0220
0000
0330
0000
0000
,
1000
0001
0100
0010
0100
0001
0020
0000
,
0100
0000
0000
0130
0000
0000
0000
0000
,
1000
0100
0010
0100
1000
0010
0100
0010
,
1000
0000
0000
1001
0000
0000
0000
0000
,
0001
0010
0100
0010
1000
0010
0002
0000
,
0100
0000
0000
0103
0000
0000
0000
0000
,
0110
0000
0100
0001
1000
0000
0100
0000
,
0110
0000
0000
0010
0100
0000
0100
0000
,
1000
0000
0001
0100
0001
0000
1000
0000
0010
0000
0001
0000
0010
0000
1000
0000
,
0001
0000
0100
0001
0100
0000
0010
0000
1000
0000
0100
0000
1100
0000
0000
0000
,
1000
0000
0010
0100
0010
0000
1000
0000
0100
0000
0010
0000
0001
0000
0010
0000
,
0100
0000
0001
0100
0001
0000
0200
0000
1000
0000
1000
0000
1000
0000
1300
0000
,
0001
0000
0100
0010
0100
0000
0001
0000
0010
0000
0100
0000
1000
0000
0001
0000
,
0100
0000
0010
0100
0001
0000
1000
0000
0100
0000
0010
0000
0110
0000
0000
0000
,
0001
0000
0010
0001
1000
0000
0200
0000
1000
0000
0000
0000
0010
0000
0000
0000
,
0301
0000
0000
0100
0001
0000
0100
0000
,
1000
0000
0100
1000
0100
0000
0010
0000
1000
0000
0010
0000
0100
0000
1000
0000
,
0010
0000
0100
1000
0100
0000
0010
0000
1000
0000
0100
0000
0110
0000
0000
0000
,
0001
0000
0010
0100
0010
0000
0001
0000
0100
0000
0010
0000
0100
0000
0001
0000
,
0100
0000
0010
0001
0010
0000
0100
0000
0001
0000
0010
0000
0110
0000
0000
0000
,
0100
0000
1000
0001
0100
0000
1000
0000
0001
0000
1000
0000
0100
0000
0001
0000
,
1000
0000
0001
1000
0100
0000
0001
0000
0100
0000
1000
0000
1001
0000
0000
0000
,
0020
0000
0130
0001
1000
0000
0100
0000
,
0110
0000
0000
0100
1000
0100
0010
0001
,
1000
0000
0000
0000
0000
0000
0000
0000
2000
0000
0000
0000
0000
0000
0000
0000
0010
0000
0000
0000
0000
0000
0000
0000
0001
0000
0000
0000
0000
0000
0000
0000
0000
0000
0000
0000
0000
0000
0000
0000
0000
0000
0000
0000
0000
0000
0000
0000
3002
0000
0000
0000
0000
0000
0000
0000
0000
0000
0000
0000
0000
0100
0000
0000
,
0000
0000
0000
0000
0000
0000
0000
0000
0000
0000
0000
0000
0000
0000
0000
0000
0100
0000
0000
0000
0000
0000
0000
0000
0000
0000
0000
0000
0000
0000
0000
0000
0000
0000
0000
0000
0000
0000
0000
0000
0000
0000
0000
0000
0000
0000
0000
0000
0000
0000
0000
1000
0000
0000
0000
0000
0000
0000
0000
0000
0000
0000
0000
0000
0000
0000
0000
0000
0000
0000
0000
0000
0000
0000
0000
0000
0000
0000
0000
0000
0000
0000
0000
0000
0000
0000
0000
0000
0000
0200
0000
0000
0000
0000
0000
0000
0000
0000
0000
0000
0000
0000
0000
0000
0000
0000
0000
0000
0000
0000
0000
0000
0000
0000
0000
0000
0000
0000
0000
0000
0000
0000
0000
0000
0000
0000
0000
0000
0000
0000
0000
0000
0000
0000
0000
0000
0000
0000
0000
0000
0000
0000
0000
0000
0000
0000
0000
0000
0000
0000
0000
0000
0000
0000
0000
0000
0000
0000
0000
0000
0000
0000
0000
0000
0000
0000
0000
0000
0303
0000
0000
0000
0000
0000
0000
0000
0000
0000
0000
0000
0000
0000
0000
0000
0000
0000
0000
0000
0000
0000
0000
0000
;
