#VERSION:0.83;
#TITLE:Light of my life;
#SUBTITLE:;
#ARTIST:S3RL;
#TITLETRANSLIT:;
#SUBTITLETRANSLIT:;
#ARTISTTRANSLIT:;
#GENRE:;
#ORIGIN:;
#CREDIT:;
#BANNER:Light of my life.png;
#BACKGROUND:Light of my life-bg.png;
#PREVIEWVID:;
#JACKET:Light of my life-jacket.png;
#CDIMAGE:;
#DISCIMAGE:;
#LYRICSPATH:;
#CDTITLE:;
#MUSIC:Light of my life.ogg;
#OFFSET:-0.050173;
#SAMPLESTART:50.779999;
#SAMPLELENGTH:15.000000;
#SELECTABLE:YES;
#BPMS:0.000=175.000,
145.500=87.500,
146.000=175.000;
#STOPS:144.000=0.171,
144.500=0.171,
145.000=0.171;
#DELAYS:;
#WARPS:;
#TIMESIGNATURES:0.000=4=4;
#TICKCOUNTS:0.000=4;
#COMBOS:0.000=1;
#SPEEDS:0.000=1.000=0.000=0;
#SCROLLS:0.000=1.000;
#FAKES:;
#LABELS:0.000=Song Start;
#BGCHANGES:;
#KEYSOUNDS:;
#ATTACKS:
;

//---------------dance-single - ----------------
#NOTEDATA:;
#CHARTNAME:;
#STEPSTYPE:dance-single;
#DESCRIPTION:;
#CHARTSTYLE:;
#DIFFICULTY:Hard;
#METER:13;
#RADARVALUES:0.651730,0.677188,0.179528,0.665308,0.174247,432.000000,415.000000,17.000000,63.000000,0.000000,0.000000,0.000000,0.000000,0.000000,0.651730,0.677188,0.179528,0.665308,0.174247,432.000000,415.000000,17.000000,63.000000,0.000000,0.000000,0.000000,0.000000,0.000000;
#CREDIT:Marten;
#NOTES:
0000
0000
0000
0000
,
0000
0000
0000
0000
,
0000
0000
0000
0000
,
0000
0000
0000
0000
,
0000
1000
0100
1000
0010
0100
0001
1000
,
0020
0000
0030
0000
,
0000
0100
0001
0100
1000
0100
0001
1000
,
0200
0000
0300
0000
,
0000
1000
0010
1000
0001
0010
1000
0010
,
0002
0000
0003
0001
1000
0010
0001
0010
,
2000
0000
3000
0001
0100
0010
1000
0001
,
0020
0000
0000
0000
0000
0000
0130
1000
,
0000
0001
0100
0001
1000
0100
0010
0001
,
1001
0000
0001
1000
0010
0010
1000
0000
,
0001
0000
0000
1000
0001
0000
0100
0000
0010
0000
0010
0000
0100
0000
0001
0000
,
1000
0000
0100
1000
0001
0001
0010
0000
,
0100
0000
0000
1000
0010
0000
1000
0000
0001
0000
0001
0000
0010
0000
0100
0000
,
1000
0000
0100
1000
0001
0100
1000
0100
,
0001
0000
1000
0010
0100
0001
0010
0100
,
2000
0000
3001
0100
0001
0001
1000
0001
,
0200
0000
0000
0300
,
1010
0000
0010
0000
1000
0100
0001
0100
,
1000
0000
0000
0001
1000
0000
1000
0000
0001
0000
0100
0000
1000
0000
0100
0000
,
0001
0000
0001
0000
0010
0001
0100
0010
,
1000
0000
0000
0001
0010
0000
0010
0000
1000
0000
0010
0000
0001
0000
1000
0000
,
0020
0130
0001
2000
,
3200
0320
0130
2000
,
3002
0000
0203
0000
0310
0000
1000
0001
,
0010
0000
0001
1000
0010
1000
0001
0100
,
0010
0000
0000
1000
0000
0000
0001
0000
0000
0010
0000
0100
0000
1000
0100
0000
,
0010
0000
0000
0001
0000
0000
1000
0000
0000
0010
0000
0100
0000
0001
0100
0000
,
0001
0000
0000
1000
0000
0000
0100
0000
0000
0010
0000
0001
0000
1000
0001
0000
,
1000
0000
0000
0001
0000
0000
0100
0000
0000
0010
0000
1000
0000
0001
1000
0000
,
0010
1000
0100
1000
0010
1000
0100
0010
,
0001
0100
0001
0010
0001
0100
0001
0010
,
0100
1000
0010
0001
0010
1000
0001
1000
,
0002
0000
0023
0000
0230
0000
1300
1000
1100
0000
0000
0000
0011
0000
0000
0000
,
0001
0000
0100
0000
0001
0000
0010
0000
1000
0000
0000
0010
0001
0000
0001
0000
,
1000
0010
0100
0010
1000
0000
1100
0000
,
1000
0000
0100
0000
0001
0000
0100
0000
1000
0000
0000
0001
0200
0000
0000
0000
,
0302
0000
0013
0010
0011
0000
1100
0000
,
1000
0000
0010
0000
0001
0000
0010
0000
1000
0000
0000
0001
1000
0000
1000
0000
,
0001
0100
0010
0100
0001
0000
0101
0000
,
0001
0000
0100
0000
1000
0000
0100
0000
0001
0000
0000
1000
0200
0000
0000
0000
,
2300
0000
3010
0010
1020
0000
0130
0001
,
1000
0100
0020
0031
0002
0103
0200
0301
,
0010
0100
2000
3010
0020
1030
2000
3001
,
0100
0010
1000
0001
0010
1000
0020
0000
,
0032
0000
1003
1000
2100
0000
3001
0100
,
1000
0100
0002
0013
0020
0130
0200
1300
,
0001
0100
0020
1030
2000
3001
0002
1003
,
0100
0001
0100
1000
0002
0000
0000
0000
,
0000
0000
0003
0000
0020
0030
0022
0033
,
2002
3003
1020
2030
3010
0100
1000
0100
,
0001
1000
0100
0010
0002
0003
2002
3003
,
2020
3030
0021
0032
0013
0100
0001
0100
,
1000
0010
0100
0001
2000
0000
3100
1000
,
0001
0100
1000
0100
0002
0000
0013
0001
,
1000
0100
0010
0001
2000
0000
0010
0000
,
0001
0000
0100
3100
1000
0001
0100
0001
,
0010
1000
0010
0001
2000
3010
0020
1000
,
0230
0001
0310
0020
1030
0100
0001
0100
,
1000
0001
0010
1000
0020
0031
2000
0100
,
3002
0010
1003
2000
3010
1000
0100
0010
,
0001
0000
0100
0000
0010
0000
1000
0000
0001
0000
0000
1000
0100
0000
1000
0000
,
0001
0100
0000
0001
0000
0100
0001
0000
1000
0000
0000
0001
0010
0000
0100
0000
,
1000
0010
0000
1000
0000
0010
1000
0000
0001
0000
0000
0000
1001
0000
1000
0000
,
0100
0100
0010
0000
0100
0000
0000
0000
;

//---------------dance-single - ----------------
#NOTEDATA:;
#CHARTNAME:;
#STEPSTYPE:dance-single;
#DESCRIPTION:;
#CHARTSTYLE:;
#DIFFICULTY:Medium;
#METER:10;
#RADARVALUES:0.503884,0.641547,0.126725,0.454099,0.058082,334.000000,322.000000,12.000000,43.000000,0.000000,0.000000,0.000000,0.000000,0.000000,0.503884,0.641547,0.126725,0.454099,0.058082,334.000000,322.000000,12.000000,43.000000,0.000000,0.000000,0.000000,0.000000,0.000000;
#CREDIT:Marten;
#NOTES:
0000
0000
0000
0000
,
0000
0000
0000
0000
,
0000
0000
0000
0000
,
0000
0000
0000
0000
,
0000
0001
0100
0001
0100
0010
1000
0010
,
2000
0000
3000
0000
,
0000
1000
0100
1000
0100
0010
0001
0010
,
0002
0000
0003
0000
,
0000
1000
0100
0000
1000
0010
1000
0010
,
0200
0000
0300
0000
0001
0010
0001
0010
,
0200
0000
0300
0000
1000
0001
1000
0001
,
0020
0000
0000
0000
0000
0000
0130
0100
,
0000
1000
0001
0000
0100
0001
0100
0000
,
0010
0000
1000
0100
1000
0000
0001
0000
,
1000
0000
0000
1000
0000
0000
1000
0000
0010
0000
1000
0000
0100
0000
0000
0000
,
0010
0000
0001
0100
0001
0000
1000
0000
,
0001
0000
0000
0001
0000
0000
0001
0000
0010
0000
0001
0000
0100
0000
0000
0000
,
0020
0000
0030
0000
1000
0100
1000
0100
,
0020
0000
0030
0000
0001
0100
0001
0100
,
0002
0000
0000
0000
0000
0000
1003
1000
,
0000
0000
0000
0000
,
2000
0000
3001
0000
1000
0100
1000
0100
,
0020
0000
0031
0000
1000
0001
1000
0001
,
0200
0000
0301
0000
1000
0100
1000
0100
,
2000
0000
3010
0000
0100
0001
0100
0001
,
2000
3100
1000
0020
,
0230
0302
1003
0002
,
0023
0230
1300
0001
,
0100
0000
0010
1000
0001
1000
0010
0000
,
1000
0000
0000
0100
0000
0000
0010
0000
0000
0001
0000
0000
1000
0000
0000
0000
,
0001
0000
0000
0100
0000
0000
0010
0000
0000
1000
0000
0000
0001
0000
0000
0000
,
1000
0000
0000
0010
0000
0000
0100
0000
0000
0001
0000
0000
1000
0000
0000
0000
,
0001
0000
0000
0010
0000
0000
0100
0000
0000
1000
0000
0000
0001
0000
0000
0000
,
1000
0100
1000
0000
0001
0100
0001
0000
,
1000
0010
1000
0000
0001
0010
0001
0000
,
1000
0000
0010
0000
0100
0010
0100
0010
,
2000
0000
3200
0000
0320
0000
0031
0001
0011
0000
0000
0000
0011
0000
0000
0000
,
0001
0100
0001
1000
0100
0000
1000
0000
,
0010
1000
0010
1000
0100
0000
1000
0000
,
0001
0100
0001
0010
0100
0000
2000
0000
,
3002
0000
1003
1000
1010
0000
1010
0000
,
1000
0100
1000
0001
0100
0000
0001
0000
,
0010
0001
0010
0001
0100
0000
0001
0000
,
1000
0100
1000
0010
0100
0000
0002
0000
,
2003
0000
3001
0001
0010
0001
0100
0000
,
0010
2000
3002
0023
,
0130
1000
0002
0000
0203
0000
0320
0000
,
1030
0010
0100
0010
1000
0000
0200
0000
,
2300
0000
3001
0100
0002
0000
0013
0000
,
0100
1000
0002
0000
2003
0000
3020
0000
,
0130
0001
0200
0000
0320
0000
2030
0000
,
3001
0010
0001
1000
0002
0000
0000
0000
,
0000
0003
1000
1010
,
1001
0000
0001
0001
0000
0000
1000
0000
,
0100
1000
0001
0000
1000
0000
1100
0000
,
1001
0000
0001
0001
0000
0000
1000
0000
,
0010
1000
0001
0000
0100
0000
0001
0000
,
0010
0001
1000
0000
0100
0000
1000
0000
,
0010
0100
0010
1000
0002
0000
1000
0000
,
1000
0000
1003
0001
0000
0010
0001
0000
,
0100
0001
1000
0000
0001
0000
0011
0000
,
1001
0000
1000
1000
0000
0000
0001
0000
,
0100
0001
1000
0000
0001
0000
0101
0000
,
1001
0000
1000
1000
0000
0000
0001
0000
,
0010
0001
1000
0000
0010
1000
0100
0000
,
0010
0001
0100
0000
0001
1000
0001
1000
,
0010
0100
0001
1000
0001
0000
0010
0100
,
1000
1000
0001
0000
0100
0000
0000
0000
;

//---------------dance-single - ----------------
#NOTEDATA:;
#CHARTNAME:;
#STEPSTYPE:dance-single;
#DESCRIPTION:;
#CHARTSTYLE:;
#DIFFICULTY:Easy;
#METER:6;
#RADARVALUES:0.346986,0.463339,0.137286,0.559703,0.000000,230.000000,217.000000,13.000000,53.000000,0.000000,0.000000,0.000000,0.000000,0.000000,0.346986,0.463339,0.137286,0.559703,0.000000,230.000000,217.000000,13.000000,53.000000,0.000000,0.000000,0.000000,0.000000,0.000000;
#CREDIT:Marten;
#NOTES:
0000
0000
0000
0000
,
0000
0000
0000
0000
,
0000
0000
0000
0000
,
0000
0000
0000
0000
,
0000
1000
0100
0010
,
0002
0000
0003
0000
,
0000
0001
0100
0010
,
2000
0000
3000
0000
,
0000
0001
1000
0100
,
2000
3000
0010
1000
,
0200
0300
1000
0001
,
0020
0000
0000
0031
,
0000
0100
0001
0001
,
0020
0031
0100
0100
,
0010
1000
0001
1000
,
0020
1030
0100
0100
,
0010
0001
1000
0001
,
0200
0300
0001
1000
,
0200
0300
1000
0001
,
2000
0000
0000
3001
,
0000
0000
0000
0000
,
1000
1000
0100
0010
,
0001
0001
0100
0001
,
0100
0100
0010
1000
,
0100
0100
1000
0100
,
0020
0030
0000
0002
,
2003
3020
0030
0200
,
0302
2003
3000
0001
,
1000
1000
0001
1000
,
1001
0001
0100
0010
,
1000
1000
0100
0010
,
0001
0001
0010
0100
,
1000
1000
0010
0100
,
0001
0001
1000
1000
,
0010
0010
0100
0100
,
0001
0010
1000
0010
,
0002
2003
3002
0103
0110
0000
0110
0000
,
0010
1000
0001
0001
,
0010
0100
1000
1000
,
0010
0100
0001
2000
,
3002
0023
0130
0100
,
1000
0010
0100
0100
,
0001
1000
0001
0001
,
0010
0100
1000
0020
,
2030
3002
0023
0130
,
1000
0020
0230
0302
,
0003
0020
0230
2300
,
3000
0010
0100
0002
,
2003
3020
2030
3100
,
1000
0002
0023
0230
,
0300
2000
3020
0230
,
0300
0001
2002
0000
,
3003
0000
0110
0110
,
2001
3001
0000
0001
,
0010
0100
0010
0110
,
1002
1003
0000
0010
,
1000
0001
0200
0301
,
0010
0100
2000
3100
,
1000
0010
0200
0010
,
0010
0310
0000
0100
,
0001
1000
0010
0110
,
1002
1003
0000
0100
,
0010
0001
0010
0110
,
2001
3001
0000
0100
,
0001
1000
0100
0100
,
0010
0001
0100
0100
,
0010
1000
0002
0000
,
0000
0103
0010
0000
;
